#TITLE:K8107;
#SUBTITLE:;
#ARTIST:onoken;
#TITLETRANSLIT:;
#SUBTITLETRANSLIT:;
#ARTISTTRANSLIT:;
#CREDIT:;
#BANNER:k8107.png;
#BACKGROUND:K8107-bg.png;
#LYRICSPATH:;
#CDTITLE:;
#MUSIC:k8107.mp3;
#OFFSET:-0.040;
#SAMPLESTART:55.146;
#SAMPLELENGTH:12.000;
#SELECTABLE:YES;
#BPMS:0.000=180.000,84.000=90.000,88.000=180.000,152.000=90.000,160.000=180.000,224.000=90.000,226.000=180.000,322.000=90.000;
#STOPS:;
#BGCHANGES:;
// cache tags:
#FIRSTBEAT:4.000;
#LASTBEAT:330.250;
#SONGFILENAME:Songs/IzzySM Keyboard Mega Pack/k8107/k8107.sm;
#HASMUSIC:1;
#HASBANNER:1;
#MUSICLENGTH:119.902;
// end cache tags

//---------------dance-single - SMANIAC----------------
#NOTES:
     dance-single:
     SMANIAC:
     Challenge:
     11:
     1.000,1.000,1.000,0.300,1.000,866.000,168.000,36.000,0.000,0.000:
0000
0000
0000
0000
,
1000
1000
0000
0000
0001
0100
0010
1000
,
0100
0010
0000
0000
0001
0001
0000
0000
,
0100
0100
0000
0000
0010
1000
0001
0010
,
0001
1000
0000
0000
0001
0001
0000
0000
,
0010
0010
0000
0000
0100
0010
0001
0100
,
0010
1000
0100
0010
0001
0001
0000
0000
,
0010
0010
0000
0000
0100
0010
1000
0100
,
0010
0100
1000
0010
0100
0100
0000
0000
,
0010
0010
0000
0000
0100
0010
1000
0100
,
1000
0010
0100
0001
0100
0100
0000
0000
,
0001
0001
0000
0000
0100
0010
1000
0100
,
0001
0100
1000
0001
0100
0100
0000
0000
,
0011
0000
0000
1100
0000
0000
0110
0000
0000
0000
1001
0000
0000
0000
0100
0000
,
0011
0000
0000
1001
0000
0000
1100
0000
0000
0000
1010
0000
0100
0000
0010
0000
,
0101
0000
0000
1100
0000
0000
0110
0000
0000
0000
1010
0000
0000
0000
0101
0000
,
0110
0000
0000
1010
0000
0000
0101
0000
0000
0000
1000
0000
0101
0000
0000
0000
,
1010
0000
0000
0110
0000
0000
0101
0000
0110
0000
1010
0000
0000
0000
0101
0000
,
1001
0000
0000
1010
0000
0000
0101
0000
1010
0000
1001
0000
0110
0000
0101
0000
,
1001
0000
0000
0110
0000
0000
0101
0000
0000
0000
0101
0000
0000
0000
1100
0000
,
0011
0000
0000
1001
0000
0000
1010
0000
0110
0000
1001
0000
0011
0000
0000
0000
,
2002
3003
0000
0000
,
1000
0100
1000
0100
1000
0100
1000
0100
0010
0010
0010
0010
0001
0001
0001
0001
,
0100
0010
0100
0010
0100
0010
0100
0010
1000
1000
1000
1000
0100
0100
0100
0100
,
0010
0001
0010
0001
0010
0001
0010
0001
0100
0100
0100
0100
1000
1000
1000
1000
,
0100
0010
0100
0010
0100
0010
0100
0010
1000
1000
1000
1000
0100
0100
0100
0100
,
0001
0100
0001
0100
0001
0100
0001
0100
0010
0010
0010
0010
1000
1000
1000
1000
,
0100
0010
0100
0010
0100
0010
0100
0010
0001
0001
0001
0001
0100
0100
0100
0100
,
0010
1000
0001
1000
0010
1000
0001
1000
0100
1000
0001
1000
0100
1000
0001
1000
,
0100
0010
0100
1000
0100
0010
0100
1000
0001
0100
0010
0100
0001
0100
0010
0100
,
1001
0010
0001
0010
0001
0010
0001
0010
0100
0100
0100
0100
0010
0010
0010
0010
,
1000
0100
1000
0100
1000
0100
1000
0100
0010
0010
0010
0010
0001
0001
0001
0001
,
0101
0010
0001
0010
0001
0010
0001
0010
0100
0100
0100
0100
0010
0010
0010
0010
,
0001
0100
0001
0100
0001
0100
0001
0100
0010
0010
0010
0010
1000
1000
1000
1000
,
1001
0010
0100
0010
0100
0010
0100
0010
1000
1000
1000
1000
0001
0001
0001
0001
,
0010
0100
0010
0100
0010
0100
0010
0100
1000
1000
1000
1000
0100
0100
0100
0100
,
0011
1000
0001
1000
0010
1000
0001
1000
0100
1000
0001
1000
0100
1000
0001
1000
,
0010
0100
0010
1000
0010
0100
0010
1000
0001
0010
0100
0010
0001
0010
0100
0010
,
1002
1000
0000
1000
0000
1000
0000
1000
0000
0010
0000
0010
0000
0100
0000
0100
,
0000
1000
0000
1000
0000
1000
0000
1000
0000
0010
0000
1000
0000
1000
0003
1000
,
1001
1010
1001
1010
1001
1010
1001
1010
,
2002
0000
0000
3003
0110
0000
1001
0000
,
0110
0101
0110
0101
0110
0101
0110
0101
,
0220
0000
0000
0330
1010
0000
0101
0000
,
0011
1100
0011
1100
0011
1100
0011
1100
,
0022
0000
0000
0033
0101
0000
0110
0000
,
1010
0101
1010
0101
1010
0101
1010
0101
,
2020
0000
0000
3030
0110
0000
0101
0000
,
0011
0101
0011
0101
0011
0101
0011
0101
,
0022
0000
0000
0033
0110
0000
0101
0000
,
1010
1100
1010
1100
1010
1100
1010
1100
,
2020
0000
0000
3030
1001
0000
1001
0000
,
0110
0101
0110
1010
0110
0101
0110
1010
,
0220
0000
0000
0330
1010
0000
0101
0000
,
1001
0110
1001
0110
1001
0110
1001
0110
,
2002
0000
0000
3003
1010
0000
0101
0000
,
2002
0000
0000
0000
0000
0000
3003
0000
1001
0100
0010
0001
1000
0100
0010
0001
,
1000
0010
0100
0001
1000
0010
0100
0010
1001
0010
0100
0010
1000
0010
0100
0010
,
1000
0100
0010
0001
1000
0100
0010
0100
1001
0010
0100
0010
0001
0010
0100
0010
,
0001
0100
0010
1000
0001
0010
0100
0010
1001
0100
0010
0100
1000
0100
0010
0001
,
0100
0010
0100
0001
0010
0000
1001
0000
1001
0100
0010
0100
0001
0100
1000
0010
,
0100
0001
0010
0100
1000
0010
0100
0010
1001
0010
0100
0010
1000
0010
0100
0001
,
0010
0100
1000
0100
0010
0001
0100
0010
1001
0100
0010
0100
1001
0010
0100
0010
,
0101
1000
0011
1000
0101
1000
0011
1000
0101
0000
0100
0000
1001
0000
0010
0000
,
0110
0000
0100
0000
1001
0000
0010
0000
1001
0100
1000
0100
1000
0100
1000
0100
,
0011
0010
0010
0010
0100
0100
0100
0100
1000
0001
1000
0001
1000
0001
1000
0001
,
0110
0010
0010
0010
0100
0100
0100
0100
0010
0001
0010
0001
0010
0001
0010
0001
,
1100
1000
1000
1000
0100
0100
0100
0100
0010
0100
0010
0100
0010
0100
0010
0100
,
1001
1000
1000
1000
0001
0001
0001
0001
0010
0100
0010
0100
0010
0100
0010
0100
,
1001
1000
1000
1000
0100
0100
0100
0100
0010
0001
0010
0001
0010
0001
0010
0001
,
1100
0100
0100
0100
0010
0010
0010
0010
0001
0100
0010
0100
0001
0100
0010
0100
,
1001
0010
0100
1000
0100
0010
0100
1000
0010
0100
0010
0100
0010
0100
0010
0100
,
1001
0100
0010
0001
1000
0100
0010
0001
1010
0100
1000
0100
1000
0100
1000
0100
,
0010
0001
0010
0001
1000
0100
1000
0100
0010
0100
0010
0100
0010
0100
0010
0100
,
1000
0100
1000
0100
0010
0001
0010
0001
1001
0100
0001
0100
0001
0100
0001
0100
,
0010
1000
0010
1000
0001
1000
0001
1000
0010
0100
0010
0100
0010
0100
0010
0100
,
0001
1000
0001
1000
0100
0010
0100
0010
1001
0100
1000
0100
1000
0100
1000
0100
,
0010
0001
0010
0001
0100
0010
0100
0010
1000
0010
1000
0010
1000
0010
1000
0010
,
0100
0001
0100
0001
0010
0100
0010
0100
1001
0010
0001
0100
0010
1000
0100
0010
,
0001
0010
0100
1000
0010
0100
0001
1000
0010
0100
0001
0100
0010
1000
0100
0001
,
0100
1000
0001
0100
1000
0100
0001
0100
1002
0000
2000
0003
0002
3000
2000
0003
,
0002
3000
2000
0003
0002
3000
1000
0003
0120
0000
0200
0030
0020
0300
0200
0030
,
0020
0300
0200
0030
0020
0300
0200
0000
0000
0330
0000
0000
0000
0000
0000
0000
;

//---------------dance-single - MANIAC----------------
#NOTES:
     dance-single:
     MANIAC:
     Hard:
     9:
     0.714,0.689,0.325,0.367,0.100,516.000,39.000,44.000,0.000,0.000:
0000
0000
0000
0000
,
1000
1000
0000
0000
1000
0100
0010
0001
,
0100
0010
0000
0000
1000
1000
0000
0000
,
0100
0100
0000
0000
0001
0100
0010
1000
,
0100
0010
0000
0000
0001
0001
0000
0000
,
0010
0010
0000
0000
0100
0010
1000
0100
,
0010
0001
0100
0010
0100
0100
0000
0000
,
0010
0010
0000
0000
1000
0100
0010
0001
,
0010
0100
0010
1000
0100
0001
0000
0000
,
1000
1000
0000
0000
0001
0010
0100
1000
,
0010
0100
0001
0100
0010
0010
0000
0000
,
1000
1000
0000
0000
0010
0100
0001
0010
,
0100
0010
0100
1000
0100
0001
0000
0000
,
1000
0000
0000
0100
0000
0000
1000
0000
0000
0000
1000
0000
0000
0000
0100
0000
,
0010
0000
0000
0001
0000
0000
0010
0000
0000
0000
0010
0000
0100
0000
1000
0000
,
0001
0000
0000
1000
0000
0000
0001
0000
0000
0000
0001
0000
0000
0000
1000
0000
,
0100
0000
0000
0010
0000
0000
0100
0000
0000
0000
1000
0000
0001
0000
0000
0000
,
0001
0000
0000
0010
0000
0000
0001
0000
0000
0000
0001
0000
0000
0000
0100
0000
,
0010
0000
0000
1000
0000
0000
0100
0000
0000
0000
0100
0000
0010
0000
0100
0000
,
1000
0000
0000
0001
0000
0000
0100
0000
0000
0000
0010
0000
0000
0000
0010
0000
,
1000
0000
0000
0100
0000
0000
0001
0000
0000
0000
0100
0000
1000
0000
0000
0000
,
2002
3003
0000
0000
,
1000
0100
1000
0100
0020
0000
0032
0000
,
0103
0010
0100
0010
2000
0000
3200
0000
,
0310
0001
0100
0010
2000
0000
3200
0000
,
0310
0100
1000
0100
0020
0000
0032
0000
,
0103
0010
1000
0100
0020
0000
0032
0000
,
0013
0100
0010
0001
2000
0000
3200
0000
,
0310
0001
0100
0010
0100
0001
0010
0100
,
0010
0001
0100
0020
0000
2030
0000
3000
,
1001
0100
0010
1000
0200
0000
0320
0000
,
0031
0100
0010
0100
0002
0000
2003
0000
,
3010
0100
0010
0100
0002
0000
0203
0000
,
0310
0100
0001
1000
0020
0000
2030
0000
,
3010
0100
0001
0100
0020
0000
0230
0000
,
0301
1000
0100
0010
0002
0000
0203
0000
,
0310
1000
0100
0010
0100
1000
0010
0100
,
0010
1000
0100
0020
0000
0230
0000
2300
,
0000
0001
0000
0001
0000
0001
0000
0001
0000
0001
0000
0001
0000
0001
0000
0001
,
0000
0001
0000
0001
0000
0001
0000
0001
0000
0001
0000
0001
0000
0001
3000
0001
,
1001
0001
1000
0001
1000
0001
1000
0001
,
2000
3000
0110
1010
,
1001
1000
0001
1000
0001
1000
0001
1000
,
0002
0003
1010
1001
,
0110
0100
0010
0100
0010
0100
0010
0100
,
0020
0030
1100
0011
,
0110
0010
0100
0010
0100
0010
0100
0010
,
0200
0300
0011
1100
,
1010
1000
0010
1000
0010
1000
0010
1000
,
0020
0030
0011
1010
,
0101
0001
0100
0001
0100
0001
0100
0001
,
0200
0300
1010
1100
,
1001
0001
0100
0100
0010
0010
1000
1000
,
0002
0003
0110
1001
,
0110
0010
1000
1000
0100
0100
1000
1000
,
0002
0003
1010
0110
,
2002
0000
0000
3003
1000
0100
0010
0001
,
1000
0010
0100
0001
1000
0100
0001
0100
,
1000
0001
0010
1000
0010
0001
0100
0010
,
1000
0001
0100
0010
1000
0100
0010
0001
,
0100
0010
0000
0110
0010
0100
0001
1000
,
0100
0010
0001
0010
0100
1000
0010
0100
,
0001
0100
0010
1000
1001
0000
1001
0000
,
1001
1000
1001
0001
1001
0000
0110
0000
,
1001
0000
0110
0000
1000
0100
1000
0100
,
0010
0010
0001
0001
0100
0010
0100
0010
,
1000
1000
0100
0100
0010
0001
0010
0001
,
0100
0100
0010
0010
1000
0100
1000
0100
,
0010
0010
0100
0100
1000
0100
1000
0100
,
0010
0010
0001
0001
0100
0010
0100
0010
,
0100
0100
0001
0001
0100
0010
1000
0010
,
0100
0010
1000
0010
0100
0010
1000
0001
,
0010
0100
1000
0100
1001
0100
1000
0100
,
0010
0010
0001
0001
0100
0010
0100
0010
,
1000
1000
0100
0100
0010
0001
0010
0001
,
0100
0100
0010
0010
1000
0010
1000
0010
,
0100
0100
0001
0001
0010
0100
0010
0100
,
1000
1000
0100
0100
0010
0001
0010
0001
,
0010
0010
0100
0100
1000
0100
0001
0100
,
1000
0100
0001
0100
1000
0010
0001
0010
,
1000
0010
0001
0100
1002
1000
1000
1000
,
1000
1000
1000
1003
2001
0001
0001
0001
,
0001
0000
0001
0000
0001
0000
0002
0000
0000
3003
0000
0000
0000
0000
0000
0000
;

//---------------dance-single - ----------------
#NOTES:
     dance-single:
     :
     Medium:
     1:
     0.000,0.000,0.000,0.000,0.000,0.000,0.000,0.000,0.000,0.000:
0000
0000
0000
0000
;
