#TITLE:DROP THE BOMB;
#SUBTITLE:-System S.F. Mix-;
#ARTIST:Scotty D.;
#TITLETRANSLIT:;
#SUBTITLETRANSLIT:;
#ARTISTTRANSLIT:;
#CREDIT:;
#BANNER:dropsf-bn.png;
#BACKGROUND:dropsf-bg.png;
#LYRICSPATH:;
#CDTITLE:;
#MUSIC:dropsf.mp3;
#OFFSET:1.150;
#SAMPLESTART:38.858;
#SAMPLELENGTH:12.000;
#SELECTABLE:YES;
#BPMS:0.000=149.970,132.000=599.880,148.000=149.980;
#STOPS:;
#BGCHANGES:;
// cache tags:
#FIRSTBEAT:4.000;
#LASTBEAT:239.000;
#SONGFILENAME:Songs/IzzySM Keyboard Mega Pack/drop_the_bomb_system_sf_mix/drop_the_bomb_system_sf_mix.sm;
#HASMUSIC:1;
#HASBANNER:1;
#MUSICLENGTH:92.479;
// end cache tags

//---------------dance-single - Copied from heavy----------------
#NOTES:
     dance-single:
     Copied from heavy:
     Challenge:
     11:
     1.000,1.000,0.335,0.962,0.914,569.000,31.000,89.000,0.000,29.000:
0000
0000
0000
0000
,
0101
0010
0101
0010
0101
0010
0101
0010
,
0101
0010
0101
0010
0101
0010
0101
0010
,
0101
0000
0010
0000
0100
1000
0000
0100
0010
0000
0001
0000
1000
0100
0000
0010
,
0001
0000
1000
0000
0001
0100
0000
0001
1000
0000
0100
0000
0010
0000
0001
0000
,
1000
0100
0000
0010
0001
0000
1000
0000
0100
0010
0000
0001
1000
0000
0001
0000
,
0100
0001
0000
1000
0001
0000
0010
0000
0100
1000
0100
0010
0001
0010
0100
0000
,
1000
0100
0000
0010
0001
0000
0010
0000
0100
1000
0000
0100
0010
0000
0001
0000
,
1000
0001
0000
0100
0001
0000
1000
0000
0001
0100
0000
0001
0100
0000
0001
0000
,
0100
1000
0000
0010
0100
0000
0001
1000
0000
0100
0001
0000
0001
0000
0100
0000
,
0100
1000
0000
0010
0001
0000
1000
0001
0000
0100
0010
0000
0010
0000
1000
0000
,
0100
1000
0100
0010
0001
0000
0100
0000
1000
0010
0001
0000
1000
0010
0001
0000
,
0100
0010
0100
0010
0001
0000
0010
0000
1000
0010
0100
0000
1000
0010
0100
0000
,
0001
0010
0000
0100
1000
0000
1000
0001
0000
0100
0010
0000
0100
0000
1000
0000
,
0100
0010
0000
0100
1000
0000
0010
0001
0000
0100
0010
0000
0001
0000
0001
0000
,
1000
0001
0100
0001
1000
0000
1000
0000
0100
0010
0100
0000
1000
0001
0100
0000
,
1000
0001
0100
0001
0010
0000
1000
0000
0010
0001
0100
0000
0001
0010
0100
0000
,
0001
0010
0000
0001
0100
0000
0001
0010
0000
1000
0010
0000
0100
0000
1000
0000
,
0001
0100
0000
0100
0001
0000
0001
1000
0000
0100
1000
0000
1000
0000
0010
0000
,
1000
0100
0010
0001
1000
0010
0100
0000
0010
0100
0010
0000
0100
0010
0100
0000
,
1000
0100
0001
0010
0100
1000
0100
0010
0001
0000
1000
0000
0010
0100
0001
0000
,
0100
0010
0000
0100
0010
0000
0001
0010
0000
0001
0010
0000
0100
0000
0010
0000
,
0001
0010
0000
0100
0010
0000
0001
0010
0000
0100
0010
0000
0001
0000
1000
0000
,
0100
0001
0000
1000
0001
0000
0100
0000
1000
0000
0100
0000
1000
0100
0001
0010
,
0001
0000
0020
0000
1030
0100
0001
0010
1000
0100
0001
0010
1000
0002
0100
0000
,
1000
0100
0010
1000
0100
1000
0100
0010
,
1000
0000
0100
0000
0010
0000
0100
0000
1003
0001
1000
0001
0100
0001
1000
0001
,
2000
0100
0001
0010
0001
0100
0001
0010
,
0100
0000
0010
0000
0001
0000
0010
0000
3100
0010
0001
0010
0001
0010
0001
0010
,
2001
0010
0100
0001
0100
0010
0001
0010
,
0100
0000
0010
0000
0001
0000
0100
0000
3001
0100
1001
0000
0010
0100
0001
0100
,
0010
0000
0100
0000
0001
0000
1000
0000
0010
1000
0100
1000
0100
0001
0010
1000
,
0100
0001
0010
1000
0100
0001
0010
1000
0100
0001
0010
1000
0100
0010
0001
0100
,
2020
0000
0000
0000
,
0000
0000
0000
0000
,
0000
0000
0000
0000
,
0000
0000
0000
0000
,
3100
0001
1000
0100
1000
0100
0001
0100
,
1000
0000
0100
0000
0001
0000
1000
0000
0100
0100
0000
0100
0100
0000
0100
0000
,
0001
0000
1000
0000
0100
0000
0001
0000
1000
0100
0000
0100
0001
0000
0100
0000
,
0001
0000
1000
0000
0100
0000
1000
0000
0100
1000
0000
0100
1030
0000
0100
0000
,
1001
0000
0100
0000
1001
0100
0000
0010
0101
0000
1000
0000
0101
0010
0000
0100
,
1001
0000
0100
0000
0011
1000
0000
1000
0011
0000
0100
0000
0011
0100
0010
0100
,
0011
0100
0010
0100
0011
0000
0100
0000
0011
0000
0100
0000
0011
0000
0110
0000
,
1000
0100
0010
0001
0010
0100
1000
0100
0010
0001
0010
1000
0100
0001
0010
0100
,
0020
1000
0100
0001
0100
0000
1000
0000
0100
0000
1000
0000
0100
0000
0001
0000
,
0100
0000
1000
0000
0100
0000
0001
0000
0100
0000
1000
0000
0100
0100
0000
0130
,
2010
0000
0001
0000
0010
0000
0001
0000
0010
0000
0100
0000
0010
0001
0010
0000
,
0001
0000
0100
0000
0001
0000
0100
0000
0010
0000
0010
0000
0001
0100
0010
0000
,
0010
0000
0001
0000
0010
0000
0001
0100
3020
0230
0320
0030
0020
0000
0002
0000
,
0200
0000
2333
0000
0002
0000
3020
0003
0031
0001
0002
0000
0013
0010
0020
0000
,
0031
0001
0002
0000
0013
0010
0020
0000
0031
0001
0002
0000
0203
0002
0020
0303
,
0032
0023
2000
0030
3020
0002
0233
0000
0302
0023
0230
0000
0320
0032
0023
0000
,
0230
0320
0230
0000
2300
3200
0302
0000
0023
0200
0332
0000
2003
3200
2300
0000
,
3200
0020
0332
0000
2003
3200
2300
0000
3002
0020
0200
0000
2333
3200
0320
0032
,
0023
2030
0200
3020
0302
2030
0203
3020
,
0302
2030
0023
0230
0320
0032
0203
0320
,
0230
0000
0320
0000
0032
0000
0023
0000
0230
0000
3320
0000
0032
0000
0013
0100
,
1000
0000
1001
0010
0100
0000
1001
0010
0100
0000
1001
0010
0100
0010
2002
0000
,
0000
0000
0000
0000
0000
0000
0000
0000
0000
0000
0000
3003
2002
0000
0000
0000
0000
0000
0000
0000
0000
0000
0000
0000
0000
0000
0000
0000
0000
0000
0000
0000
0000
0000
0000
0000
3003
0000
0000
0000
0000
0000
0000
0000
0000
0000
0000
0000
;
