#TITLE:Tiny Toon Adventures;
#SUBTITLE:Tiny Toon Adventures;
#ARTIST:Konami;
#TITLETRANSLIT:;
#SUBTITLETRANSLIT:;
#ARTISTTRANSLIT:;
#CREDIT:;
#BANNER:Tiny Toon Adventures.png;
#BACKGROUND:Tiny Toon Adventures-bg.png;
#LYRICSPATH:;
#CDTITLE:!gloveTitle.png;
#MUSIC:Tiny Toon Adventures.mp3;
#OFFSET:1.580;
#SAMPLESTART:18.417;
#SAMPLELENGTH:12.000;
#SELECTABLE:YES;
#BPMS:0.000=150.020;
#STOPS:;
#BGCHANGES:;
// cache tags:
#FIRSTBEAT:4.000;
#LASTBEAT:116.000;
#SONGFILENAME:Songs/VGMP 2/Tiny Toon Adventures (GLoVE)/Tiny Toon Adventures.sm;
#HASMUSIC:1;
#HASBANNER:1;
#MUSICLENGTH:44.832;
// end cache tags

//---------------dance-single - Copied from----------------
#NOTES:
     dance-single:
     Copied from:
     Challenge:
     12:
     1.000,1.000,0.602,0.357,1.000,347.000,27.000,16.000,0.000,0.000:
0000
0000
0000
0000
,
1000
0100
1000
0010
1000
0001
0100
0010
0100
0001
0010
0001
1000
0100
1000
0010
,
1000
0001
0100
0010
0100
0001
0010
0001
0200
0000
0000
0300
0000
0000
0100
0100
,
1000
0000
0000
0000
0000
0000
0101
0000
0010
0000
0001
0000
0100
0000
0000
0100
0000
0000
1000
0000
0000
1000
0000
0000
0010
0000
0000
0000
0000
0000
1010
0000
0100
0000
0001
0000
0010
0000
0000
0010
0000
0000
0100
0000
0000
0100
0000
0000
,
1000
0000
0100
0000
0010
0000
0100
0010
0001
0000
0000
0000
0100
0000
0100
0000
0001
0000
0000
0000
0110
0000
0100
0000
0002
0000
0000
0000
1000
0000
1000
0000
,
0103
0000
0000
0000
0001
0000
0000
0000
0000
0000
0000
0000
1000
0000
1000
0000
0001
0000
0000
0000
0010
0000
0100
0000
0010
0000
0100
0000
1000
0010
0100
0010
,
0001
0001
1000
1000
0100
0100
0010
0010
0001
0000
0000
0000
0000
0000
0010
0010
,
1000
0000
0001
0000
0000
0000
0100
0100
0001
0000
0010
0000
0000
0000
0010
0010
,
0100
1000
0010
0100
0001
0001
1000
0100
0010
0000
0100
0000
0000
0000
0010
0010
,
1000
0000
0100
0100
0100
0100
0100
0100
1000
0000
0001
0001
0001
0001
0001
0001
,
0010
0010
1000
1000
0010
0010
1000
1000
0001
0001
0000
0000
2002
0000
0000
3003
,
0202
0000
0000
0303
0202
0000
0303
1000
0001
0000
0010
0000
0010
0000
1000
0000
,
0100
0000
0000
0000
0001
0000
0000
0000
0010
0000
0000
0000
0001
0000
0000
0000
1000
0100
0010
0001
1000
0100
0010
0100
0001
0000
0000
0000
0100
0000
0000
0000
,
0010
0000
0000
0100
0001
0000
1000
0000
0100
0000
0010
0000
0001
0000
0101
1000
,
0011
0000
0000
0100
0000
0000
1001
0000
0000
0010
0000
0000
1001
0000
0000
0100
0000
0000
1001
0000
0000
0010
0000
0000
0101
0000
0000
0100
0000
0000
0010
0000
0010
0000
0010
0000
0001
0000
0000
0001
0000
0000
0100
0000
0000
0100
0000
0000
,
1000
0000
0000
0000
0000
0000
0101
0000
0010
0000
0001
0000
0100
0000
0000
0100
0000
0000
1000
0000
0000
1000
0000
0000
0010
0000
0000
0000
0000
0000
1010
0000
0100
0000
0001
0000
0010
0000
0000
0010
0000
0000
0100
0000
0000
0100
0000
0000
,
1000
0000
0100
0000
0010
0000
0100
0010
0001
0000
0000
0000
0100
0000
0100
0000
0001
0000
0000
0000
0110
0000
0100
0000
0002
0000
0000
0000
1000
0000
1000
0000
,
0103
0000
0000
0000
0001
0000
0000
0000
0000
0000
0000
0000
1000
0000
1000
0000
0001
0000
0000
0000
0010
0000
0100
0000
0010
0000
0100
0000
1000
0010
0100
0010
,
0001
0001
1000
1000
0100
0100
0010
0010
0001
0000
0000
0000
0000
0000
0010
0010
,
1000
0000
0001
0000
0000
0000
0100
0100
0001
0000
0010
0000
0000
0000
0010
0010
,
0100
1000
0010
0100
0001
0001
1000
0100
0010
0000
0100
0000
0000
0000
0010
0010
,
1000
0000
0100
0100
0100
0100
0100
0100
1000
0000
0001
0001
0001
0001
0001
0001
,
0010
0010
1000
1000
0010
0010
1000
1000
0001
0001
0000
0000
2002
0000
0000
3003
,
0202
0000
0000
0303
0202
0000
0303
1000
0001
0000
0010
0000
0010
0000
1000
0000
,
0100
0000
0000
0000
0001
0000
0000
0000
0010
0000
0000
0000
0001
0000
0000
0000
1000
0100
0010
0001
1000
0100
0010
0100
0001
0000
0000
0000
0100
0000
0000
0000
,
0010
0000
0000
0100
0001
0000
1000
0000
0100
0000
0010
0000
0001
0000
0101
1000
,
0011
0000
0000
0100
0000
0000
1001
0000
0000
0010
0000
0000
1001
0000
0000
0100
0000
0000
1001
0000
0000
0010
0000
0000
0101
0000
0000
0100
0000
0000
0010
0000
0010
0000
0010
0000
0001
0000
0000
0001
0000
0000
0100
0000
0000
0100
0000
0000
,
1000
0000
0000
0000
0000
0000
0101
0000
0010
0000
0001
0000
0100
0000
0000
0100
0000
0000
1000
0000
0000
1000
0000
0000
0010
0000
0000
0000
0000
0000
1010
0000
0100
0000
0001
0000
0010
0000
0000
0010
0000
0000
0100
0000
0000
0100
0000
0000
,
1000
0000
0100
0000
0010
0000
0100
0010
0001
0000
0000
0000
0100
0000
0100
0000
0001
0000
0000
0000
0110
0000
0100
0000
0002
0000
0000
0000
0000
0000
0000
0000
,
0003
0000
0000
0000
;

//---------------dance-single - Copied from Copied f----------------
#NOTES:
     dance-single:
     Copied from Copied f:
     Hard:
     11:
     1.000,1.000,0.223,0.357,1.000,333.000,10.000,16.000,0.000,0.000:
0000
0000
0000
0000
,
1000
0100
1000
0010
1000
0001
0100
0010
0100
0001
0010
0001
1000
0100
1000
0010
,
1000
0001
0100
0010
0100
0001
0010
0001
0200
0000
0000
0300
0000
0000
0100
0100
,
1000
0000
0001
0000
0000
0000
1000
1000
0010
0000
1000
0000
0000
0000
0100
0100
,
1000
0000
0100
0000
0010
0000
0100
0010
0001
0000
0000
0000
0100
0000
0100
0000
0001
0000
0000
0000
0110
0000
0100
0000
0002
0000
0000
0000
1000
0000
1000
0000
,
0103
0000
0000
0000
0001
0000
0000
0000
0000
0000
0000
0000
1000
0000
1000
0000
0001
0000
0000
0000
0010
0000
0100
0000
0010
0000
0100
0000
1000
0010
0100
0010
,
0001
0001
1000
1000
0100
0100
0010
0010
0001
0000
0100
0010
0001
1000
0100
0010
,
0001
0001
1000
0010
0100
0001
0010
1000
0100
0010
0001
0010
0100
1000
0100
0010
,
0001
0010
0100
1000
0010
0001
0100
1000
0100
0010
0001
1000
0100
0010
0100
0010
,
0001
0000
1000
0100
0010
0001
0100
0010
0001
0100
1000
0010
1000
0010
0100
0010
,
0001
0100
1000
0100
0010
1000
0100
0010
0001
0000
0000
0000
2002
0000
0000
3003
,
0202
0000
0000
0303
0202
0000
0303
1000
0001
0000
0010
0000
0010
0000
1000
0000
,
0100
0000
0000
0000
0001
0000
0000
0000
0010
0000
0000
0000
0001
0000
0000
0000
1000
0100
0010
0001
1000
0100
0010
0100
0001
0000
0000
0000
0100
0000
0000
0000
,
0010
0000
0000
0100
0001
0000
1000
0000
0100
0000
0010
0000
0001
0000
0100
0000
,
0010
0000
1000
0000
0010
0000
0100
0000
0010
0000
0000
0000
0000
0000
0100
0100
,
1000
0000
0101
0000
0000
0000
1000
1000
0010
0000
1000
0000
0000
0000
0100
0100
,
1000
0000
0100
0000
0010
0000
0100
0010
0001
0000
0000
0000
0100
0000
0100
0000
0001
0000
0000
0000
0110
0000
0100
0000
0002
0000
0000
0000
1000
0000
1000
0000
,
0103
0000
0000
0000
0001
0000
0000
0000
0000
0000
0000
0000
1000
0000
1000
0000
0001
0000
0000
0000
0010
0000
0100
0000
0010
0000
0100
0000
1000
0010
0100
0010
,
0001
0001
1000
1000
0100
0100
0010
0010
0001
0000
0100
0010
0001
1000
0100
0010
,
0001
0001
1000
0010
0100
0001
0010
1000
0100
0010
0001
0010
0100
1000
0100
0010
,
0001
0010
0100
1000
0010
0001
0100
1000
0100
0010
0001
1000
0100
0010
0100
0010
,
0001
0000
1000
0100
0010
0001
0100
0010
0001
0100
1000
0010
1000
0010
0100
0010
,
0001
0100
1000
0100
0010
1000
0100
0010
0001
0000
0000
0000
2002
0000
0000
3003
,
0202
0000
0000
0303
0202
0000
0303
1000
0001
0000
0010
0000
0010
0000
1000
0000
,
0100
0000
0000
0000
0001
0000
0000
0000
0010
0000
0000
0000
0001
0000
0000
0000
1000
0100
0010
0001
1000
0100
0010
0100
0001
0000
0000
0000
0100
0000
0000
0000
,
0010
0000
0000
0100
0001
0000
1000
0000
0100
0000
0010
0000
0001
0000
0100
0000
,
0010
0000
1000
0000
0010
0000
0100
0000
0001
0000
0000
0000
0000
0000
0100
0100
,
1000
0000
0001
0000
0000
0000
1000
1000
0010
0000
1000
0000
0000
0000
0100
0100
,
1000
0000
0100
0000
0010
0000
0100
0010
0001
0000
0000
0000
0100
0000
0100
0000
0001
0000
0000
0000
0110
0000
0100
0000
0002
0000
0000
0000
0000
0000
0000
0000
,
0003
0000
0000
0000
;

//---------------dance-single - Copied from Copied f----------------
#NOTES:
     dance-single:
     Copied from Copied f:
     Edit:
     15:
     1.000,1.000,1.000,0.357,1.000,359.000,160.000,16.000,0.000,26.000:
0000
0000
0000
0000
,
1001
0100
1001
0010
1100
0001
1100
0010
1100
0001
0110
0001
1010
0100
1001
0010
,
1100
0001
1100
0010
1100
0001
0110
0001
0210
0000
0000
0300
0000
0000
0100
0100
,
1010
0000
0000
0000
0000
0000
1101
0000
0010
0000
0001
0000
1100
0000
0000
0100
0000
0000
1010
0000
0000
1000
0000
0000
0011
0000
0000
0000
0000
0000
1011
0000
0100
0000
0001
0000
1010
0000
0000
0010
0000
0000
0101
0000
0000
0100
0000
0000
,
1010
0000
0100
0000
1010
0000
0100
0010
1001
0000
0000
0000
1100
0000
0100
0000
0011
0000
0000
0000
1110
0000
0100
0000
0012
0000
0000
0000
1100
0000
1000
0000
,
0113
0000
0000
0000
0101
0000
0000
0000
0010
0000
0000
0000
1100
0000
1000
0000
0011
0000
0000
0000
1010
0000
0100
0000
0011
0000
0100
0000
1001
0010
0100
0010
,
1001
0001
1010
1000
0101
0100
1010
0010
0101
0000
0010
0010
0000
0000
0110
0010
,
1001
0000
0100
0000
0010
0000
1100
0100
0011
0000
0010
0000
0100
0000
0010
0010
,
0101
1000
0010
0100
1001
0001
1000
0100
0011
0000
0100
0000
0001
0000
0010
0010
,
1100
0000
0100
0100
0110
0100
0100
0100
1010
0000
0001
0001
0101
0001
0001
0001
,
0110
0010
1000
1000
0110
0010
1000
1000
0001
0001
0000
0000
2002
0000
0000
3003
,
0202
0000
0000
0303
0202
0000
0303
1100
0011
0000
0110
0000
0110
0000
1100
0000
,
0110
0000
0000
0000
0011
0000
0000
0000
0110
0000
0000
0000
0011
0000
0000
0000
1001
0100
0010
0001
1000
0100
0010
0100
0001
0000
0000
0000
1100
0000
0000
0000
,
1010
0000
0000
0100
0001
0000
1100
0000
1010
0000
0110
0000
0101
0000
0111
1000
,
1011
0000
0000
0100
0000
0000
1011
0000
0000
0010
0000
0000
1101
0000
0000
0010
0000
0000
1101
0000
0000
0010
0000
0000
0111
0000
0000
1000
0000
0000
0010
0000
0010
0000
0010
0000
0001
0000
0000
0001
0000
0000
0100
0000
0000
0100
0000
0000
,
1010
0000
0000
0000
0000
0000
1101
0000
0010
0000
0001
0000
1100
0000
0000
0100
0000
0000
1010
0000
0000
1000
0000
0000
0011
0000
0000
0000
0000
0000
1011
0000
0100
0000
0001
0000
1010
0000
0000
0010
0000
0000
0101
0000
0000
0100
0000
0000
,
1010
0000
0100
0000
1010
0000
0100
0010
1001
0000
0000
0000
1100
0000
0100
0000
0011
0000
0000
0000
1110
0000
0100
0000
0012
0000
0000
0000
1100
0000
1000
0000
,
0113
0000
0000
0000
0101
0000
0000
0000
0010
0000
0000
0000
1100
0000
1000
0000
0011
0000
0000
0000
1010
0000
0100
0000
0011
0000
0100
0000
1001
0010
0100
0010
,
1001
0001
1010
1000
0101
0100
1010
0010
0101
0000
0010
0010
0000
0000
0110
0010
,
1001
0000
0100
0000
0010
0000
1100
0100
0011
0000
0010
0000
0100
0000
0010
0010
,
0101
1000
0010
0100
1001
0001
1000
0100
0011
0000
0100
0000
0001
0000
0010
0010
,
1100
0000
0100
0100
0110
0100
0100
0100
1010
0000
0001
0001
0101
0001
0001
0001
,
0110
0010
1000
1000
0110
0010
1000
1000
0001
0001
0000
0000
2002
0000
0000
3003
,
0202
0000
0000
0303
0202
0000
0303
1100
0011
0000
0110
0000
0110
0000
1100
0000
,
0110
0000
0000
0000
0011
0000
0000
0000
0110
0000
0000
0000
0011
0000
0000
0000
1001
0100
0010
0001
1000
0100
0010
0100
0001
0000
0000
0000
1100
0000
0000
0000
,
1010
0000
0000
0100
0001
0000
1100
0000
1010
0000
0110
0000
0101
0000
0111
1000
,
1011
0000
0000
0100
0000
0000
1011
0000
0000
0010
0000
0000
1101
0000
0000
0010
0000
0000
1101
0000
0000
0010
0000
0000
0111
0000
0000
1000
0000
0000
0010
0000
0010
0000
0010
0000
0001
0000
0000
0001
0000
0000
0100
0000
0000
0100
0000
0000
,
1010
0000
0000
0000
0000
0000
1101
0000
0010
0000
0001
0000
1100
0000
0000
0100
0000
0000
1010
0000
0000
1000
0000
0000
0011
0000
0000
0000
0000
0000
1011
0000
0100
0000
0001
0000
1010
0000
0000
0010
0000
0000
0101
0000
0000
0100
0000
0000
,
1010
0000
0100
0000
1010
0000
0100
0010
1001
0000
0000
0000
1100
0000
0100
0000
0011
0000
0000
0000
1110
0000
0100
0000
1012
0000
0000
0000
0000
0000
0000
0000
,
0003
0000
0000
0000
;
