#TITLE:Sepia;
#SUBTITLE:;
#ARTIST:Shiki;
#TITLETRANSLIT:;
#SUBTITLETRANSLIT:;
#ARTISTTRANSLIT:;
#CREDIT:;
#BANNER:Sepia-banner.png;
#BACKGROUND:Sepia-bg.png;
#LYRICSPATH:;
#CDTITLE:cdtitle _P.png;
#MUSIC:sepia.mp3;
#OFFSET:-0.107;
#SAMPLESTART:49.200;
#SAMPLELENGTH:13.500;
#SELECTABLE:YES;
#BPMS:0.000=142.000,122.000=142.000;
#STOPS:;
#BGCHANGES:;
// cache tags:
#FIRSTBEAT:0.500;
#LASTBEAT:301.000;
#SONGFILENAME:Songs/KBU/Sepia (behanjc)/sepia.sm;
#HASMUSIC:1;
#HASBANNER:1;
#MUSICLENGTH:138.381;
// end cache tags

//---------------dance-single - Blank----------------
#NOTES:
     dance-single:
     Blank:
     Hard:
     11:
     1.000,1.000,1.000,0.802,0.925,766.000,143.000,111.000,0.000,41.000:
0000
0000
1000
0100
0011
0000
1000
0000
0100
0000
0010
0000
0000
0000
0000
0000
,
0001
0000
1010
0100
0010
0001
0000
0010
,
0000
0100
1010
0100
0011
1000
0000
0000
,
0000
0110
0000
1100
,
0000
0000
1000
0100
0011
0000
1000
0000
0100
0000
0010
0000
0000
0000
0000
0000
,
0001
0000
1010
0100
0010
0001
0000
0010
,
0000
0001
1010
0100
0010
0001
0000
0000
,
0000
0000
0000
0000
,
0000
0000
0000
0000
,
0000
0000
0100
0010
1001
0000
0210
0300
1000
0000
0200
0300
0010
0000
0200
0300
,
0011
0000
1000
0000
0110
0000
0001
0000
0010
0000
0100
0000
0010
0001
1100
0000
,
0001
1100
0101
1000
0110
1000
0001
0100
,
0010
0000
1000
0100
0010
0000
0100
0000
0001
0000
1000
0100
0010
0001
1000
0000
,
0001
0000
1010
0011
1100
0000
0010
0000
0100
0000
1000
0000
0010
0000
0001
0000
,
1010
0000
0100
0000
0011
0000
0100
0000
1000
0000
0100
0000
0010
0100
0011
0000
,
0100
0011
1010
0100
1001
0100
0010
0001
,
0010
0000
0000
0000
0000
0000
0200
0000
0000
0320
0000
0000
0032
0000
0023
0000
0230
0000
0302
0000
0023
0000
0230
0000
0302
0000
0023
0000
2030
0000
3002
0000
0023
0000
2030
0000
3200
0000
0320
1000
0032
0000
0203
0000
0320
0000
0032
0000
,
2003
0000
3020
0000
0032
0000
1103
0000
0000
0101
0000
0000
1010
0000
0000
0000
0000
0000
0001
0000
0000
0000
0000
0000
0010
0000
0000
0000
0000
0000
1000
0000
0000
0000
0000
0000
0100
0000
0000
0000
0000
0000
1000
0000
0000
0000
0000
0000
,
0011
0000
1000
0000
0110
0000
1000
0000
0001
0000
1000
0000
0100
1000
0011
0000
,
1000
0110
1100
0010
0101
1000
0100
0010
,
0001
0000
0100
0010
0001
0000
1000
0000
0010
0000
0100
0010
0001
1000
0010
0000
,
1000
0000
0110
0011
1100
0000
0010
0000
0001
0000
1000
0000
0100
0000
0010
0000
,
1001
0000
0100
0000
0011
0000
0100
0000
1000
0000
0100
0000
0010
1000
0101
0000
,
1000
0011
1010
0100
0001
0010
1000
0100
,
0010
0000
0000
0000
0000
0000
0001
0000
0000
0000
0000
0000
1000
0000
0000
0000
0000
0000
1000
0000
0000
0001
0000
0000
1000
0000
0000
0001
0000
0000
1000
0000
0000
0001
0000
0000
1000
0000
0001
0000
1000
0000
0001
0000
0000
1000
0000
0000
,
0001
0000
1000
0000
0001
0000
2100
0000
0000
3021
0000
0000
0230
0000
0000
0000
0000
0000
0000
0000
0000
0000
0000
0000
0000
0000
0000
0000
0000
0000
0000
0000
0000
0000
0000
0000
0000
0000
0000
0000
0000
0000
0000
0000
0000
0000
0000
0000
,
0002
0000
0323
0000
0000
0000
0000
0200
,
0000
2300
3032
0000
2000
0000
0000
0000
,
3000
0203
0000
0000
,
0000
0000
0020
0032
2303
0000
0000
0000
0000
0000
0000
0000
0000
0000
0000
0000
,
0002
0000
3023
0000
0000
0000
0000
0200
,
0000
0302
2033
0000
0200
0000
0000
0000
,
0000
0000
0300
0000
3002
0010
1000
1000
0010
1000
1000
0100
0000
1000
0100
0000
,
1000
0100
0010
1000
0213
1000
0001
0000
1000
0010
0000
0001
0010
0000
1000
0001
,
0000
0010
0001
0000
1320
0001
0000
1000
0100
0000
0001
0100
0000
0001
1000
0000
,
0100
0001
1000
0100
2031
0100
0001
0010
0100
0000
0010
0001
0000
0100
0010
0000
,
0010
0100
0001
0010
3102
0010
0000
1000
0010
0000
0100
1000
0000
0100
0010
0000
,
2200
3310
0100
1000
0213
1000
0001
0010
1000
0010
1000
0001
0010
0001
1000
0001
,
1000
0001
0010
0001
1320
0001
0100
1000
0100
1000
0001
0100
1000
0001
1000
0001
,
0100
0001
1000
0100
2031
0100
0001
0010
0100
0001
0010
0100
0001
0100
0010
0001
,
0010
0000
0000
0000
0000
0000
0000
0000
0000
0000
0000
0000
0100
0000
0000
0000
0000
0000
0000
0000
0000
0000
0000
0000
0001
0000
0000
0000
0000
0000
0000
0000
0000
0000
0000
0000
0010
0000
0000
0000
0000
0000
0000
0000
0000
0000
0000
3000
2202
0000
0000
0000
0000
0000
0000
0000
0000
0000
0000
0000
3303
0000
0000
0000
0000
0000
0000
0000
0000
0000
0000
0000
2202
0000
0000
0000
0000
0000
0000
0000
0000
0000
0000
0000
3303
0000
0000
0000
0000
0000
0000
0000
0000
0000
0000
0000
0000
0000
0000
0000
0000
0000
0000
0000
0000
0000
0000
0000
0000
0000
0000
0000
0000
0000
0000
0000
0000
0000
0000
0000
2202
0000
0000
0000
0000
0000
0000
0000
0000
0000
0000
0000
3303
0000
0000
0000
0000
0000
0000
0000
0000
0000
0000
0000
0010
0000
0000
0000
0000
0000
0000
0000
0000
0000
0000
0000
0000
0000
0000
0000
0000
0000
0000
0000
0000
0000
0000
0000
2022
0000
0000
0000
0000
0000
0000
0000
0000
0000
0000
0000
3133
0000
0000
0000
0000
0000
0000
0000
0000
0000
0000
0000
,
0010
0001
2220
3331
2220
3330
1000
0100
0011
0100
0010
0001
1000
0010
1000
0100
,
1010
0000
0000
0001
0000
0000
1000
0000
0000
0010
0000
0000
0101
0000
0000
1000
0000
0000
0100
0000
0000
1000
0000
0000
0011
0000
0000
1000
0000
0000
0100
0000
0000
1000
0000
0000
0001
0000
0000
0100
0000
0000
0010
0000
0001
0000
0010
0000
,
1100
0000
0000
0000
0000
0000
0100
0000
0000
0000
0000
0000
0011
0000
0000
1000
0000
0000
0100
0000
0000
1000
0000
0000
0110
0000
0000
1000
0000
0000
0001
0000
0000
1000
0000
0000
0100
0000
0000
0000
0000
0000
0001
0000
0010
0000
0100
0000
,
1100
0000
0000
0000
0000
0000
0010
0000
0000
0000
0000
0000
1001
0000
0000
0000
0010
0000
0000
0000
0100
0000
0000
0000
0011
0000
0000
0000
0000
0000
0001
0000
0000
0010
0000
0000
1000
0000
0000
0101
0000
0000
0010
0000
0000
0100
0000
0000
,
1001
0000
0010
0000
0100
0000
1010
0000
0001
1000
0100
0000
0011
0000
0000
0000
0000
0000
1000
0000
0000
0100
0000
0000
0011
0000
0000
1000
0000
0000
0010
0000
0000
0001
0000
0000
1000
0000
0000
0010
0000
0000
1000
0000
0000
0100
0000
0000
,
1001
0000
0000
0010
0000
0000
1000
0000
0000
0001
0000
0000
0110
0000
0000
1000
0000
0000
0100
0000
0000
1000
0000
0000
0011
0000
0000
1000
0000
0000
0100
0000
0000
1000
0000
0000
0001
0000
0000
0100
0000
0000
0010
0000
0001
0000
0010
0000
,
1100
0000
0000
0000
0000
0000
1000
0000
0000
0000
0000
0000
0011
0000
0000
1000
0000
0000
0100
0000
0000
1000
0000
0000
0011
0000
0000
1000
0000
0000
0001
0000
0000
1000
0000
0000
0010
0000
0000
0000
0000
0000
0001
0000
0010
0000
0100
0000
,
1100
0000
0000
0000
0000
0000
0010
0000
0000
0000
0000
0000
1001
0000
0000
0000
0010
0000
0000
0000
0100
0000
0000
0000
0011
0000
0000
0000
0000
0000
1000
0000
0000
0001
0000
0000
1000
0000
0000
0101
0000
0000
0010
0000
0000
0100
0000
0000
,
1001
0000
0010
0000
0100
0000
1010
0000
0001
1000
0100
0000
0011
0000
0000
0000
0000
0000
1000
0000
0000
0100
0000
0000
0011
0000
0000
1000
0000
0000
0010
0000
0000
0001
0000
0000
1100
0000
0000
0010
0000
0000
1000
0000
0000
0100
0000
0000
,
1001
0000
0000
0010
0000
0000
1000
0000
0000
0001
0000
0000
0110
0000
0000
1000
0000
0000
0100
0000
0000
1000
0000
0000
0011
0000
0000
1000
0000
0000
0100
0000
0000
1000
0000
0000
0011
0000
0000
0100
0000
0000
0010
0000
0001
0000
0010
0000
,
1100
0000
0000
0000
0000
0000
1000
0000
0000
0000
0000
0000
0011
0000
0000
1000
0000
0000
0100
0000
0000
1000
0000
0000
0110
0000
0000
1000
0000
0000
0001
0000
0000
1000
0000
0000
0110
0000
0000
0000
0000
0000
0001
0000
0010
0000
0100
0000
,
1100
0000
0000
0000
0000
0000
0010
0000
0000
0000
0000
0000
0101
0000
0000
0000
0010
0000
0000
0000
0100
0000
0000
0000
0011
0000
0000
0000
0000
0000
1000
0000
0000
0001
0000
0000
0110
0000
0000
1001
0000
0000
0010
0000
0000
0100
0000
0000
,
1001
0000
0010
0000
0100
0000
1010
0000
0001
1000
0100
0000
0011
0000
0000
0000
0000
0000
1000
0000
0000
0100
0000
0000
0011
0000
0000
1000
0000
0000
0010
0000
0000
0001
0000
0000
1100
0000
0000
0010
0000
0000
1000
0000
0000
0100
0000
0000
,
1001
0000
0000
0010
0000
0000
1000
0000
0000
0001
0000
0000
0110
0000
0000
1000
0000
0000
0100
0000
0000
1000
0000
0000
0011
0000
0000
1000
0000
0000
0100
0000
0000
1000
0000
0000
0011
0000
0000
0100
0000
0000
0010
0000
0001
0000
0010
0000
,
1100
0000
0000
0000
0000
0000
1000
0000
0000
0000
0000
0000
0011
0000
0000
1000
0000
0000
0100
0000
0000
1000
0000
0000
0110
0000
0000
1000
0000
0000
0001
0000
0000
1000
0000
0000
0110
0000
0000
0000
0000
0000
0001
0000
0010
0000
0100
0000
,
1100
0000
0000
0000
0000
0000
0010
0000
0000
0000
0000
0000
1001
0000
0000
0000
0010
0000
0000
0000
0100
0000
0000
0000
0001
0000
0000
0000
0000
0000
1000
0000
0000
0001
0000
0000
0000
0000
0000
0001
0000
0000
0010
0000
0000
0100
0000
0000
,
0001
0000
0010
0000
0100
0000
2000
0000
0001
3020
0100
0000
2030
0000
0000
0000
0000
0000
0100
0000
0000
0000
0000
0000
0001
0000
0000
0000
0000
0000
0010
0000
0000
0000
0000
0000
3001
0000
0000
0000
0000
0000
0100
0000
0000
0000
0000
0000
,
0012
0000
0100
0000
0023
0000
0100
0000
0001
0000
0100
0000
1030
0001
0200
0000
,
0001
2300
3002
0010
1203
0010
0001
1000
,
0310
0000
0001
0000
0010
0000
0100
0000
1000
0000
0100
0000
0010
0100
0001
0000
,
0100
0000
2001
3021
0230
0000
0001
0000
1000
0000
0010
0000
0301
0000
0010
0000
,
1002
0000
0100
0000
0023
0000
1000
0000
0001
0000
0100
0000
1030
0001
0020
0000
,
0001
0230
0320
0100
1032
0100
0010
0100
,
1003
0000
0000
0000
0000
0000
0100
0000
0000
0000
0000
0000
1000
0000
0000
0000
0000
0000
1000
0000
0000
0001
0000
0000
1000
0000
0000
0001
0000
0000
1000
0000
0000
0001
0000
0000
1000
0000
0001
0000
1000
0000
0001
0000
0000
1000
0000
0000
,
0001
0000
1000
0000
0001
0000
2100
0000
0000
3021
0000
0000
2130
0000
0000
0000
0000
0000
0020
0000
0000
0030
0000
0000
0001
0000
0000
0000
0000
0000
0020
0000
0000
0030
0000
0000
3001
0000
0000
0000
0000
0000
0020
0000
0000
0030
0000
0000
,
1002
0000
0100
0000
1023
0000
0100
0000
0001
0000
0100
0000
1030
0001
1200
0000
,
0001
2310
3102
0010
1203
0010
0001
1000
,
0310
0000
0001
0000
0010
0000
0100
0000
1000
0000
0100
0000
0010
0100
0001
0000
,
0100
0000
2001
3021
1230
0000
0001
0000
1000
0000
0010
0000
0301
0000
0010
0000
,
1002
0000
0100
0000
1023
0000
0100
0000
0001
0000
0100
0000
1030
0001
0120
0000
,
1000
0132
2013
0100
0001
0100
3010
0100
,
0001
0000
0010
0000
1000
0001
1000
0000
0001
0000
1000
0001
1100
0001
1000
0001
,
1100
0001
1000
0001
0110
0000
1000
0100
0010
0100
0010
0001
1000
0010
1000
0100
,
1000
0000
0000
0010
0000
0000
1000
0000
0000
0001
0000
0000
0100
0000
0000
1000
0000
0000
0010
0000
0000
1000
0000
0000
0100
0000
0000
1000
0000
0000
0010
0000
0000
1000
0000
0000
0001
0000
0000
1000
0000
0000
0010
0000
0001
0000
0010
0000
,
0100
1000
0100
0000
0000
0000
0000
0000
;
