#TITLE:What Would Brian Boitano Do?;
#SUBTITLE:;
#ARTIST:South Park;
#TITLETRANSLIT:;
#SUBTITLETRANSLIT:;
#ARTISTTRANSLIT:;
#CREDIT:;
#BANNER:brian banner.bmp;
#BACKGROUND:brian bg 2.bmp;
#LYRICSPATH:;
#CDTITLE:Mr.StepCdtitle2.png;
#MUSIC:Track06.mp3;
#OFFSET:-7.190;
#SAMPLESTART:40.937;
#SAMPLELENGTH:13.800;
#SELECTABLE:YES;
#BPMS:0.000=141.200,152.000=127.000,154.000=119.000,156.000=82.000,158.000=83.000,159.000=66.000,160.000=140.000;
#STOPS:;
#BGCHANGES:0.000=brian bg.bmp=1.000=0=0=1,
16.000=brian bg 2.bmp=1.000=0=0=1,
32.000=brian bears.bmp=1.000=0=0=1,
48.000=brian bg.bmp=1.000=0=0=1,
58.000=brian ass1.bmp=1.000=0=0=1,
59.000=brian ass2.bmp=1.000=0=0=1,
60.000=brian bg.bmp=1.000=0=0=1,
128.000=brian robot.bmp=1.000=0=0=1,
144.000=brian pyramids.bmp=1.000=0=0=1,
160.000=brian bg.bmp=1.000=0=0=1,
191.000=brian bg 2.bmp=1.000=0=0=1,
99999=-nosongbg-=1.000=0=0=0 // don't automatically add -songbackground-
;
// cache tags:
#FIRSTBEAT:0.000;
#LASTBEAT:191.000;
#SONGFILENAME:Songs/mongol/What Would Brian Boitano/brian.sm;
#HASMUSIC:1;
#HASBANNER:1;
#MUSICLENGTH:94.202;
// end cache tags

//---------------dance-single - ----------------
#NOTES:
     dance-single:
     :
     Hard:
     8:
     0.557,0.558,0.096,0.021,0.218,356.000,9.000,2.000,0.000,0.000:
1000
0100
1000
0010
0100
0001
1000
0000
,
0010
1000
0100
0010
0001
0000
0000
0100
,
1000
0000
0010
0000
0100
0000
0001
1000
0100
0000
0010
0000
0001
0000
0000
0000
,
0100
1000
0010
1000
0100
1000
0010
0001
,
1000
0000
0100
0000
0010
0000
0001
0010
0100
0000
1000
0000
0010
0000
0100
0000
,
0001
0000
1000
0000
0100
0000
1000
0010
0000
0000
0000
0000
0000
0000
0100
1000
,
0100
0000
1000
0000
0100
0000
1000
0010
1000
0000
0100
0000
1000
0000
0010
0000
,
0100
0001
0000
1000
0000
0000
0100
0000
0010
0000
0000
0000
0000
0000
0001
1000
,
0010
0000
1000
0000
0100
0000
0010
0000
0001
0010
0100
1000
0000
0000
0000
0000
,
0010
0100
0001
1000
0100
0000
0000
0010
,
1000
0000
0100
0000
1000
0010
1000
0000
0100
0000
0010
0000
0001
0000
0010
0000
,
0100
1000
0010
0100
1001
0000
0100
0000
,
1000
0010
1000
0100
1000
0010
0100
0000
,
0001
0010
0100
0010
0001
0000
0000
0010
,
0100
0001
1000
0100
0010
0100
1000
0000
,
1001
1001
1001
1001
1001
1001
1001
0000
,
0010
1000
0100
0010
0001
0010
0100
1000
,
0020
0000
0000
0000
0100
0000
0000
0000
0100
0000
0000
0000
0100
0030
0000
0000
,
0001
0100
1000
0000
0100
0000
0010
0000
0001
0000
0010
0000
0100
0000
1000
0000
,
0020
0000
0000
0100
0000
0000
0000
0000
1000
0000
0000
0000
1000
0000
0100
0030
,
1000
0100
0010
0001
0010
0000
0100
1000
,
0010
1000
0001
0100
0010
0000
0000
0100
,
1000
0100
1000
0000
0010
0000
0100
0000
0010
0100
0010
0000
0100
0000
0000
0001
,
1000
0100
0010
0001
0010
0100
1000
0000
,
0010
0000
0100
0000
0001
0000
0010
0000
0100
0000
0010
0000
0100
0000
0000
0100
,
0010
1000
0100
1000
0010
0000
0100
1000
,
0010
0100
0001
1000
0010
1000
0100
0000
,
0010
0100
0010
1000
0100
0010
0001
0000
,
0001
0000
0000
0100
0000
0000
0010
0000
0000
0000
1000
0000
0100
0000
1000
0000
,
0010
0000
0000
0010
0000
1000
0100
0000
0000
0000
0010
0000
0001
0010
0000
0000
,
0100
0000
1000
0010
0000
0000
1000
0000
0000
0010
0001
0000
0010
0000
0100
0000
,
1000
0000
0010
1000
0000
0100
1000
0000
0010
0000
1000
0000
0100
1000
0010
1000
,
0100
0000
0010
0000
1000
0000
0100
0000
0010
0001
0010
0000
0100
0000
1000
0010
,
1000
0100
1000
0010
0100
0000
0000
0001
,
1000
0000
0010
0000
0100
0000
0001
0100
0010
0000
1000
0000
0100
0000
0010
0001
,
0010
0100
1000
0010
1000
0000
0000
0010
,
0100
0000
0010
0000
1000
0000
0100
0000
0010
0000
0001
0010
0000
0100
1000
0000
,
0010
1000
0100
0010
0001
0000
0000
0010
,
0100
1000
0100
0010
0001
1000
0100
1000
,
0010
0100
0001
1000
,
0010
0000
0100
0000
0010
0000
1000
0100
0010
0000
0000
0000
0100
0000
1000
0000
,
0010
1000
0100
0010
0001
0000
1000
0010
,
0100
0000
0001
0000
1000
0000
0100
0000
0010
0001
0010
0000
0100
0000
0000
1000
,
0010
0000
1000
0000
0100
0000
1000
0000
0010
0000
1000
0000
0100
0000
0000
0010
,
0100
0001
1000
0100
0010
0001
0010
0100
,
1000
0010
0100
0001
1000
0000
0010
0000
,
0100
0000
0001
1000
0000
0100
1000
0000
0100
0010
0000
0100
0010
0000
0001
0000
,
1000
0010
1000
0100
0010
0001
1100
0000
;
