#TITLE:1,2,3,4,007;
#SUBTITLE:;
#ARTIST:NI-NI;
#TITLETRANSLIT:;
#SUBTITLETRANSLIT:;
#ARTISTTRANSLIT:;
#CREDIT:;
#BANNER:1,2,3,4,007-banner.png;
#BACKGROUND:1,2,3,4,007-bg.png;
#LYRICSPATH:;
#CDTITLE:kevcdms4.png;
#MUSIC:1,2,3,4,007.mp3;
#OFFSET:-1.050;
#SAMPLESTART:43.907;
#SAMPLELENGTH:12.000;
#SELECTABLE:YES;
#BPMS:0.000=140.000;
#STOPS:;
#BGCHANGES:;
// cache tags:
#FIRSTBEAT:0.000;
#LASTBEAT:196.500;
#SONGFILENAME:Songs/cedric step/1,2,3,4,007/1,2,3,4,007.sm;
#HASMUSIC:1;
#HASBANNER:1;
#MUSICLENGTH:89.338;
// end cache tags

//---------------dance-single - ----------------
#NOTES:
     dance-single:
     :
     Hard:
     11:
     0.734,0.935,0.716,0.537,0.453,347.000,64.000,48.000,0.000,5.000:
1000
0010
0001
0010
,
0100
0000
1000
0000
0100
0010
0000
0000
,
0010
1000
0001
0100
0010
0001
0100
1000
0010
0100
0010
0100
0010
0001
0010
1000
,
0100
0010
1000
0100
0010
0001
0100
0010
0100
0010
1000
0100
0010
0001
0010
0100
,
1001
0000
0000
0001
1000
0001
1000
0001
1000
0001
1000
0001
1000
0001
1000
0001
1000
0001
2000
0000
3000
0000
0000
0000
,
0010
0001
0100
0001
0010
1000
0100
0010
,
1000
0100
0001
0010
1000
0100
0001
0100
,
0000
0000
0020
0000
0230
0000
0000
0000
0302
0000
0000
2003
0000
3000
0100
0000
,
0000
2000
0000
0020
3000
0000
0000
0000
0230
0000
0300
0002
0000
0000
0023
0000
,
0030
0000
0001
0110
0001
0110
1000
0110
,
0001
0110
1000
0110
0001
1100
0001
0110
,
0000
0110
0100
0000
0010
0100
0010
0000
,
1010
0000
0011
0000
1100
0000
0011
1100
,
0011
0000
1000
0000
0100
1000
0100
0000
,
1000
0000
0010
0000
0011
1100
0011
0000
,
0100
0000
1000
0000
1000
0001
0100
0000
,
0001
1000
0001
1000
0001
1000
0010
0000
,
0100
0000
0100
0000
1000
0100
1000
0000
,
0001
0010
0100
0000
1000
0000
1000
0000
,
0022
0000
0033
0200
2300
3000
0000
0000
,
0010
0000
0200
0300
0020
0030
0000
0000
0020
0030
0002
0003
0200
0300
0020
0030
,
0001
0000
0001
0000
0001
1000
0100
0000
,
0010
0100
0001
0000
0001
0000
0001
0000
,
1010
0000
0000
0010
0001
0000
0000
0000
,
1000
0000
0000
0000
0000
0000
0100
0000
0000
0000
0000
0000
1000
0000
0000
0001
0000
0000
1000
0000
0000
0001
0000
0000
1000
0000
0000
0001
0000
0000
0100
0000
0010
0000
0100
0000
0010
0000
0100
0000
0010
0000
0100
0000
0010
0000
0000
0000
,
0110
0001
0100
0000
1001
0010
1000
0000
0110
1000
0100
0000
0011
1000
0100
0000
,
0011
0100
1000
0000
0011
0100
0001
0000
2200
0000
0000
0000
3300
0000
0000
0000
,
0010
0100
0010
0000
1001
0000
0000
0000
,
0001
1000
0001
0000
0110
0110
0000
0110
,
0001
0000
0000
0000
1001
0100
0010
0000
1001
0010
0100
0000
0011
0000
1000
0000
,
0000
1000
0220
0330
2002
3003
0110
0100
,
0001
1000
0001
0000
0110
0000
0000
0000
,
0010
0100
0010
1000
1001
0000
0000
0000
,
0010
0000
0000
0000
1010
0100
0001
0000
1010
0001
0100
0000
0011
1000
0100
0000
,
1010
0001
0100
0000
1010
0100
0010
0000
0101
0000
0101
0000
0000
0000
0000
0000
,
0010
0000
0100
0000
0010
0000
0000
0000
2002
0000
0000
3003
0000
0000
0000
0000
,
1000
0000
0001
0000
1000
0000
0000
0000
0220
0000
0000
0330
0000
0000
0000
0000
,
1001
0010
0001
0000
1001
0010
0100
0000
1001
0010
1000
0000
0110
0000
0000
0000
,
0000
0000
0022
0033
2200
3300
0000
0000
,
1100
0011
1100
0000
0110
0000
0000
0000
,
0010
0000
0000
0000
0000
0000
0100
0000
0000
0000
0000
0000
0010
0000
0000
1000
0000
0000
0100
0000
0000
1000
0000
0000
0100
0000
0000
1000
0000
0000
0100
0000
0000
1000
0000
0000
0100
0000
0010
0000
0001
0000
0010
0000
0100
0000
0010
0000
,
1000
0001
1000
0000
0010
0100
0010
0000
,
0001
1000
0001
0000
0100
0010
0100
0000
,
0000
0000
0020
0000
0230
0000
0300
0000
0002
0000
0000
0203
0000
0000
0320
0000
,
0030
0000
2000
0000
3200
0000
0300
0000
2000
0000
0000
3200
0000
0000
0320
0030
,
2002
0000
0110
0110
,
0110
0100
0000
0000
3113
0000
1000
0000
,
0000
0000
0100
0000
0010
0000
0000
0000
0010
0000
0000
0100
0000
0000
1000
0000
,
0100
0010
0001
0010
0100
1000
0100
0010
0100
0010
0001
0010
0001
0010
0100
0010
1000
0100
0010
0100
0001
0010
1000
0010
,
2002
3003
0000
0000
0000
0000
0000
0000
;
