#TITLE:Rave Heaven;
#SUBTITLE:(German Extended Version);
#ARTIST:Dave McCullen;
#TITLETRANSLIT:;
#SUBTITLETRANSLIT:;
#ARTISTTRANSLIT:;
#CREDIT:;
#BANNER:BN.PNG;
#BACKGROUND:BG.PNG;
#LYRICSPATH:;
#CDTITLE:ov1_title.png;
#MUSIC:Dave McCullen - Rave Heaven (German Extended Version).mp3;
#OFFSET:-1.300;
#SAMPLESTART:88.966;
#SAMPLELENGTH:29.999;
#SELECTABLE:YES;
#BPMS:0.000=144.930;
#STOPS:;
#BGCHANGES:;
// cache tags:
#FIRSTBEAT:0.000;
#LASTBEAT:486.833;
#SONGFILENAME:Songs/Owenviau1 Simfiles 4/Rave Heaven (German Extended Version) - Dave McCullen [owenviau1]/Dave McCullen - Rave Heaven (German Extended Version).sm;
#HASMUSIC:1;
#HASBANNER:1;
#MUSICLENGTH:203.337;
// end cache tags

//---------------dance-single - ----------------
#NOTES:
     dance-single:
     :
     Challenge:
     12:
     1.000,1.000,1.000,0.059,0.455,1147.000,387.000,12.000,0.000,6.000:
1100
0110
0001
1000
0101
1001
0100
0010
,
1100
0000
0011
0000
1000
0000
0100
0000
1001
0000
0001
0010
0100
1000
0010
0100
,
1001
1001
0010
0100
1010
1010
0100
0001
,
0101
0000
0000
0101
0000
0000
1000
0000
0000
0010
0000
0000
2000
0000
3200
0000
0320
0000
0002
0000
0000
0000
0000
0000
,
1133
1001
0100
0010
0101
0011
1000
0010
,
1001
0110
1000
0001
0110
1100
0001
0100
,
1001
1100
0010
0001
1010
0101
0010
1000
,
0101
0000
0000
0011
0000
0000
1000
0000
0000
0010
0000
0000
2000
0000
3002
0000
0023
0000
0200
0000
0000
0000
0000
0000
,
1331
0010
1100
0001
0110
0010
1100
0001
,
1001
0010
0110
1000
0011
0100
1100
0010
,
1010
0001
0101
0010
0011
1000
0110
0001
,
1001
0010
0110
1000
0011
0100
1001
0010
,
1100
0001
0011
1000
0101
0010
0110
1000
,
1100
0010
0011
1000
1001
0100
1100
0010
,
0110
0001
0101
0010
1010
0100
1001
0010
,
0110
1000
1100
0001
0011
0100
0101
0010
,
1010
1000
0110
0100
1001
0010
1100
0001
,
0011
1000
0110
0001
1001
0100
1010
0010
,
1100
0001
0110
1000
0101
0100
0011
0010
,
1001
0001
0110
1000
1100
0001
1010
0100
,
0110
1000
1001
0010
0101
0100
1001
1000
,
0011
0100
1001
0010
1100
0001
0110
0001
,
1100
0100
0011
1000
0110
0001
1001
0010
,
0101
1000
1010
0001
0110
1000
0011
0100
,
1100
0010
1001
0001
1100
1000
0011
0100
,
1010
0010
0101
0001
1001
1000
0110
0001
,
0011
1000
0110
0001
1100
0010
1010
1000
,
0110
0010
0101
0100
1001
0001
1010
0100
,
1001
0100
1000
0000
0101
0000
1000
0100
0010
0001
0100
0000
1010
0000
0100
0001
,
0010
0000
0100
0000
1001
0000
1000
0100
0010
0001
0100
0000
0110
0000
1000
0001
,
0010
0000
0100
0000
1001
0000
0100
0010
0001
1000
0001
0000
0110
0000
1000
0100
,
1001
0000
1000
0100
0010
0001
0100
0000
1010
0000
0100
0001
0010
0000
0100
0000
,
1001
0000
1000
0100
0010
0001
0100
0000
0110
0000
1000
0001
0010
0000
0100
0000
,
1001
0000
0100
0010
0001
1000
0001
0000
0110
0000
1000
0010
0101
0000
1000
0100
,
0010
0001
0100
0000
1010
0000
0100
0001
0010
0000
0100
0000
1001
0000
1000
0100
,
0010
0001
0100
0000
0110
0000
1000
0001
0010
0000
0100
0000
1001
0000
0100
0010
,
0001
1000
0001
0000
1010
0000
1000
0100
0011
0000
1000
0100
0010
0001
0100
0000
,
1010
0000
0100
0001
0010
0000
0100
0000
1001
0000
1000
0100
0010
0001
0100
0000
,
0110
0000
1000
0001
0010
0000
0100
0000
1001
0000
0100
0010
0001
1000
0001
0000
,
0110
0000
0001
0010
1100
0000
1000
0100
0010
0001
0100
0000
1010
0000
0100
0001
,
0010
0000
0100
0000
1001
0000
1000
0100
0010
0001
0100
0000
0110
0000
1000
0001
,
0010
0000
0100
0000
1001
0000
0100
0010
0001
1000
0010
0000
1001
0000
0010
0100
,
1100
0000
1000
0100
0010
0001
0100
0000
1010
0000
0100
0001
0010
0000
0100
0000
,
1001
0000
0000
0000
0000
0000
1000
0000
0000
0100
0000
0000
0010
0000
0000
0001
0000
0000
0010
0000
0000
0000
0000
0000
1000
0000
0000
0000
0100
0000
0000
0000
0010
0000
0000
0000
0002
0000
0000
0000
0000
0000
0000
0000
2000
0000
0000
0000
,
0000
0000
0000
0000
3010
0100
1000
0010
,
1013
0100
0011
0100
1001
0110
0101
1100
,
0110
1001
0011
1000
0110
0001
1100
0110
,
0101
1000
1100
0100
0110
0010
0011
0001
,
1001
0100
0110
0010
1001
0101
0011
0110
,
1100
0010
1001
0100
1001
1100
0011
0101
,
1100
1010
0101
0010
1100
0001
0110
0101
,
1000
0100
0010
0001
1000
0001
0100
0001
0010
0100
1000
0010
0100
0001
1000
0010
,
1000
0100
0010
0001
0100
0010
1000
0100
0010
0001
1000
0001
0100
0010
1000
0001
,
1001
0100
0110
1000
1001
0010
0101
1000
,
0110
0100
1001
0010
1100
0001
0110
1000
,
0101
0010
1001
0100
1010
0001
0110
1000
,
0011
0010
1100
0100
0011
1000
0101
0001
,
1010
1000
0110
0001
1100
1000
0011
0100
,
1001
1000
0101
0010
1001
0100
0110
1000
,
1001
0010
1100
0001
0110
0100
0011
1000
,
1001
0010
0110
0010
1100
1001
0101
0110
,
1001
1000
0110
0001
1001
0010
0101
1000
,
0110
0100
1001
0010
1100
0001
0011
1000
,
0110
0001
1010
0100
1100
0001
0110
1000
,
0011
0100
0101
0010
1001
1000
0110
0001
,
1001
0100
0011
0010
1100
1000
0011
0100
,
0101
0010
0011
1000
1100
0001
0110
0010
,
1100
1000
1001
0001
0110
1000
1100
0010
,
0001
0100
0010
1000
0100
0010
0001
0100
0001
0010
0100
1000
0010
0100
0001
1000
,
0101
1000
0011
0100
1001
0110
0101
1100
,
0110
1001
0011
1000
0110
0001
1100
0110
,
0101
1000
1100
0100
0110
0010
0011
0001
,
1001
0100
0110
0010
1001
0101
0011
0110
,
1100
0010
1001
0100
1001
1100
0011
0101
,
1100
1010
0101
0010
1100
0001
0110
0101
,
1010
0100
1001
0100
0011
1000
0110
0100
,
1001
1000
1010
0010
0011
1001
0101
0110
,
1001
1000
0001
0100
0010
1000
0001
0100
,
0001
0010
0100
1000
0001
0100
1000
0100
,
0001
0100
0010
1000
0100
0001
0010
0100
,
0001
1000
0100
0010
0001
1000
0010
0100
,
1001
0010
0100
0000
1010
0000
0100
0000
1000
0001
0010
0000
1010
0000
0001
0000
,
1000
0001
0010
0000
1001
0000
1000
0000
0100
0010
0001
0000
1010
0000
0010
0000
,
0001
0100
0010
0000
1001
0000
0001
0000
0100
0010
1000
0000
0110
0000
1000
0000
,
0001
0100
0001
0000
0101
0000
0010
0000
0100
0010
1000
0000
0101
0000
0100
0000
,
1000
0010
1000
0000
0101
0000
1000
0000
0100
0010
0100
0000
1001
0000
0100
0000
,
0001
1000
0001
0000
0110
0000
0001
0000
0100
0010
1000
0000
0101
0000
0010
0000
,
1000
0100
0010
0000
1100
0000
0010
0000
0001
0100
0010
0000
1001
0000
0010
0000
,
1000
0001
0100
0000
0101
0000
1000
0000
0010
0001
0100
0000
1010
0000
0001
0000
,
1000
0100
0010
0000
1001
0000
1000
0000
0001
0010
0100
0000
1010
0000
0001
0000
,
0100
0010
1000
0000
0110
0000
0100
0000
0001
1000
0100
0000
0011
0000
0100
0000
,
0010
0001
1000
0000
0110
0000
1000
0000
0100
0010
0001
0000
1001
0000
0100
0000
,
0001
1000
0010
0000
0101
0000
0010
0000
1000
0100
0010
0000
1100
0000
0010
0000
,
0001
0100
0010
0000
1001
0000
0010
0000
1000
0001
0100
0000
1100
0000
0100
0000
,
0010
1000
0001
0000
0110
0000
0001
0000
1000
0010
0100
0000
1001
0000
0010
0000
,
0001
1000
0100
0000
0101
0000
1000
0000
0010
1000
0001
0000
0110
0000
1000
0000
,
0100
0010
1000
0000
0101
0000
0010
0000
1000
0001
1000
0000
0110
0000
0001
0000
,
2000
0002
0000
0000
0013
0100
0010
0001
,
3101
1000
0011
0100
1001
0110
0101
1100
,
0110
1001
0011
1000
0110
0001
1100
0110
,
0101
1000
1100
0100
0110
0010
0011
0001
,
1001
0100
0110
0010
1001
0101
0011
0110
,
1100
0010
1001
0100
1001
1100
0011
0101
,
1100
1010
0101
0010
1100
0001
0110
0101
,
1000
0100
0010
0001
1000
0001
0100
0001
0010
0100
1000
0010
0100
0001
1000
0010
,
1000
0100
0010
0001
0100
0010
1000
0100
0010
0001
1000
0001
0100
0010
1000
0001
,
1001
0100
0110
1000
1001
0010
0101
1000
,
0110
0100
1001
0010
1100
0001
0110
1000
,
0101
0010
1001
0100
1010
0001
0110
1000
,
0011
0010
1100
0100
0011
1000
0101
0001
,
1010
1000
0110
0001
1100
1000
0011
0100
,
1001
1000
0101
0010
1001
0100
0110
1000
,
1001
0100
0010
0001
1000
0001
0100
0010
1000
0100
0010
0001
0010
0100
1000
0010
,
0100
0000
0000
0001
0000
0000
0010
0000
0000
0100
0000
0000
1000
0000
0000
0001
0000
0000
0100
0000
0000
0010
0000
0000
1000
0000
0100
0000
1000
0000
0100
0000
1000
0000
0001
0000
1000
0000
0001
0000
0100
0000
0001
0000
0100
0000
0010
0000
,
1001
0010
0100
0000
1010
0000
0100
0000
1000
0001
0010
0000
1010
0000
0001
0000
,
1000
0001
0010
0000
1001
0000
1000
0000
0100
0010
0001
0000
1010
0000
0010
0000
,
0001
0100
0010
0000
1001
0000
0001
0000
0100
0010
1000
0000
0110
0000
1000
0000
,
0001
0100
0001
0000
0101
0000
0010
0000
0100
0010
1000
0000
0101
0000
0100
0000
,
1000
0010
1000
0000
0101
0000
1000
0000
0100
0010
0100
0000
1001
0000
0100
0000
,
0001
1000
0001
0000
0110
0000
0001
0000
0100
0010
1000
0000
0101
0000
0010
0000
,
1000
0100
0010
0001
0100
0010
1000
0100
1000
0010
0100
0001
0010
0001
0100
0010
,
1000
0100
1000
0100
1000
0100
1000
0001
1000
0001
1000
0001
0100
0010
0100
0010
0100
0010
0000
0000
0000
0000
0000
0000
;

//---------------dance-single - ----------------
#NOTES:
     dance-single:
     :
     Hard:
     9:
     0.462,0.479,0.054,0.084,0.000,630.000,11.000,17.000,0.000,0.000:

1000
0001
0100
0000
0100
0010
1000
0000
,
1000
0100
0010
0000
0010
0001
1000
0000
,
0100
0001
0010
0000
0010
0001
0100
0000
,
0100
0010
1000
0000
1000
0001
0020
0000
,
0031
1000
0001
0000
0001
0100
0010
0000
,
0010
1000
0001
0000
1000
0100
0010
0000
,
0001
0010
0100
0000
1000
0001
0100
0000
,
0010
1000
0001
0000
1000
0100
0020
0000
,
0031
1000
0010
1000
,
0100
0010
0001
0100
,
0001
0010
0100
1000
,
0010
0100
0010
1000
,
1001
0010
0100
0001
,
0010
0100
1000
0001
,
0100
0100
0001
0010
,
0100
1000
0001
0100
,
0020
1000
1000
1000
,
2030
0100
3200
0320
,
0032
0103
0010
1000
,
0001
0100
0010
0001
,
1000
0000
1001
0000
0010
1000
0001
0000
,
0010
0000
0100
1000
0000
0001
0100
0000
,
0010
0000
1000
0000
1000
0000
0100
0010
,
0000
0001
1000
0000
0010
0000
0100
0000
,
0002
0000
0000
0000
,
0023
0000
0000
0230
0000
0000
0000
2300
,
0000
3002
0000
0000
0103
0000
0010
0000
,
1000
0100
0010
0001
,
1001
0000
0010
0000
0100
0001
0010
0000
,
1000
0001
0100
0000
1000
0001
0100
0010
,
1000
0000
0001
0000
0010
0100
1000
0000
,
0001
0100
0010
0000
1000
0010
0100
0010
,
1000
0000
0001
0000
0100
0001
0010
0000
,
0001
0000
1000
0000
0100
0001
0010
0100
,
1000
0000
0001
0000
0100
0001
1000
0000
,
1000
0000
0010
0000
0100
0010
1000
0001
,
0010
0100
1000
0001
,
0100
0010
1000
0010
0100
0001
0010
0000
,
0001
0000
1000
0000
1000
0001
0100
0000
,
0100
0001
0010
0100
1000
0000
1001
0000
,
0010
0000
0100
0000
0001
0010
0100
0000
,
1000
0001
0100
0000
1000
0010
0100
0010
,
1000
0000
0001
0000
0100
0001
0010
0000
,
0010
0001
1000
0000
1000
0001
0100
0010
,
1000
0010
0100
0001
,
1001
0001
0010
0100
,
1000
0001
0001
0010
,
0100
0100
1000
1000
,
0001
0000
0001
0000
1000
0001
0100
0001
,
1000
0000
0010
0000
1000
0010
0100
0010
,
0001
0000
1000
0000
0010
0000
1000
0001
,
0010
0000
0100
1000
0001
0000
1000
0001
,
0100
0010
1000
0010
0100
0001
0010
0100
,
1001
0000
0001
0000
0100
0001
0010
0100
,
1000
0001
0100
0000
0010
0000
1000
0001
,
0010
0100
1000
0001
,
1000
0000
0010
0000
1000
0001
0100
0001
,
0010
0000
0100
0000
1000
0001
0100
0001
,
0010
0100
1000
0000
0001
0000
0100
0010
,
1000
0010
0100
0001
,
0010
0000
0001
0000
1000
0100
0010
0001
,
0100
0000
0010
0000
0001
0010
0100
1000
,
0100
0010
0001
0000
0100
0000
0010
1000
,
0010
0100
0001
0010
,
0001
0000
1000
0000
0001
0100
0010
1000
,
0010
0000
0100
0000
0001
1000
0001
0100
,
0010
1000
0001
0000
0010
0000
0100
1000
,
0100
0010
0001
1000
,
0010
0000
1000
0000
0001
0100
0001
0010
,
0100
0000
1000
0000
0001
1000
0001
0100
,
0010
1000
0100
0000
0010
0000
0001
1000
,
0010
0100
0001
0010
,
0100
0000
1000
0000
0001
0100
0010
1000
,
0010
0000
0100
0000
0001
0010
0100
1000
,
0100
0010
0001
0000
0100
0000
0010
1000
,
0010
0100
0001
0010
,
0100
1000
0001
1000
,
1010
0010
0100
0001
,
0010
0001
1000
0100
,
0010
0001
1000
0010
,
0100
0001
0010
0100
,
1001
0100
0010
0001
,
1000
0000
0010
0100
0000
0001
0010
0000
,
0100
0000
1000
0000
0001
0000
1000
0010
,
0000
0100
0001
0000
0010
0000
0100
0000
,
2000
0001
0001
0001
,
3020
0100
0100
0230
,
0302
0023
0130
1000
,
0001
0100
0010
1000
,
1001
0000
0100
0000
1000
0100
0010
0000
,
0001
0000
0100
0010
0000
0010
1000
0000
,
1001
0000
0001
0000
1000
0100
0010
0000
,
0001
0000
0100
0000
0010
1000
0001
0000
,
1000
0000
0100
0000
0010
0001
1000
0000
,
1000
0001
0100
0000
0100
0001
0010
0000
,
0100
1000
0001
0100
,
0010
1000
0001
0000
1000
0001
0010
0000
,
0100
0000
1000
0000
0001
1000
0001
0100
,
0010
0000
1000
0000
0100
0010
0001
1000
,
0010
0100
0001
0000
0010
0000
0001
1000
,
0001
1000
0001
0100
,
0010
0000
0100
0000
0001
1000
0100
0010
,
0001
0000
0100
0000
0010
1000
0010
0100
,
0001
0010
0100
0000
1000
0000
0001
1000
,
0100
0000
0010
0001
1000
0000
1000
0001
,
0010
0000
0100
0000
1000
0100
0010
0001
,
1000
0000
0010
0000
1000
0001
0100
0001
,
0010
0100
1000
0000
0001
0000
0100
0010
,
1000
0010
0100
0001
,
0010
0000
0001
0000
1000
0001
0100
0001
,
0010
0000
0001
0000
1000
0001
0100
0001
,
0100
0010
1000
0000
0010
0000
0100
0001
,
0010
0100
1000
0001
,
0100
0000
0010
0000
1000
0010
0100
0010
,
1001
0000
0010
0000
0100
0001
0010
0000
,
0001
1000
0001
0000
1000
0001
0100
0000
,
0100
0000
0010
0000
1000
0001
0010
0000
,
1000
0001
0010
0000
1000
0100
0010
0000
,
0001
0100
0010
0000
1000
0010
0100
0000
,
0100
0001
0010
0000
0001
1000
0100
0000
,
1000
0100
0010
0001
1000
0010
1000
0010
,
0100
0001
0010
0100
0001
1000
0000
0000
;
