#TITLE:Turkey March;
#SUBTITLE:;
#ARTIST:Banya;
#TITLETRANSLIT:;
#SUBTITLETRANSLIT:;
#ARTISTTRANSLIT:;
#CREDIT:;
#BANNER:turkey.png;
#BACKGROUND:turkey-bg.png;
#LYRICSPATH:;
#CDTITLE:;
#MUSIC:07 - Turkey March.mp3;
#OFFSET:-1.110;
#SAMPLESTART:26.250;
#SAMPLELENGTH:13.000;
#SELECTABLE:YES;
#BPMS:0.000=150.000;
#STOPS:;
#BGCHANGES:;
// cache tags:
#FIRSTBEAT:15.000;
#LASTBEAT:231.500;
#SONGFILENAME:Songs/IzzySM Keyboard Mega Pack/turkey/turkey2.sm;
#HASMUSIC:1;
#HASBANNER:1;
#MUSICLENGTH:101.650;
// end cache tags

//---------------dance-single - ----------------
#NOTES:
     dance-single:
     :
     Easy:
     4:
     0.261,0.256,0.157,0.236,0.000,146.000,16.000,24.000,0.000,0.000:  // measure 1
0000
0000
0000
0000
,  // measure 2
0000
0000
0000
0000
,  // measure 3
0000
0000
0000
0000
,  // measure 4
0000
0000
0000
2000
,  // measure 5
3000
0020
0030
0100
,  // measure 6
0001
0100
0001
0000
,  // measure 7
0101
0000
0101
0000
,  // measure 8
0001
0100
0010
2000
,  // measure 9
3000
0200
0300
0010
,  // measure 10
0001
0010
0001
0000
,  // measure 11
0011
0000
0011
0000
,  // measure 12
0001
1000
0100
0000
,  // measure 13
0020
0000
0031
0000
,  // measure 14
2000
0000
3100
0000
,  // measure 15
2000
0000
3010
0000
,  // measure 16
0200
0000
0301
2000
,  // measure 17
3000
0020
0030
0100
,  // measure 18
0001
1000
0010
0000
,  // measure 19
0110
0000
0110
0000
,  // measure 20
1000
0002
2000
3003
,  // measure 21
0000
0000
0000
0000
,  // measure 22
1000
0100
1000
0000
,  // measure 23
0001
0010
0001
0000
,  // measure 24
1000
0010
1000
0000
,  // measure 25
0001
0100
0001
0000
,  // measure 26
1000
1000
1000
0000
,  // measure 27
0001
0001
0001
0000
,  // measure 28
1001
0000
1001
0000
,  // measure 29
1000
0001
0010
0000
,  // measure 30
0011
0000
1100
0000
,  // measure 31
1010
0000
0101
0000
,  // measure 32
0100
0001
1000
0010
,  // measure 33
0100
0001
1000
0000
,  // measure 34
0010
0100
0001
0001
,  // measure 35
1000
0010
1000
0000
,  // measure 36
0100
1000
0010
0010
,  // measure 37
0100
0001
0100
0000
,  // measure 38
0001
1000
0001
0001
,  // measure 39
0100
0010
0100
0000
,  // measure 40
0010
0100
0010
0010
,  // measure 41
1000
0001
1000
0020
,  // measure 42
0030
2000
3000
0001
,  // measure 43
0100
0010
1000
0000
,  // measure 44
1010
0000
1010
0000
,  // measure 45
0010
1000
0001
2000
,  // measure 46
3000
0200
0300
0010
,  // measure 47
0001
1000
0100
0000
,  // measure 48
1100
0000
1100
0000
,  // measure 49
0100
1000
0001
0000
,  // measure 50
2000
0000
3010
0000
,  // measure 51
0020
0000
0130
0000
,  // measure 52
0200
0000
0301
0000
,  // measure 53
0002
0000
1003
0020
,  // measure 54
0030
0200
0300
0001
,  // measure 55
1000
0001
1000
0000
,  // measure 56
0010
1000
0001
0100
,  // measure 57
0001
2000
0002
0000
,  // measure 58
0000
0000
0000
0000
0000
0000
0000
3003
;

//---------------dance-single - ----------------
#NOTES:
     dance-single:
     :
     Medium:
     7:
     0.489,0.455,0.226,0.433,0.000,281.000,23.000,44.000,0.000,0.000:  // measure 1
0000
0000
0000
0000
,  // measure 2
0000
0000
0000
0000
,  // measure 3
0000
0000
0000
0000
,  // measure 4
0000
0000
0000
0000
0000
0000
0001
0010
,  // measure 5
0100
0000
1000
0010
0100
0000
0001
1000
,  // measure 6
0200
0000
0320
0000
0032
0000
0103
0001
,  // measure 7
0100
0000
0010
0100
0010
0000
1000
0010
,  // measure 8
1000
0000
0100
0000
0010
0000
0100
1000
,  // measure 9
0001
0000
0100
0001
1000
0000
0010
0100
,  // measure 10
0002
0000
2003
0000
3020
0000
0130
0010
,  // measure 11
0100
0000
0001
0100
0001
0000
1000
0010
,  // measure 12
0100
0000
0001
0000
0010
0000
0100
1000
,  // measure 13
0001
0001
0020
0000
0130
0000
1000
0010
,  // measure 14
0100
0100
0002
0000
0013
0000
0001
1000
,  // measure 15
0010
0010
0200
0000
0310
0000
1000
0001
,  // measure 16
0010
0010
0200
0000
0310
0000
0100
1000
,  // measure 17
0010
0000
0100
0001
0010
0000
0100
0010
,  // measure 18
0002
2003
3002
1003
,  // measure 19
1010
0101
0011
1100
,  // measure 20
2000
3001
0020
0030
,  // measure 21
0220
0000
0000
0330
2002
0000
0000
3003
,  // measure 22
1000
0100
0001
0000
0001
0100
1000
0000
,  // measure 23
1000
0100
0010
0100
0001
0100
1000
0000
,  // measure 24
1000
0010
0001
0000
0001
0010
1000
0000
,  // measure 25
1000
0010
0001
0010
2000
0000
3000
0000
,  // measure 26
1000
0100
0010
0000
0001
0100
0010
0000
,  // measure 27
1000
0100
0010
0001
0100
0010
1000
0000
,  // measure 28
1000
0010
0100
0000
0001
0010
0100
0000
,  // measure 29
1000
0010
0100
0001
0020
0000
0030
0000
,  // measure 30
1000
1001
0100
0110
,  // measure 31
0001
1001
0010
0110
,  // measure 32
2000
3200
0320
0032
,  // measure 33
0203
0310
2000
3000
,  // measure 34
1010
0000
1100
0000
0100
1000
0010
0000
,  // measure 35
1000
0010
0100
0000
0010
0100
0001
0000
,  // measure 36
0101
0000
0011
0000
0100
0001
0010
0000
,  // measure 37
0001
0010
0100
0000
0010
0100
1000
0000
,  // measure 38
1100
0000
0011
0000
0001
0010
0001
0000
,  // measure 39
1000
0100
1000
0000
0001
0100
0001
0000
,  // measure 40
0101
0000
1010
0000
1000
0010
1000
0000
,  // measure 41
0001
0100
0001
0000
2000
0000
3010
0100
,  // measure 42
0001
0000
0010
0100
1000
0000
0010
0100
,  // measure 43
0002
0000
2003
0000
3020
0000
0130
0010
,  // measure 44
1000
0000
0100
0010
0001
0000
0100
0010
,  // measure 45
1000
0000
0001
0000
0100
0000
0010
1000
,  // measure 46
0001
0000
1000
0001
0100
0000
0001
0100
,  // measure 47
0020
0000
2030
0000
3200
0000
0310
0001
,  // measure 48
0010
0000
0001
1000
0001
0000
1000
0100
,  // measure 49
1000
0000
0001
0000
0010
0000
0100
1000
,  // measure 50
0010
0010
0200
0000
0301
0000
0100
0001
,  // measure 51
0010
0010
0200
0000
1300
0000
0010
1000
,  // measure 52
0100
0100
0020
0000
0031
0000
0010
0001
,  // measure 53
0100
0100
0020
0000
1030
0000
0001
0010
,  // measure 54
0100
0000
1000
0010
0100
0000
0001
1000
,  // measure 55
0200
0320
0032
0103
,  // measure 56
0101
1010
1100
0011
,  // measure 57
0020
0130
2002
0000
,  // measure 58
0000
0000
0000
0000
0000
0000
0000
3003
;

//---------------dance-single - ----------------
#NOTES:
     dance-single:
     :
     Hard:
     9:
     0.583,0.569,0.098,0.275,0.098,377.000,10.000,28.000,0.000,0.000:  // measure 1
0000
0000
0000
0000
,  // measure 2
0000
0000
0000
0000
,  // measure 3
0000
0000
0000
0000
,  // measure 4
0000
0000
0000
0000
0000
0000
1000
0100
,  // measure 5
0020
0000
0031
0100
0020
0000
1030
0100
,  // measure 6
1000
0010
1000
0001
0020
0000
0130
1000
,  // measure 7
0010
0000
0100
0001
0010
0000
0100
1000
,  // measure 8
0010
0100
0001
0010
0100
0000
1000
0001
,  // measure 9
0200
0000
0301
1000
0200
0000
0310
0001
,  // measure 10
0100
0001
1000
0010
0200
0000
0301
0100
,  // measure 11
0010
0000
0100
0010
1000
0000
0010
1000
,  // measure 12
0100
0001
0100
1000
0010
0000
0100
0001
,  // measure 13
1000
0000
1000
0000
0001
0100
0001
0000
0010
0000
0000
0000
0100
0000
1000
0000
,  // measure 14
0001
0000
0001
0000
1000
0100
1000
0000
0010
0000
0000
0000
0100
0000
0010
0000
,  // measure 15
0100
0000
0100
0000
0001
1000
0001
0000
0010
0000
0000
0000
0001
0000
1000
0000
,  // measure 16
0001
0000
0001
0000
0010
0100
0010
0000
0001
0000
0000
0000
1000
0000
0010
0000
,  // measure 17
0200
0000
0301
0010
0200
0000
1300
0001
,  // measure 18
0100
0010
0100
0001
2000
0000
3010
0100
,  // measure 19
0001
0010
0100
1000
0100
0010
0001
1000
,  // measure 20
1001
1100
0022
0033
,  // measure 21
0020
0000
0000
0000
0200
0000
0000
0330
,  // measure 22
1000
0100
0010
0001
0100
0010
1000
0001
,  // measure 23
0010
0100
1000
0010
0100
0001
1000
0000
,  // measure 24
1000
0100
1000
0001
0100
0001
1000
0010
,  // measure 25
1000
0001
0010
0001
1000
0000
0000
0000
,  // measure 26
0100
0010
0001
0010
0100
1000
0100
0010
,  // measure 27
0001
0100
1000
0100
0001
0010
0100
0000
,  // measure 28
1000
0001
0100
0001
1000
0010
1000
0001
,  // measure 29
0100
0001
0010
0100
1000
0000
0000
0000
,  // measure 30
1010
0110
0101
1001
,  // measure 31
1100
0000
0000
0000
0110
0000
0000
0000
0011
0000
0000
0001
0100
0000
0010
0000
,  // measure 32
1000
1000
0100
0100
0010
0010
0001
0001
,  // measure 33
0200
0320
2030
3000
,  // measure 34
1000
0000
0100
0000
1000
0100
1000
0000
0010
0000
0100
0000
0001
0000
0010
0000
,  // measure 35
0001
0000
0100
0000
0001
0100
0001
0000
0100
0000
0010
0000
1000
0000
0100
0000
,  // measure 36
1000
0000
0010
0000
1000
0010
1000
0000
0100
0000
0010
0000
0001
0000
0100
0000
,  // measure 37
0001
0000
0010
0000
0001
0010
0001
0000
0010
0000
0100
0000
1000
0000
0001
0000
,  // measure 38
0100
0000
0010
0000
1000
0100
0010
0000
0001
0000
1000
0000
0100
0010
0001
0000
,  // measure 39
1000
0000
0010
0000
0100
0001
0010
0000
0100
0000
1000
0000
0010
0100
0001
0010
,  // measure 40
0100
1000
0010
1000
0001
0100
0001
0010
,  // measure 41
0001
1000
0010
0100
0020
0000
0130
0001
,  // measure 42
0020
0000
0130
1000
0020
0000
0130
0001
,  // measure 43
0010
0100
1000
0010
0200
0000
0301
1000
,  // measure 44
0010
0000
1000
0010
0100
0000
0010
0100
,  // measure 45
0001
1000
0010
0100
0001
0000
1000
0010
,  // measure 46
2000
0000
3001
0100
0002
0000
1003
0010
,  // measure 47
1000
0001
0100
0001
0200
0000
0301
0010
,  // measure 48
0001
0000
0010
0100
0010
0000
0100
1000
,  // measure 49
0010
0100
0001
0010
0100
0000
1000
0001
,  // measure 50
0010
0000
0010
0000
0100
1000
0001
0000
0100
0000
0000
0000
0010
0000
0100
0000
,  // measure 51
0001
0000
0001
0000
1000
0010
0100
0000
0001
0000
0000
0000
1000
0000
0100
0000
,  // measure 52
0010
0000
0010
0000
0001
1000
0100
0000
0010
0000
0000
0000
0001
0000
0100
0000
,  // measure 53
0010
0000
0010
0000
1000
0001
0100
0000
0010
0000
0000
0000
1000
0000
0001
0000
,  // measure 54
0020
0000
0031
1000
0020
0000
1030
0001
,  // measure 55
0100
0010
0100
0001
1000
0000
0010
0100
,  // measure 56
0001
0001
0010
0010
0100
0100
1000
1000
,  // measure 57
0020
0230
0302
0003
,  // measure 58
0010
0000
0100
0000
1000
0010
0000
0000
0100
0000
0001
0000
0010
0100
0000
0000
;

//---------------dance-single - ----------------
#NOTES:
     dance-single:
     :
     Challenge:
     10:
     0.853,0.938,0.344,0.275,0.836,544.000,35.000,28.000,0.000,0.000:  // measure 1
0000
0000
0000
0000
,  // measure 2
0000
0000
0000
0000
,  // measure 3
0000
0000
0000
0000
,  // measure 4
0000
0000
0000
0000
0000
0000
0000
0000
0000
0000
0000
0000
0010
1000
0100
1000
,  // measure 5
0002
0000
0000
0000
0103
0001
0010
0001
2000
0000
0000
0000
3100
1000
0010
0100
,  // measure 6
0001
0010
0001
0010
0100
1000
0100
1000
0020
0000
0000
0000
0130
0000
0001
0000
,  // measure 7
0010
0011
0010
0001
1000
1001
1000
0100
,  // measure 8
0010
0000
0100
0000
1000
0000
0001
0000
0100
0000
0000
0000
0010
0100
0001
0100
,  // measure 9
0020
0000
0000
0000
1030
0100
1000
0100
0020
0000
0000
0000
0031
0100
0010
1000
,  // measure 10
0100
1000
0100
1000
0010
1000
0010
1000
0002
0000
0000
0000
0013
0000
0100
0000
,  // measure 11
1000
1100
1000
0010
0100
0110
0100
0001
,  // measure 12
0010
0100
1000
0100
0010
0000
0001
0100
,  // measure 13
0101
0000
0101
0000
0001
1000
0001
1000
0010
0000
0000
0000
1000
0000
0100
0000
,  // measure 14
1100
0000
1100
0000
1000
0001
1000
0001
0010
0000
0000
0000
0100
0000
1000
0000
,  // measure 15
1001
0000
1001
0000
1000
0010
0100
0001
0010
0000
0000
0000
0001
0000
0100
0000
,  // measure 16
0110
0000
0110
0000
0100
0001
0010
0100
1000
0000
0000
0000
1000
0100
0010
0001
,  // measure 17
2000
0000
0000
0000
3001
0100
0010
1000
0002
0000
0000
0000
1003
0100
0010
0001
,  // measure 18
1000
0100
1000
0100
0010
0001
0010
0001
0020
0000
0000
0000
0130
0000
1000
0000
,  // measure 19
0001
0001
1000
1000
0100
0100
0010
0010
,  // measure 20
0011
1001
1100
0000
,  // measure 21
2000
0000
0000
0000
0002
0000
0000
3003
,  // measure 22
1000
0000
0100
0000
0010
0001
0010
0000
0001
0000
0100
0000
0010
1000
0010
0000
,  // measure 23
0100
0000
0010
0000
1000
0010
1000
0000
0100
0000
0010
0000
0001
0010
0001
0000
,  // measure 24
1000
0000
0001
0000
0100
0001
0100
0000
0001
0000
1000
0000
0100
1000
0100
0000
,  // measure 25
0010
0001
0010
0100
1000
0100
0010
0001
2000
0000
0000
0000
0000
0000
3000
0000
,  // measure 26
0001
0000
0010
0000
0100
1000
0010
0000
0100
0000
0001
0000
0010
0100
1000
0000
,  // measure 27
0010
0000
0100
0000
0001
1000
0010
0000
1000
0000
0001
0000
1000
0100
0010
0000
,  // measure 28
0001
0000
0100
0000
0010
1000
0100
0000
1000
0000
0010
0000
0100
0001
0010
0000
,  // measure 29
0100
1000
0100
0010
0001
0010
0100
1000
0002
0000
0000
0000
0000
0000
0003
0000
,  // measure 30
1000
0100
1000
0000
0010
1000
0010
0000
0100
0010
0100
0000
0001
0100
0001
0000
,  // measure 31
0001
0100
0010
1000
0010
0100
0001
1000
0000
0000
0000
0010
0100
0000
0001
0000
,  // measure 32
0010
0010
0100
0100
1100
1100
0011
0011
,  // measure 33
0020
0000
0000
0000
0032
0000
0000
0000
2000
0000
3003
0000
0010
1000
0100
1000
,  // measure 34
0010
0100
0001
0010
0001
0100
0010
1000
0010
0100
0001
0010
0100
1000
0100
1000
,  // measure 35
0001
0010
0100
1000
0010
0100
0001
0100
0010
1000
0100
0010
0001
0100
0010
0100
,  // measure 36
0010
1000
0100
1000
0001
0010
0001
1000
0010
1000
0001
0100
0001
1000
0001
0010
,  // measure 37
0001
0010
0100
1000
0010
0100
0001
0010
0100
1000
0001
0100
0001
1000
0010
0100
,  // measure 38
0001
0100
0001
1000
0010
1000
0100
1000
0001
0010
0001
0100
0001
1000
0100
0010
,  // measure 39
0100
1000
0100
1000
0001
0010
0100
0010
0100
1000
0100
1000
0001
1000
0001
0100
,  // measure 40
0001
1000
0010
0100
0010
1000
0001
0010
0100
0010
0001
0010
0100
1000
0010
0100
,  // measure 41
0001
1000
0010
0100
0010
0100
0001
1000
0001
0000
0000
0000
0010
0100
1000
0010
,  // measure 42
0200
0000
0000
0000
0310
0100
0001
0010
0200
0000
0000
0000
1300
0010
0100
0001
,  // measure 43
0010
0100
0010
0100
1000
0001
1000
0001
0020
0000
0000
0000
0130
0000
1000
0000
,  // measure 44
0010
0101
0100
0001
0010
1100
0100
1000
,  // measure 45
0010
0000
0100
0000
0001
0000
0010
0000
0100
0000
0000
0000
1000
0010
0100
0001
,  // measure 46
0200
0000
0000
0000
0301
0010
0100
1000
0200
0000
0000
0000
0310
0001
1000
0010
,  // measure 47
0100
0001
0100
0001
1000
0100
1000
0100
0020
0000
0000
0000
0031
0000
1000
0000
,  // measure 48
0100
0011
1000
0001
0100
1010
0001
1000
,  // measure 49
0100
1000
0001
0100
0010
0000
1000
0001
,  // measure 50
0101
0000
0101
0000
0001
0010
0001
0010
0100
0000
0000
0000
0010
0000
0001
0000
,  // measure 51
0011
0000
0011
0000
0010
0100
0010
0100
1000
0000
0000
0000
0010
0000
1000
0000
,  // measure 52
1010
0000
1010
0000
1000
0100
1000
0100
0010
0000
0000
0000
0100
0000
1000
0000
,  // measure 53
1100
0000
1100
0000
0100
1000
0100
1000
0001
0000
0000
0000
0100
0010
1000
0010
,  // measure 54
0200
0000
0000
0000
0310
0100
0001
0100
0020
0000
0000
0000
1030
0100
0010
0001
,  // measure 55
0100
0001
0100
0001
0010
0001
0010
0001
2000
0000
0000
0000
3010
0000
0100
0000
,  // measure 56
0001
0011
0010
0110
0100
1100
1000
1010
,  // measure 57
0020
0230
0302
0003
,  // measure 58
1000
0000
0010
0000
0100
0001
0000
0100
0001
0000
0010
0000
0100
1000
0000
0000
;
