#TITLE:Gate Openerz;
#SUBTITLE:;
#ARTIST:DJ Sharpnel;
#TITLETRANSLIT:;
#SUBTITLETRANSLIT:;
#ARTISTTRANSLIT:;
#CREDIT:;
#BANNER:gateopenerzbn.png;
#BACKGROUND:gateopenerzbg.png;
#LYRICSPATH:;
#CDTITLE:;
#MUSIC:gateopenerz.ogg;
#OFFSET:0.180;
#SAMPLESTART:97.675;
#SAMPLELENGTH:19.326;
#SELECTABLE:YES;
#BPMS:0.000=198.680;
#STOPS:;
#BGCHANGES:;
// cache tags:
#FIRSTBEAT:4.000;
#LASTBEAT:861.000;
#SONGFILENAME:Songs/SHARPNELSTREAMZ v2/Gate Openerz/gateopenerz.sm;
#HASMUSIC:1;
#HASBANNER:1;
#MUSICLENGTH:262.164;
// end cache tags

//---------------dance-single - 15+ (TYLR)----------------
#NOTES:
     dance-single:
     15+ (TYLR):
     Hard:
     15:
     1.000,1.000,0.023,0.885,1.000,2296.000,6.000,232.000,47.000,0.000:
0000
0000
0000
0000
,
2002
0000
0000
0000
,
0000
0000
0000
0000
,
0000
0000
0000
0000
,
3003
0000
0000
M000
0000
0000
0000
0000
,
0000
0000
0000
0M00
0000
0000
0000
0000
,
0000
0000
0000
00M0
0000
0000
0000
0000
,
0000
0000
0000
000M
0000
0000
0000
0000
,
0000
0000
0000
M000
0000
0000
0000
0000
,
0000
0001
0000
1000
0000
0001
0000
1000
,
0000
0001
0000
1000
0000
0001
0000
1000
,
0000
0001
0000
1000
0000
0001
0000
1000
,
0000
0001
0000
1000
0000
0001
0000
1000
,
0000
0001
0000
1000
0000
0001
0000
1000
,
0000
0001
0000
1000
0000
0001
0000
1000
,
0000
0001
0000
1000
0000
0001
0000
1000
,
0001
0100
0000
0010
1000
0000
0001
1000
0002
0023
0230
2300
3002
2003
3200
0320
,
0031
0000
1000
0100
1000
0000
0001
0000
0100
0000
0001
0000
1000
0000
0100
0010
,
0001
0000
1000
0001
1000
0000
0010
0000
0100
0000
0010
0000
1000
0000
0001
0010
,
0100
0000
1000
0001
1000
0000
0100
0000
0010
0000
0100
0000
1000
0000
0001
0100
,
0010
0000
1000
0010
1000
0000
0001
0000
0010
0000
0001
0000
0100
0000
0010
1000
,
0001
0000
0010
0001
0010
0000
0100
0000
1000
0000
0100
0000
0010
0000
0001
1000
,
0010
0000
0100
0010
0100
0000
0001
0000
1000
0000
0001
0000
0100
0000
0010
1000
,
0001
0000
1000
0100
1000
0000
0001
0000
0100
0000
0001
0000
0010
0000
0100
1000
,
0001
0000
1000
0010
1000
0000
0001
0000
0010
0000
0001
0000
1000
0000
0001
1000
,
0M10
0000
0100
0001
0100
0000
0001
0000
1000
0000
0100
0000
0010
0000
0001
1000
,
0010
0000
0100
0001
0100
0000
0010
0000
1000
0000
0001
0000
0010
0000
0100
1000
,
0001
0000
1000
0010
1000
0000
0001
0000
0100
0000
0010
0000
1000
0000
0100
0010
,
0001
0000
1000
0100
1000
0000
0001
0000
0100
0000
0001
0000
0010
0000
0100
1000
,
0001
0000
1000
0010
1000
0000
0100
0000
0010
0000
0001
0000
1000
0000
0001
0100
,
0010
0000
1000
0001
1000
0000
0001
0000
0010
0000
0100
0000
1000
0000
0001
1000
,
0010
0000
0100
0001
0100
0000
0001
0000
0010
0000
0100
0000
1000
0000
0001
1000
,
0010
0000
0100
0001
0100
0000
0001
0000
2000
3200
0320
0032
2003
3002
0023
0230
,
1300
0000
0001
0100
0010
0000
1000
0000
0100
0000
1000
0000
0001
0000
0100
0010
,
1000
0000
0001
1000
0100
0000
0010
0000
0001
0000
0010
0000
0100
0000
1000
0001
,
0100
0000
0010
1000
0001
0000
1000
0000
0010
0000
0100
0000
0001
0000
1000
0100
,
0010
0000
0001
0010
0100
0000
1000
0000
0010
0000
1000
0000
0001
0000
0100
0010
,
1000
0000
0001
0010
0100
0000
1000
0000
0010
0000
0100
0000
0001
0000
1000
0001
,
0010
0000
0100
1000
0001
0000
0100
0000
0010
0000
1000
0000
0001
0000
0010
0100
,
1000
0000
0001
1000
0010
0000
0100
0000
0001
0000
M100
0000
0010
0000
1000
0100
,
0010
0000
0001
0010
0100
0000
1000
0000
0010
0000
1000
0000
0001
0000
0100
0010
,
100M
0000
0001
1000
0100
0000
0010
0000
0001
0000
1000
0000
0010
0000
0100
0001
,
0010
0000
0100
1000
0001
0000
1000
0000
0010
0000
1000
0000
0100
0000
0010
0001
,
1000
0000
0001
0100
0010
0000
1000
0000
0100
0000
1000
0000
0001
0000
0100
0010
,
1000
0000
0001
1000
0100
0000
0010
0000
0001
0000
0010
0000
0100
0000
1000
0001
,
0100
0000
0010
1000
0001
0000
1000
0000
0010
0000
0100
0000
0001
0000
1000
0100
,
0010
0000
0001
0010
0100
0000
1000
0000
0010
0000
1000
0000
0001
0000
0100
0010
,
1000
0000
0001
0010
0100
0000
1000
0000
0010
0000
0100
0000
0001
0000
1000
0001
,
0010
0000
0100
1000
0001
0000
0100
0000
0010
0000
1000
0000
0001
0000
0010
0100
,
100M
0000
0001
1000
0010
0000
0100
0000
0001
0000
0100
0000
0010
0000
1000
0100
,
0010
0000
0001
0010
0100
0000
1000
0000
0010
0000
1000
0000
0001
0000
0100
0010
,
1000
0000
0001
0010
0100
0000
1000
0000
0010
0000
1000
0000
0100
0000
0010
0001
,
1000
0000
0010
0100
0001
0000
1000
0000
0100
0000
1000
0000
0010
0000
0100
0001
,
1000
0000
0100
0010
0001
0000
1000
0010
0100
0000
0001
0000
1000
0000
0001
0100
,
0010
0000
1000
0001
0010
0000
0100
1000
0010
0000
1000
0000
0001
0000
0010
0100
,
1000
0001
0010
0001
1000
0100
0010
0100
1000
0001
0100
0001
1000
0010
0100
0010
,
1000
0001
0100
0001
1000
0010
0100
0010
1000
0001
0010
0100
1000
0001
0100
0010
,
2000
3000
0001
2000
3000
0200
0300
2000
,
3000
0002
0003
0200
0300
0000
0020
0030
,
2000
3000
0100
2000
3000
0002
0003
0100
,
0020
1030
0001
2000
3000
0000
0000
0000
,
0010
0000
1000
0000
0010
0010
1000
0000
,
0010
0000
1000
0000
0010
0010
1000
0000
,
1001
0000
0001
0011
0000
0010
0110
0210
,
0000
0000
0000
0000
0000
0000
1300
0100
1000
0100
0010
0001
1000
0001
0100
0010
,
1000
0000
0001
0000
0010
0000
0100
0000
0010
0000
0001
0010
0001
0000
1000
0000
,
0010
0000
1000
0000
0001
0000
0010
0000
0001
0000
0100
0001
0100
0000
0010
0000
,
1000
0000
0010
0000
0100
0000
0001
0000
1000
0000
0001
0010
0001
0000
1000
0000
,
0100
0000
1000
0000
0001
0000
0010
0000
0001
0000
1000
0010
1000
0000
0001
0000
,
0100
0000
0001
0000
1000
0000
0100
0000
1000
0000
0001
0010
0001
0000
1000
0000
,
0010
0000
0100
0000
0001
0000
0010
0000
0001
0000
1000
0010
0100
0000
0001
0000
,
1000
0000
0100
0000
0010
0000
0001
0000
1000
0000
0001
0100
0001
0000
1000
0000
,
0010
0000
1000
0000
0001
0000
0100
0000
0001
0000
1000
0100
0010
0000
0001
0000
,
1001
0000
1000
0000
0010
0000
0100
0000
0010
0000
1000
0001
1000
0000
0001
0000
,
0010
0000
0001
0000
1000
0000
0010
0000
1000
0000
0100
0010
0001
0000
0010
0000
,
0100
0000
1000
0000
0001
0000
0100
0000
0001
0000
1000
0010
1000
0000
0001
0000
,
0010
0000
0100
0000
1000
0000
0010
0000
1000
0000
0001
0010
0001
0000
1000
0000
,
0010
0000
0100
0000
0001
0000
1000
0000
0001
0000
1000
0100
0010
0000
0001
0000
,
0100
0000
0001
0000
1000
0000
0100
0000
1000
0000
0001
1000
0010
0000
1000
0000
,
0001
0000
1000
0000
0100
0000
0010
0000
0100
0000
1000
0100
1000
0000
0001
0000
,
0100
0000
0010
0000
1000
0000
0100
0000
1000
0000
0001
0100
0010
0000
1000
0000
,
0002
0003
0020
0030
0200
0300
2000
3000
0002
0003
0020
0030
0200
0300
2000
3000
0002
0003
0020
0030
0200
0300
2000
3000
0002
0003
0020
0030
0200
0300
2000
3000
,
0010
0100
0001
0100
0010
1000
0010
1000
0001
1000
0010
0100
0001
1000
0010
1000
,
0100
0010
0001
0010
0100
1000
0001
1000
0100
0010
0001
0010
0100
1000
0001
1000
,
0001
0100
0010
1000
0001
0100
0010
1000
0001
0010
0100
0010
0001
1000
0010
0100
,
0001
1000
0001
1000
0010
0100
0001
0100
0010
1000
0001
1000
0001
0010
0100
1000
,
0001
0010
0001
1000
0001
0010
0001
1000
0100
1000
0001
0010
0001
1000
0001
0100
,
0001
1000
0010
0100
0010
1000
0001
1000
0001
0010
0100
0010
0001
1000
0001
0100
,
0010
1000
0001
1000
0010
0100
0001
1000
0010
1000
0001
1000
0100
0010
0001
1000
,
0002
0003
0020
0030
0200
0300
2000
3000
0002
0003
0020
0030
0200
0300
2000
3000
0002
0003
0020
0030
0200
0300
2000
3000
0002
0003
0020
0030
0200
0300
2000
3000
,
0010
0100
0001
0100
0010
1000
0010
1000
0001
1000
0010
0100
0001
1000
0010
1000
,
0100
0010
0001
0010
0100
1000
0001
1000
0100
0010
0001
0010
0100
1000
0001
1000
,
0001
0100
0010
1000
0001
0100
0010
1000
0001
0010
0100
0010
0001
1000
0010
0100
,
0001
1000
0001
1000
0010
0100
0001
0100
0010
1000
0001
1000
0001
0010
0100
1000
,
0001
0100
0001
1000
0100
0010
0100
1000
0001
0010
0100
0010
0001
1000
0100
1000
,
0001
0100
0001
1000
0010
0100
0010
1000
0001
0010
0001
1000
0100
0010
0100
1000
,
0010
0100
0010
1000
0001
0010
0001
1000
0010
0100
0001
1000
0010
1000
0001
1000
,
0100
0010
0100
1000
0001
0100
0001
1000
0100
0010
0001
1000
0001
0000
1000
0000
,
0001
0010
0100
1000
0001
1000
0001
1000
0100
0010
0100
1000
0001
1000
0001
1000
,
0010
0100
0001
0100
0010
1000
0001
1000
0010
0100
0001
0100
0010
1000
0001
1000
,
0001
0010
0100
1000
0001
0010
0100
1000
0001
0100
0010
0100
0001
1000
0100
0010
,
0001
1000
0001
1000
0100
0010
0001
0010
0100
1000
0001
1000
0001
0100
0010
1000
,
0001
0100
0001
1000
0001
0100
0001
1000
0010
1000
0001
0100
0001
1000
0001
0010
,
0001
1000
0100
0010
0100
1000
0001
1000
0001
0100
0010
0100
0001
1000
0001
0010
,
0100
1000
0001
1000
0100
0010
0001
1000
0100
1000
0001
1000
0010
0100
0001
1000
,
0002
0003
0020
0030
0200
0300
2000
3000
0002
0003
0020
0030
0200
0300
2000
3000
0002
0003
0020
0030
0200
0300
2000
3000
0002
0003
0020
0030
0200
0300
2000
3000
,
0001
0100
0001
1000
0100
0010
0100
0010
0001
0010
0100
0010
0001
1000
0001
1000
,
0010
0100
0001
0100
0010
1000
0001
1000
0010
0100
0001
0100
0010
1000
0001
1000
,
0001
0010
0100
1000
0001
0010
0100
1000
0001
0100
0010
0100
0001
1000
0100
0010
,
0001
1000
0001
1000
0100
0010
0001
0010
0100
1000
0001
1000
0001
0100
0010
1000
,
0001
0010
0001
1000
0010
0100
0010
1000
0001
0100
0010
0100
0001
1000
0010
1000
,
0001
0100
0001
1000
0100
0010
0100
1000
0001
0100
0001
1000
0010
0100
0010
1000
,
0100
0010
0100
1000
0001
0010
0001
1000
0001
1000
0010
1000
0001
0100
0010
1000
,
0001
0010
0001
1000
0100
0010
0001
1000
0001
0100
0010
1000
0001
1000
0001
1000
,
0100
1000
0001
0100
0010
1000
0001
1000
0010
0100
0001
1000
0001
1000
0001
1000
,
0100
0010
0100
1000
0001
0010
0001
1000
0001
0100
0010
1000
0001
0100
0010
1000
,
0100
0010
0100
1000
0001
0010
0100
0010
0001
1000
0001
0100
0010
1000
0010
0100
,
0001
1000
0010
1000
0001
0100
0010
1000
0001
1000
0001
0010
0100
1000
0001
1000
,
0100
0010
0001
1000
0001
0010
0100
0010
0001
1000
0001
0100
0010
1000
0001
0100
,
0001
1000
0100
0010
0100
1000
0001
1000
0001
0100
0001
1000
0100
0010
0001
0100
,
0010
0010
1000
1000
0001
0001
0010
0010
,
0100
1000
0100
0010
0001
1000
0001
0100
0010
1000
0100
0010
0001
0100
0010
1000
,
0002
0000
0000
0000
,
0000
0000
0000
M000
0000
0000
0000
0000
,
0000
0M00
0000
0000
0000
00M0
0000
0003
,
1000
0100
0000
0010
0001
0000
1000
0001
2000
3020
0230
0302
2003
3002
0023
0230
,
1300
0000
0001
0010
0001
0000
1000
0000
0010
0000
1000
0000
0001
0000
0010
0100
,
1000
0000
0001
1000
0001
0000
0100
0000
0010
0000
0100
0000
0001
0000
1000
0100
,
0010
0000
0001
1000
0001
0000
0010
0000
0100
0000
0010
0000
0001
0000
1000
0010
,
0100
0000
0001
0100
0001
0000
1000
0000
0100
0000
1000
0000
0010
0000
0100
0001
,
1000
0000
0100
1000
0100
0000
0010
0000
0001
0000
0010
0000
0100
0000
1000
0001
,
0100
0000
0010
0100
0010
0000
1000
0000
0001
0000
1000
0000
0010
0000
0100
0001
,
1000
0000
0001
0010
0001
0000
1000
0000
0010
0000
1000
0000
0100
0000
0010
0001
,
1000
0000
0001
0100
0001
0000
1000
0000
0100
0000
1000
0000
0001
0000
1000
0001
,
01M0
0000
0010
1000
0010
0000
1000
0000
0001
0000
0010
0000
0100
0000
1000
0001
,
0100
0000
0010
1000
0010
0000
0100
0000
0001
0000
1000
0000
0100
0000
0010
0001
,
1000
0000
0001
0100
0001
0000
1000
0000
0010
0000
0100
0000
0001
0000
0010
0100
,
1000
0000
0001
0010
0001
0000
1000
0000
0010
0000
1000
0000
0100
0000
0010
0001
,
1000
0000
0001
0100
0001
0000
0010
0000
0100
0000
1000
0000
0001
0000
1000
0010
,
0100
0000
0001
1000
0001
0000
1000
0000
0100
0000
0010
0000
0001
0000
1000
0001
,
0100
0000
0010
1000
0010
0000
1000
0000
0100
0000
0010
0000
0001
0000
1000
0001
,
0100
0000
0010
1000
0010
0000
1000
0000
0001
0000
0010
0000
0100
0000
1000
0001
,
02M0
0300
0000
0000
0001
0000
1000
0000
0200
0300
M00M
0000
0200
0000
0000
0000
0301
0000
0000
0000
0010
0000
0000
0000
0200
0300
0000
0000
1000
0000
0001
0000
,
0200
0300
0000
0000
0001
0000
1000
0000
0200
0300
M00M
0000
0200
0000
0000
0000
0301
0000
0000
0000
0100
0000
0000
0000
0010
0000
0000
0000
1000
0000
0001
0000
,
0020
0030
0000
0000
0001
0000
1000
0000
0020
0030
M00M
0000
0020
0000
0000
0000
0031
0000
0000
0000
0100
0000
0000
0000
0020
0030
0000
0000
1000
0000
0001
0000
,
0020
0030
0000
0000
0001
0000
1000
0000
0020
0030
M00M
0000
0020
0000
0000
0000
0031
0000
0000
0000
0010
0000
0000
0000
0100
0000
0000
0000
1000
0000
0001
0000
,
0200
0300
0000
0000
0001
0000
1000
0000
0200
0300
M00M
0000
0200
0000
0000
0000
0301
0000
0000
0000
0010
0000
0000
0000
0200
0300
0000
0000
1000
0000
0001
0000
,
0200
0300
0000
0000
0001
0000
1000
0000
0200
0300
M00M
0000
0200
0000
0000
0000
0301
0000
0000
0000
0100
0000
0000
0000
0010
0000
0000
0000
1000
0000
0001
0000
,
0020
0030
0000
0000
0001
0000
1000
0000
0020
0030
M00M
0000
0020
0000
0000
0000
0031
0000
0000
0000
0100
0000
0000
0000
0020
0030
0000
0000
1000
0000
0001
0000
,
0020
0030
0000
0000
0001
0000
1000
0000
0020
0030
M00M
0000
0020
0000
0000
0000
0031
0000
0000
0000
0010
0000
0000
0000
0100
0000
0000
0000
1000
0000
0001
0000
,
02M0
0300
0000
0000
0001
0000
1000
0000
0200
0300
M00M
0000
0200
0000
0000
0000
0301
0000
0000
0000
0010
0000
0000
0000
0200
0300
0000
0000
1000
0000
0001
0000
,
0200
0300
0000
0000
0001
0000
1000
0000
0200
0300
M00M
0000
0200
0000
0000
0000
0301
0000
0000
0000
0100
0000
0000
0000
0010
0000
0000
0000
1000
0000
0001
0000
,
0020
0030
0000
0000
0001
0000
1000
0000
0020
0030
M00M
0000
0020
0000
0000
0000
0031
0000
0000
0000
0100
0000
0000
0000
0020
0030
0000
0000
1000
0000
0001
0000
,
0020
0030
0000
0000
0001
0000
1000
0000
0020
0030
M00M
0000
0020
0000
0000
0000
0031
0000
0000
0000
0010
0000
0000
0000
0100
0000
0000
0000
1000
0000
0001
0000
,
0200
0300
0000
0000
0001
0000
1000
0000
0200
0300
M00M
0000
0200
0000
0000
0000
0301
0000
0000
0000
0010
0000
0000
0000
0200
0300
0000
0000
1000
0000
0001
0000
,
0200
0300
0000
0000
0001
0000
1000
0000
0200
0300
M00M
0000
0200
0000
0000
0000
0301
0000
0000
0000
0100
0000
0000
0000
0010
0000
0000
0000
1000
0000
0001
0000
,
0020
0030
0000
0000
0001
0000
1000
0000
0020
0030
M00M
0000
0020
0000
0000
0000
0031
0000
0000
0000
0100
0000
0000
0000
0020
0030
0000
0000
1000
0000
0001
0000
,
0020
0030
0001
0000
1000
0000
0100
0000
0020
0030
0001
0000
0020
0000
0031
0000
1000
0000
0001
0000
0100
0000
0010
0000
1000
0000
0001
0000
0010
0000
0100
0000
,
2000
0000
0000
0000
,
30M1
0100
0010
0020
0000
1030
0200
0000
,
0310
0100
1000
1000
0010
0200
0000
0301
,
2000
0000
0000
0000
0000
0000
0000
3000
2000
0000
0000
0000
0000
0000
0000
0000
3001
0000
0000
0000
0020
0000
0000
0000
0000
0000
0000
0000
2030
0000
0000
0000
,
0000
3020
0000
0032
0000
2003
0000
3000
,
0020
0000
0000
0000
0000
0000
0000
0030
0020
0000
0000
0000
0000
0000
0000
0000
0130
0000
0000
0000
0020
0000
0000
0000
0000
0000
0000
0000
2030
0000
0000
0000
,
0000
3200
0000
0320
0000
2030
0000
3020
,
0000
0000
0000
0000
0000
0000
0130
0010
,
0001
1000
0000
1000
0000
1000
0000
1000
,
00M1
0100
0010
0020
0000
1030
0200
0000
,
0310
0100
1000
1000
0010
0200
0000
0301
,
2000
0000
0000
0000
0000
0000
0000
3000
2000
0000
0000
0000
0000
0000
0000
0000
3001
0000
0000
0000
0020
0000
0000
0000
0000
0000
0000
0000
2030
0000
0000
0000
,
0000
3020
0000
0032
0000
2003
0000
3000
,
0010
0000
0000
0000
1000
0000
0000
0000
0100
0000
0000
0000
2000
0000
0000
0000
0000
0000
0000
3000
2000
0000
0000
0000
0000
0000
0000
3000
1000
0000
0000
0000
,
0002
0203
2300
3200
,
0302
0023
0230
0000
,
1300
0100
0000
0010
0001
0000
1000
0010
0400
0002
0000
0000
0000
0000
0000
0300
,
2003
3000
0200
0300
0020
0030
0002
0003
2000
3000
0200
0300
0020
0030
0002
0003
2000
3000
0200
0300
0020
0030
0002
0003
2000
3000
0200
0300
0020
0030
0002
0003
,
0100
0010
1000
0010
0100
0001
0100
0001
1000
0001
0100
0010
1000
0001
0100
0001
,
0010
0100
1000
0100
0010
0001
1000
0001
0010
0100
1000
0100
0010
0001
1000
0001
,
1000
0010
0100
0001
1000
0010
0100
0001
1000
0100
0010
0100
1000
0001
0100
0010
,
1000
0001
1000
0001
0100
0010
1000
0010
0100
0001
1000
0001
1000
0100
0010
0001
,
1000
0100
1000
0001
1000
0100
1000
0001
0010
0001
1000
0100
1000
0001
1000
0010
,
1000
0001
0100
0010
0100
0001
1000
0001
1000
0100
0010
0100
1000
0001
1000
0010
,
0100
0001
1000
0001
0100
0010
1000
0001
0100
0001
1000
0001
0010
0100
1000
0001
,
2000
3000
0200
0300
0020
0030
0002
0003
2000
3000
0200
0300
0020
0030
0002
0003
2000
3000
0200
0300
0020
0030
0002
0003
2000
3000
0200
0300
0020
0030
0002
0003
,
0100
0010
1000
0010
0100
0001
0100
0001
1000
0001
0100
0010
1000
0001
0100
0001
,
0010
0100
1000
0100
0010
0001
1000
0001
0010
0100
1000
0100
0010
0001
1000
0001
,
1000
0010
0100
0001
1000
0010
0100
0001
1000
0100
0010
0100
1000
0001
0100
0010
,
1000
0001
1000
0001
0100
0010
1000
0010
0100
0001
1000
0001
1000
0100
0010
0001
,
1000
0010
1000
0001
0010
0100
0010
0001
1000
0100
0010
0100
1000
0001
0010
0001
,
1000
0010
1000
0001
0100
0010
0100
0001
1000
0100
1000
0001
0010
0100
0010
0001
,
0100
0010
0100
0001
1000
0100
1000
0001
0100
0010
1000
0001
0100
0001
1000
0001
,
0010
0100
0010
0001
1000
0010
1000
0001
0010
0100
1000
0001
0100
0000
0001
0000
,
1000
0100
0010
0001
1000
0001
1000
0001
0010
0100
1000
0001
1000
0001
0010
0001
,
0100
0010
1000
0010
0100
0001
1000
0001
0100
0010
1000
0010
0100
0001
1000
0001
,
1000
0100
0010
0001
1000
0100
0010
0001
1000
0010
0100
0010
1000
0001
0010
0100
,
1000
0001
1000
0001
0010
0100
1000
0100
0010
0001
1000
0001
1000
0010
0100
0001
,
1000
0010
1000
0001
1000
0010
1000
0001
0100
0001
1000
0010
1000
0001
1000
0100
,
1000
0001
0010
0100
0010
0001
1000
0001
1000
0010
0100
0010
1000
0001
1000
0100
,
0010
0001
1000
0001
0010
0100
1000
0001
0010
0001
1000
0001
0100
0010
1000
0001
,
2000
3000
0200
0300
0020
0030
0002
0003
2000
3000
0200
0300
0020
0030
0002
0003
2000
3000
0200
0300
0020
0030
0002
0003
2000
3000
0200
0300
0020
0030
0002
0003
,
1000
0010
1000
0001
0010
0100
0010
0100
1000
0100
0010
0100
1000
0001
1000
0001
,
0100
0010
1000
0010
0100
0001
1000
0001
0100
0010
1000
0010
0100
0001
1000
0001
,
1000
0100
0010
0001
1000
0100
0010
0001
1000
0010
0100
0010
1000
0001
0010
0100
,
1000
0001
1000
0001
0010
0100
1000
0100
0010
0001
1000
0001
1000
0010
0100
0001
,
1000
0100
1000
0001
0100
0010
0100
0001
1000
0010
0100
0010
1000
0001
0100
0001
,
1000
0010
1000
0001
0010
0100
0010
0001
1000
0010
1000
0001
0100
0010
0100
0001
,
0010
0100
0010
0001
1000
0100
1000
0001
1000
0001
0100
0001
1000
0010
0100
0001
,
1000
0100
1000
0001
0010
0100
1000
0001
1000
0010
0100
0001
1000
0001
1000
0001
,
1000
0010
0100
0001
1000
0100
1000
0001
0100
0010
1000
0001
0010
0100
1000
0001
,
1000
0100
0010
0001
1000
0010
0100
0001
1000
0100
0010
0001
1000
0010
1000
0001
,
0010
0010
0100
0100
1000
1000
0001
0001
,
1000
0010
0100
0001
1000
0001
0100
0010
1000
0100
0010
0001
1000
0010
0100
0001
,
2000
0000
0000
0000
,
0000
0000
0000
0000
,
0000
0000
0000
0000
,
0000
3000
0000
0000
;

//---------------dance-single - 16++ (Archi)----------------
#NOTES:
     dance-single:
     16++ (Archi):
     Challenge:
     16:
     1.000,1.000,0.122,0.519,1.000,2695.000,32.000,136.000,16.000,0.000:
0000
0000
0000
0000
,
2002
0000
0000
0000
,
0000
0000
0000
0000
,
0000
0000
0000
0000
,
3003
0000
0000
000M
0000
0000
0000
0000
,
0000
0000
0000
00M0
0000
0000
0000
0000
,
0000
0000
0000
0M00
0000
0000
0000
0000
,
0000
0000
0000
M000
0000
0000
0000
0000
,
0000
0000
0000
000M
0000
0000
0000
0000
,
0000
1000
0000
0001
0000
1000
0000
0001
,
0000
1000
0000
0001
0000
1000
0000
0001
,
0000
1000
0000
0001
0000
1000
0000
0001
,
0000
1000
0000
0001
0000
1000
0000
0001
,
0000
1000
0000
0001
0000
1000
0000
0001
,
0000
1000
0000
0001
0000
1000
0000
0001
,
0000
1000
0000
0001
0000
1000
0000
0001
,
1000
0100
0000
0100
0010
0000
0001
1000
0002
0023
0230
2300
3002
0203
0320
2030
,
3001
0000
0010
0100
0010
0000
0001
1000
0001
0100
0010
1000
0001
1000
0100
0010
,
0001
0000
0100
0010
0100
0000
0001
1000
0001
0010
0100
1000
0001
1000
0010
0100
,
0001
0000
0010
0100
0010
0000
0001
1000
0001
0100
0010
1000
0001
1000
0100
0010
,
0001
0000
0100
0010
0100
0000
0001
1000
0001
0010
0100
1000
0001
1000
0010
0100
,
0001
0000
1000
0010
1000
0000
0001
0100
0001
1000
0010
1000
0001
1000
0100
0010
,
0001
0000
1000
0100
1000
0000
0001
0010
0001
1000
0100
1000
0001
1000
0010
0100
,
0001
0000
1000
0010
1000
0000
0001
0100
0001
1000
0010
1000
0001
1000
0100
0010
,
0001
0000
1000
0100
1000
0000
0001
0010
0001
1000
0100
1000
0001
1000
0010
0100
,
0001
0000
0100
0010
0100
0000
0001
1000
0001
0010
0100
1000
0001
1000
0010
0100
,
0001
0000
0010
0100
0010
0000
0001
1000
0001
0100
0010
1000
0001
1000
0100
0010
,
0001
0000
0100
0010
0100
0000
0001
1000
0001
0010
0100
1000
0001
1000
0010
0100
,
0001
0000
0010
0100
0010
0000
0001
1000
0001
0100
0010
1000
0001
1000
0100
0010
,
0001
0000
1000
0100
1000
0000
0001
0010
0001
1000
0100
1000
0001
1000
0010
0100
,
0001
0000
1000
0010
1000
0000
0001
0100
0001
1000
0010
1000
0001
1000
0100
0010
,
0001
0000
1000
0100
1000
0000
0001
0010
0001
1000
0100
1000
0001
1000
0010
0100
,
0001
0000
1000
0010
1000
0000
0001
1000
0002
0023
0230
2300
3002
0203
0320
2030
,
3001
0000
0010
0100
0010
0000
0001
1000
0001
0100
0010
1000
0001
1000
0100
0010
,
0001
0000
0100
0010
0100
0000
0001
1000
0001
0010
0100
1000
0001
1000
0010
0100
,
0001
0000
0010
0100
0010
0000
0001
1000
0001
0100
0010
1000
0001
1000
0100
0010
,
0001
0000
0100
0010
0100
0000
0001
1000
0001
0010
0100
1000
0001
1000
0010
0100
,
0001
0000
1000
0010
1000
0000
0001
0100
0001
1000
0010
1000
0001
1000
0100
0010
,
0001
0000
1000
0100
1000
0000
0001
0010
0001
1000
0100
1000
0001
1000
0010
0100
,
0001
0000
1000
0010
1000
0000
0001
0100
0001
1000
0010
1000
0001
1000
0100
0010
,
0001
0000
1000
0100
1000
0000
0001
0010
0001
1000
0100
1000
0001
1000
0010
0100
,
0001
0000
0100
0010
0100
0000
0001
1000
0001
0010
0100
1000
0001
1000
0010
0100
,
0001
0000
0010
0100
0010
0000
0001
1000
0001
0100
0010
1000
0001
1000
0100
0010
,
0001
0000
1000
0100
0010
0000
0001
1000
0001
0010
0100
1000
0001
1000
0010
0100
,
0001
0000
1000
0010
0100
0000
0001
1000
0001
0100
0010
1000
0001
1000
0100
0010
,
0001
0000
0010
0100
1000
0000
0001
0010
0001
1000
0100
1000
0001
1000
0010
0100
,
0001
0000
0100
0010
1000
0000
0001
0100
0001
1000
0010
1000
0001
1000
0100
0010
,
0001
0000
0010
0100
1000
0000
0001
0010
0001
1000
0100
1000
0001
1000
0010
0100
,
0001
0000
0100
0010
1000
0000
0001
0100
0001
1000
0010
1000
0001
1000
0100
0010
,
0001
0000
1000
0010
0100
0000
0001
1000
0001
0100
0010
1000
0001
1000
0100
0010
,
0001
0000
1000
0100
0010
0000
0001
1000
0001
0010
0100
1000
0001
1000
0010
0100
,
0001
0000
0100
0010
1000
0000
0001
0100
0001
1000
0010
1000
0001
1000
0100
0010
,
0001
0000
0010
0100
1000
0000
0001
0010
0001
1000
0100
1000
0001
1000
0010
0100
,
0001
0000
0100
0010
1000
0000
0001
0100
0001
1000
0010
1000
0001
1000
0100
0010
,
0001
0000
0010
0100
1000
0000
0001
0010
0001
1000
0100
1000
0001
1000
0010
0100
,
0001
1000
0100
1000
0001
0010
0100
0010
0001
0100
0010
1000
0001
0100
0010
0100
,
0001
1000
0010
1000
0001
0100
0010
0100
0001
0010
0100
1000
0010
0100
0001
1000
,
0200
0300
1000
0002
0003
0020
0030
0002
,
0003
2000
3000
0020
0030
0000
0000
0000
,
0200
0300
0001
2000
3000
0020
0030
1000
,
0200
0300
0010
0002
0003
0000
0000
0000
,
0100
0000
0M10
0000
0100
0100
0M10
0000
,
0100
0000
0M10
0000
0100
0100
0M10
0000
,
1001
0000
0100
1010
0000
0010
0101
0101
,
0000
0000
0000
0000
0000
0000
1000
0001
1000
0001
0010
0001
1000
0100
0010
0001
,
1001
0000
1000
0000
0001
0000
0101
0000
0001
0000
1000
0010
1000
0000
0001
0000
,
1000
0000
0001
0000
1000
0000
1100
0000
1000
0000
0001
0010
0001
0000
1000
0000
,
0001
0000
1000
0000
0001
0000
0101
0000
0001
0000
1000
0010
1000
0000
0001
0000
,
1000
0000
0001
0000
1000
0000
1100
0000
1000
0000
0001
0010
0001
0000
1000
0000
,
0001
0000
1000
0000
0001
0000
0011
0000
0001
0000
1000
0100
1000
0000
0001
0000
,
1000
0000
0001
0000
1000
0000
1010
0000
1000
0000
0001
0100
0001
0000
1000
0000
,
0001
0000
1000
0000
0001
0000
0011
0000
0001
0000
1000
0100
1000
0000
0001
0000
,
1000
0000
0001
0000
1000
0000
1010
0000
1000
0000
0001
0100
0001
0000
1000
0000
,
1001
0000
1000
0000
0001
0000
0101
0000
0001
0000
1000
0010
1000
0000
0001
0000
,
1001
0000
0001
0000
1000
0000
1100
0000
1000
0000
0001
0010
0001
0000
1000
0000
,
1001
0000
1000
0000
0001
0000
0101
0000
0001
0000
1000
0010
1000
0000
0001
0000
,
1001
0000
0001
0000
1000
0000
1100
0000
1000
0000
0001
0010
0001
0000
1000
0000
,
1001
0000
0001
0000
1000
0000
1010
0000
1000
0000
0001
0100
0001
0000
1000
0000
,
1001
0000
1000
0000
0001
0000
0011
0000
0001
0000
1000
0100
1000
0000
0001
0000
,
1001
0000
0001
0000
0101
0000
0001
0000
1001
0000
1000
0100
1000
0000
0001
0000
,
1001
0000
1000
0000
1100
0000
1000
0000
1001
0000
0001
0100
0001
0000
1000
0000
,
0002
0003
0020
0030
0200
0300
2000
3000
0002
0003
0200
0300
0020
0030
2000
3000
0002
0003
0020
0030
0200
0300
2000
3000
0002
0003
0200
0300
0020
0030
2000
3000
,
0001
1000
0100
1000
0001
1000
0010
1000
0001
1000
0100
1000
0001
1000
0010
0100
,
0001
1000
0010
1000
0001
1000
0100
1000
0001
1000
0010
1000
0001
1000
0100
0010
,
0001
1000
0010
0100
0010
1000
0001
1000
0100
0010
0100
1000
0001
0010
0100
1000
,
0001
1000
0010
0100
0010
1000
0001
1000
0100
0010
0100
1000
0001
0100
0010
1000
,
0001
0010
0001
1000
0010
0100
0010
1000
0001
0010
0001
1000
0010
0100
0001
1000
,
0001
0100
0001
1000
0100
0010
0100
1000
0001
0100
0001
1000
0100
0010
0001
1000
,
0010
0100
0001
1000
0100
0010
0001
0100
0010
0100
0001
1000
0100
0010
0001
1000
,
0002
0003
0200
0300
0020
0030
2000
3000
0002
0003
0020
0030
0200
0300
2000
3000
0002
0003
0200
0300
0020
0030
2000
3000
0002
0003
0020
0030
0200
0300
2000
3000
,
0001
1000
0010
1000
0001
1000
0100
1000
0001
1000
0010
1000
0001
1000
0100
0010
,
0001
1000
0100
1000
0001
1000
0010
1000
0001
1000
0100
1000
0001
1000
0010
0100
,
0001
1000
0100
0010
0100
1000
0001
1000
0010
0100
0010
1000
0001
0100
0010
1000
,
0001
1000
0100
0010
0100
1000
0001
1000
0010
0100
0010
1000
0001
0010
0100
1000
,
0001
0100
0001
1000
0100
0010
0100
1000
0001
0100
0001
1000
0100
0010
0001
1000
,
0001
0010
0001
1000
0010
0100
0010
1000
0001
0010
0001
1000
0010
0100
0001
1000
,
0100
0010
0001
1000
0010
0100
0001
0010
0100
0010
0001
1000
0010
0100
0001
1000
,
0010
0100
0001
1000
0100
0010
0001
0100
0010
0100
0001
1000
0100
0010
0001
1000
,
0001
1000
0100
1000
0001
1000
0010
1000
0001
1000
0100
1000
0001
1000
0010
0100
,
0001
1000
0010
1000
0001
1000
0100
1000
0001
1000
0010
1000
0001
1000
0100
0010
,
0001
1000
0010
0100
0010
1000
0001
1000
0100
0010
0100
1000
0001
0010
0100
1000
,
0001
1000
0010
0100
0010
1000
0001
1000
0100
0010
0100
1000
0001
0100
0010
1000
,
0001
0010
0001
1000
0010
0100
0010
1000
0001
0010
0001
1000
0010
0100
0001
1000
,
0001
0100
0001
1000
0100
0010
0100
1000
0001
0100
0001
1000
0100
0010
0001
1000
,
0010
0100
0001
1000
0100
0010
0001
0100
0010
0100
0001
1000
0100
0010
0001
1000
,
0002
0003
0200
0300
0020
0030
2000
3000
0002
0003
0020
0030
0200
0300
2000
3000
0002
0003
0200
0300
0020
0030
2000
3000
0002
0003
0020
0030
0200
0300
2000
3000
,
0001
1000
0010
1000
0001
1000
0100
1000
0001
1000
0010
1000
0001
1000
0100
0010
,
0001
1000
0100
1000
0001
1000
0010
1000
0001
1000
0100
1000
0001
1000
0010
0100
,
0001
1000
0100
0010
0100
1000
0001
1000
0010
0100
0010
1000
0001
0100
0010
1000
,
0001
1000
0100
0010
0100
1000
0001
1000
0010
0100
0010
1000
0001
0010
0100
1000
,
0001
0100
0001
1000
0100
0010
0100
1000
0001
0100
0001
1000
0100
0010
0001
1000
,
0001
0010
0001
1000
0010
0100
0010
1000
0001
0010
0001
1000
0010
0100
0001
1000
,
0100
0010
0001
1000
0010
0100
0001
0010
0100
0010
0001
1000
0010
0100
0001
1000
,
0010
0100
0001
1000
0100
0010
0001
0100
0010
0100
0001
1000
0100
0010
0001
1000
,
0001
0100
0010
1000
0100
0010
0001
1000
0001
0100
0010
1000
0100
0010
0001
1000
,
0001
0010
0100
1000
0010
0100
0001
1000
0001
0010
0100
1000
0010
0100
0001
1000
,
0100
0010
0100
1000
0010
0100
0001
1000
0100
0010
0100
1000
0010
0100
0001
1000
,
0010
0100
0010
1000
0100
0010
0001
1000
0010
0100
0010
1000
0100
0010
0001
1000
,
0001
0100
0001
1000
0100
0010
0001
1000
0001
0100
0001
1000
0100
0010
0001
1000
,
0001
0010
0001
1000
0010
0100
0001
1000
0001
0010
0001
1000
0010
0100
0001
1000
,
0001
0010
0001
0100
0010
1000
0001
1000
0001
0010
0001
0100
0010
1000
0001
1000
,
0001
0010
0001
0100
0010
1000
0010
0100
0001
0010
0001
0100
0010
1000
0010
0100
,
0002
0000
0000
0000
,
0000
0000
0000
M000
0000
0000
0000
0000
,
0000
0M00
0000
0000
0000
00M0
0000
0003
,
1000
0100
0000
0100
0010
0000
0001
1000
0002
0023
0230
2300
3002
0203
0320
2030
,
3001
0000
0100
0010
0100
0000
0001
1000
0001
0010
0100
1000
0001
1000
0010
0100
,
0001
0000
0010
0100
0010
0000
0001
1000
0001
0100
0010
1000
0001
1000
0100
0010
,
0001
0000
0100
0010
0100
0000
0001
1000
0001
0010
0100
1000
0001
1000
0010
0100
,
0001
0000
0010
0100
0010
0000
0001
1000
0001
0100
0010
1000
0001
1000
0100
0010
,
0001
0000
1000
0100
1000
0000
0001
0010
0001
1000
0100
1000
0001
1000
0010
0100
,
0001
0000
1000
0010
1000
0000
0001
0100
0001
1000
0010
1000
0001
1000
0100
0010
,
0001
0000
1000
0100
1000
0000
0001
0010
0001
1000
0100
1000
0001
1000
0010
0100
,
0001
0000
1000
0010
1000
0000
0001
0100
0001
1000
0010
1000
0001
1000
0100
0010
,
0001
0000
0010
0100
0010
0000
0001
1000
0001
0100
0010
1000
0001
1000
0100
0010
,
0001
0000
0100
0010
0100
0000
0001
1000
0001
0010
0100
1000
0001
1000
0010
0100
,
0001
0000
0010
0100
0010
0000
0001
1000
0001
0100
0010
1000
0001
1000
0100
0010
,
0001
0000
0100
0010
0100
0000
0001
1000
0001
0010
0100
1000
0001
1000
0010
0100
,
0001
0000
1000
0010
1000
0000
0001
0100
0001
1000
0010
1000
0001
1000
0100
0010
,
0001
0000
1000
0100
1000
0000
0001
0010
0001
1000
0100
1000
0001
1000
0010
0100
,
0001
0000
1000
0010
1000
0000
0001
0100
0001
1000
0010
1000
0001
1000
0100
0010
,
0001
0000
1000
0100
1000
0000
0001
0010
0001
1000
0100
1000
0001
1000
0010
0100
,
0001
0000
0100
0010
0100
0000
0001
1000
0001
0010
0100
1000
0001
1000
0010
0100
,
0001
0000
0010
0100
0010
0000
0001
1000
0001
0100
0010
1000
0001
1000
0100
0010
,
0001
0000
0100
0010
0100
0000
0001
1000
0001
0010
0100
1000
0001
1000
0010
0100
,
0001
0000
0010
0100
0010
0000
0001
1000
0001
0100
0010
1000
0001
1000
0100
0010
,
0001
0000
1000
0100
1000
0000
0001
0010
0001
1000
0100
1000
0001
1000
0010
0100
,
0001
0000
1000
0010
1000
0000
0001
0100
0001
1000
0010
1000
0001
1000
0100
0010
,
0001
0000
1000
0100
1000
0000
0001
0010
0001
1000
0100
1000
0001
1000
0010
0100
,
0001
0000
1000
0010
1000
0000
0001
0100
0001
1000
0010
1000
0001
1000
0100
0010
,
0001
0000
0010
0100
0010
0000
0001
1000
0001
0100
0010
1000
0001
1000
0100
0010
,
0001
0000
0100
0010
0100
0000
0001
1000
0001
0010
0100
1000
0001
1000
0010
0100
,
0001
0000
0010
0100
0010
0000
0001
1000
0001
0100
0010
1000
0001
1000
0100
0010
,
0001
0000
0100
0010
0100
0000
0001
1000
0001
0010
0100
1000
0001
1000
0010
0100
,
0001
0000
1000
0010
1000
0000
0001
0100
0001
1000
0010
1000
0001
1000
0100
0010
,
0001
0000
1000
0100
1000
0000
0001
0010
0001
1000
0100
1000
0001
1000
0010
0100
,
0001
1000
0010
1000
0001
0100
0010
0100
0001
0010
0100
1000
0001
0010
0100
0010
,
0001
1000
0100
1000
0001
0010
0100
0010
0001
0100
0010
1000
0100
0010
0001
1000
,
0020
0000
0030
MMMM
,
0001
0010
0001
0000
0010
0100
0010
0000
0001
0100
0001
0000
1000
0010
0100
0000
,
0010
1000
0010
0000
0100
0010
0100
0000
0001
0100
0001
0000
1000
0100
0010
0000
,
0001
0100
0001
0000
0100
0010
0100
0000
0001
0010
0001
0000
1000
0100
0010
0000
,
0100
1000
0100
0000
0010
0100
0010
0000
0001
0010
0001
0000
1000
0010
0100
0000
,
0001
0010
0001
0000
0010
0100
0010
0000
0001
0100
0001
0000
1000
0010
0100
0000
,
0010
1000
0010
0000
0100
0010
0100
0000
0001
0100
0001
0000
1000
0100
0010
0000
,
0001
0100
0001
0000
1000
0100
1000
0000
0001
0100
0001
0000
1000
0010
0100
0000
,
0001
0010
0001
0000
1000
0010
1000
0000
0001
0010
0001
0000
1000
0100
0010
0000
,
0001
0100
0001
0000
0100
0010
0100
0000
0001
0010
0001
0000
1000
0100
0010
0000
,
0100
1000
0100
0000
0010
0100
0010
0000
0001
0010
0001
0000
1000
0010
0100
0000
,
0001
0010
0001
0000
0010
0100
0010
0000
0001
0100
0001
0000
1000
0010
0100
0000
,
0010
1000
0010
0000
0100
0010
0100
0000
0001
0100
0001
0000
1000
0100
0010
0000
,
0001
0100
0001
0000
0100
0010
0100
0000
0001
0010
0001
0000
1000
0100
0010
0000
,
0100
1000
0100
0000
0010
0100
0010
0000
0001
0010
0001
0000
1000
0010
0100
0000
,
0001
0010
0001
0000
1000
0010
1000
0000
0001
0010
0001
0000
1000
0100
0010
0000
,
0001
0000
0000
0010
0000
0000
0000
0000
0000
0010
0000
0000
0100
0000
0000
0000
0000
0000
1000
0000
0000
0010
0000
0000
0400
0000
0004
0000
0000
0000
0000
0000
0000
0000
0000
0000
0000
0000
0000
0000
0000
0000
0300
0000
0003
0000
0000
0000
,
2000
3000
0200
0300
0020
0030
0002
0003
2000
3000
0020
0030
0200
0300
0002
0003
2000
3000
0200
0300
0020
0030
0002
0003
2000
3000
0020
0030
0200
0300
0002
0003
,
1000
0001
0010
0001
1000
0001
0100
0001
1000
0001
0010
0001
1000
0001
0100
0010
,
1000
0001
0100
0001
1000
0001
0010
0001
1000
0001
0100
0001
1000
0001
0010
0100
,
1000
0001
0100
0010
0100
0001
1000
0001
0010
0100
0010
0001
1000
0100
0010
0001
,
1000
0001
0100
0010
0100
0001
1000
0001
0010
0100
0010
0001
1000
0010
0100
0001
,
1000
0100
1000
0001
0100
0010
0100
0001
1000
0100
1000
0001
0100
0010
1000
0001
,
1000
0010
1000
0001
0010
0100
0010
0001
1000
0010
1000
0001
0010
0100
1000
0001
,
0100
0010
1000
0001
0010
0100
1000
0010
0100
0010
1000
0001
0010
0100
1000
0001
,
2000
3000
0020
0030
0200
0300
0002
0003
2000
3000
0200
0300
0020
0030
0002
0003
2000
3000
0020
0030
0200
0300
0002
0003
2000
3000
0200
0300
0020
0030
0002
0003
,
1000
0001
0100
0001
1000
0001
0010
0001
1000
0001
0100
0001
1000
0001
0010
0100
,
1000
0001
0010
0001
1000
0001
0100
0001
1000
0001
0010
0001
1000
0001
0100
0010
,
1000
0001
0010
0100
0010
0001
1000
0001
0100
0010
0100
0001
1000
0010
0100
0001
,
1000
0001
0010
0100
0010
0001
1000
0001
0100
0010
0100
0001
1000
0100
0010
0001
,
1000
0010
1000
0001
0010
0100
0010
0001
1000
0010
1000
0001
0010
0100
1000
0001
,
1000
0100
1000
0001
0100
0010
0100
0001
1000
0100
1000
0001
0100
0010
1000
0001
,
0010
0100
1000
0001
0100
0010
1000
0100
0010
0100
1000
0001
0100
0010
1000
0001
,
0100
0010
1000
0001
0010
0100
1000
0010
0100
0010
1000
0001
0010
0100
1000
0001
,
1000
0001
0010
0001
1000
0001
0100
0001
1000
0001
0010
0001
1000
0001
0100
0010
,
1000
0001
0100
0001
1000
0001
0010
0001
1000
0001
0100
0001
1000
0001
0010
0100
,
1000
0001
0100
0010
0100
0001
1000
0001
0010
0100
0010
0001
1000
0100
0010
0001
,
1000
0001
0100
0010
0100
0001
1000
0001
0010
0100
0010
0001
1000
0010
0100
0001
,
1000
0100
1000
0001
0100
0010
0100
0001
1000
0100
1000
0001
0100
0010
1000
0001
,
1000
0010
1000
0001
0010
0100
0010
0001
1000
0010
1000
0001
0010
0100
1000
0001
,
0100
0010
1000
0001
0010
0100
1000
0010
0100
0010
1000
0001
0010
0100
1000
0001
,
2000
3000
0020
0030
0200
0300
0002
0003
2000
3000
0200
0300
0020
0030
0002
0003
2000
3000
0020
0030
0200
0300
0002
0003
2000
3000
0200
0300
0020
0030
0002
0003
,
1000
0001
0100
0001
1000
0001
0010
0001
1000
0001
0100
0001
1000
0001
0010
0100
,
1000
0001
0010
0001
1000
0001
0100
0001
1000
0001
0010
0001
1000
0001
0100
0010
,
1000
0001
0010
0100
0010
0001
1000
0001
0100
0010
0100
0001
1000
0010
0100
0001
,
1000
0001
0010
0100
0010
0001
1000
0001
0100
0010
0100
0001
1000
0100
0010
0001
,
1000
0010
1000
0001
0010
0100
0010
0001
1000
0010
1000
0001
0010
0100
1000
0001
,
1000
0100
1000
0001
0100
0010
0100
0001
1000
0100
1000
0001
0100
0010
1000
0001
,
0010
0100
1000
0001
0100
0010
1000
0100
0010
0100
1000
0001
0100
0010
1000
0001
,
0100
0010
1000
0001
0010
0100
1000
0010
0100
0010
1000
0001
0010
0100
1000
0001
,
1000
0010
0100
0001
0010
0100
1000
0001
1000
0010
0100
0001
0010
0100
1000
0001
,
1000
0100
0010
0001
0100
0010
1000
0001
1000
0100
0010
0001
0100
0010
1000
0001
,
1000
0100
1000
0010
0100
0001
1000
0001
1000
0100
1000
0010
0100
0001
1000
0001
,
1000
0100
1000
0010
0100
0001
0100
0010
1000
0100
1000
0010
0100
0001
0100
0010
,
2000
0000
0000
0000
,
0000
0000
0000
0000
,
0000
0000
0000
0000
,
0000
3000
0000
0000
;

//---------------dance-single - STREAMZ----------------
#NOTES:
     dance-single:
     STREAMZ:
     Edit:
     17:
     1.000,1.000,0.111,0.519,1.000,2841.000,29.000,136.000,12.000,0.000:
0000
0000
0000
0000
,
2002
0000
0000
0000
,
0000
0000
0000
0000
,
0000
0000
0000
0000
,
3003
0000
0000
M000
0000
0000
0000
0000
,
0000
0000
0000
0M00
0000
0000
0000
0000
,
0000
0000
0000
00M0
0000
0000
0000
0000
,
0000
0000
0000
000M
0000
0000
0000
0000
,
0000
0000
0000
M000
0000
0000
0000
0000
,
0000
0001
0000
1000
0000
0001
0000
1000
,
0000
0001
0000
1000
0000
0001
0000
1000
,
0000
0001
0000
1000
0000
0001
0000
1000
,
0000
0001
0000
1000
0000
0001
0000
1000
,
0000
0001
0000
1000
0000
0001
0000
1000
,
0000
0001
0000
1000
0000
0001
0000
1000
,
0000
0001
0000
1000
0000
0001
0000
1000
,
0001
0010
0000
0010
0100
0000
1000
0001
2000
3200
0320
0032
0203
0320
2030
3002
,
0013
0100
1000
0001
1000
0010
0100
0001
0010
0001
1000
0010
0100
0001
1000
0100
,
0010
0001
1000
0001
0100
0010
0100
0001
0010
0100
1000
0001
1000
0010
1000
0001
,
0010
0100
1000
0001
0100
0010
0100
0001
0010
0100
1000
0001
0100
0001
0100
0010
,
1000
0001
1000
0100
0010
0100
0010
0001
0100
0010
1000
0001
0100
0010
0100
0001
,
0010
0100
1000
0001
1000
0010
0100
0001
0010
0001
1000
0010
0100
0001
1000
0100
,
0010
0001
1000
0001
0100
0010
0100
0001
0010
0100
1000
0001
1000
0010
1000
0001
,
0010
0100
1000
0001
0100
0010
0100
0001
0010
0100
1000
0001
0100
0001
0100
0010
,
1000
0001
1000
0100
0010
0100
0010
0001
0100
0010
1000
0001
0100
0010
0100
0001
,
0010
0100
1000
0001
1000
0010
0100
0001
0010
0001
1000
0010
0100
0001
1000
0100
,
0010
0001
1000
0001
0100
0010
0100
0001
0010
0100
1000
0001
1000
0010
1000
0001
,
0010
0100
1000
0001
0100
0010
0100
0001
0010
0100
1000
0001
0100
0001
0100
0010
,
1000
0001
1000
0100
0010
0100
0010
0001
0100
0010
1000
0001
0100
0010
0100
0001
,
0010
0100
1000
0001
1000
0010
0100
0001
0010
0001
1000
0010
0100
0001
1000
0100
,
0010
0001
1000
0001
0100
0010
0100
0001
0010
0100
1000
0001
1000
0010
1000
0001
,
0010
0100
1000
0001
0100
0010
0100
0001
0010
0100
1000
0001
0100
0001
0100
0010
,
1000
0001
1000
0100
0010
0100
0010
0001
0200
0320
2030
3200
0320
0230
2300
3002
,
0103
0010
1000
0001
1000
0100
0010
0001
0100
0001
1000
0100
0010
0001
1000
0010
,
0100
0001
1000
0001
0010
0100
0010
0001
0100
0010
1000
0001
1000
0100
1000
0001
,
0100
0010
1000
0001
0010
0100
0010
0001
0100
0010
1000
0001
0010
0001
0010
0100
,
1000
0001
1000
0010
0100
0010
0100
0001
0010
0100
1000
0001
0010
0100
0010
0001
,
0100
0010
1000
0001
1000
0100
0010
0001
0100
0001
1000
0100
0010
0001
1000
0010
,
0100
0001
1000
0001
0010
0100
0010
0001
0100
0010
1000
0001
1000
0100
1000
0001
,
0100
0010
1000
0001
0010
0100
0010
0001
0100
0010
1000
0001
0010
0001
0010
0100
,
1000
0001
1000
0010
0100
0010
0100
0001
0010
0100
1000
0001
0010
0100
0010
0001
,
0100
0010
1000
0001
1000
0100
0010
0001
0100
0001
1000
0100
0010
0001
1000
0010
,
0100
0001
1000
0001
0010
0100
0010
0001
0100
0010
1000
0001
1000
0100
1000
0001
,
0100
0010
1000
0001
0010
0100
0010
0001
0100
0010
1000
0001
0010
0001
0010
0100
,
1000
0001
1000
0010
0100
0010
0100
0001
0010
0100
1000
0001
0010
0100
0010
0001
,
0100
0010
1000
0001
1000
0100
0010
0001
0100
0001
1000
0100
0010
0001
1000
0010
,
0100
0001
1000
0001
0010
0100
0010
0001
0100
0010
1000
0001
1000
0100
1000
0001
,
0100
0010
1000
0001
0010
0100
0010
0001
0100
0010
1000
0001
0010
0001
0010
0100
,
1000
0001
1000
0010
0100
0010
0100
0001
0010
0100
1000
0010
0100
0010
1000
0001
,
0010
0100
1000
0001
1000
0010
0100
0001
0010
0001
1000
0010
0100
0001
1000
0100
,
0010
0001
1000
0001
0100
0010
0100
0001
0010
0100
1000
0001
1000
0010
1000
0001
,
0010
0100
1000
0001
0100
0010
0100
0001
0010
0100
1000
0001
0100
0001
0100
0010
,
1000
0001
1000
0100
0010
0100
0010
0001
0100
0010
1000
0001
0100
0010
0100
0001
,
1000
0001
0010
0100
1000
0001
0100
0001
0010
0100
1000
0100
0010
0001
0010
0001
,
1000
0010
0100
0001
1000
0001
0010
0001
0100
0010
1000
0001
0010
0100
0010
0001
,
1000
0001
0100
0001
1000
0100
0010
0100
1000
0010
0100
0001
1000
0010
0100
0010
,
1000
0001
0100
0001
1000
0010
0100
0010
1000
0100
0010
0001
0100
0010
1000
0001
,
0020
0030
0001
2000
3000
0200
0300
2000
,
3000
0002
0003
0200
0300
0000
0010
0000
,
0200
0300
0001
2000
3000
0020
0030
1000
,
0200
0310
0100
2000
3000
0000
0000
0000
,
0010
0000
01M0
0000
0010
0010
01M0
0000
,
0010
0000
01M0
0000
0010
0010
01M0
0000
,
1001
0000
0010
0101
0000
0100
1010
1010
,
0000
0000
0000
0000
0000
0000
0001
1000
0001
1000
0100
1000
0001
0010
0100
1000
,
0001
0000
1000
0000
0010
0000
1010
0000
1000
0000
0001
0100
0001
0000
1000
0000
,
0100
0000
1000
0000
0001
0000
0011
0000
0010
0000
0001
1000
0001
0000
0100
0000
,
0001
0000
1000
0000
0100
0000
1100
0000
1000
0000
0001
0100
0001
0000
1000
0000
,
0100
0000
1000
0000
0001
0000
0101
0000
0100
0000
0010
1000
0010
0000
0100
0000
,
0001
0000
1000
0000
0001
0000
0011
0000
0010
0000
0100
1000
0100
0000
0010
0000
,
0001
0000
1000
0000
0001
0000
0101
0000
0100
0000
0010
1000
0010
0000
0100
0000
,
0001
0000
1000
0000
0100
0000
0110
0000
0010
0000
0001
1000
0001
0000
0010
0000
,
0100
0000
1000
0000
0001
0000
0101
0000
0100
0000
0010
1000
0010
0000
0100
0000
,
0101
0000
0001
0000
1000
0000
1100
0000
0100
0000
1000
0001
1000
0000
0001
0000
,
0101
0000
0100
0000
0001
0000
1001
0000
1000
0000
0100
0010
0100
0000
1000
0000
,
1001
0000
0001
0000
0100
0000
0110
0000
0010
0000
1000
0010
1000
0000
0001
0000
,
0011
0000
0010
0000
0100
0000
1100
0000
1000
0000
0001
0100
0001
0000
1000
0000
,
1100
0000
0100
0000
0010
0000
0011
0000
0001
0000
1000
0010
1000
0000
0001
0000
,
1001
0000
1000
0000
0100
0000
0110
0000
0010
0000
0001
1000
0001
0000
1000
0000
,
1010
0000
0010
0000
0100
0000
0101
0000
0001
0000
1000
0001
1000
0000
0100
0000
,
0110
0000
0010
0000
0100
0000
1100
0000
1000
0000
0001
1000
0001
0000
0100
0000
,
0002
0003
0020
0030
0200
0300
2000
3000
0002
0003
0200
0300
0020
0030
2000
3000
0002
0003
0020
0030
0200
0300
2000
3000
0002
0003
0200
0300
0020
0030
2000
3000
,
0001
1000
0100
1000
0001
1000
0010
1000
0001
1000
0100
1000
0001
0100
0010
1000
,
0100
1000
0001
1000
0100
1000
0010
1000
0100
1000
0001
1000
0100
0010
0001
1000
,
0001
1000
0010
0100
0010
1000
0001
1000
0100
0010
0100
1000
0001
0100
0010
0100
,
0001
1000
0100
0010
0100
1000
0001
1000
0010
1000
0001
1000
0010
0100
0010
1000
,
0001
0010
0001
1000
0010
0100
0010
1000
0001
0010
0001
1000
0010
0100
0001
1000
,
0001
0100
0001
1000
0100
0010
0100
1000
0001
0100
0001
1000
0100
0010
0001
1000
,
0010
0100
0001
1000
0100
0010
0001
0100
0010
0100
0001
1000
0100
0010
0001
1000
,
0002
0003
0200
0300
0020
0030
2000
3000
0002
0003
0020
0030
0200
0300
2000
3000
0002
0003
0200
0300
0020
0030
2000
3000
0002
0003
0020
0030
0200
0300
2000
3000
,
0001
1000
0010
1000
0001
1000
0100
1000
0001
1000
0010
1000
0001
1000
0100
0010
,
0001
1000
0100
1000
0001
1000
0010
1000
0001
1000
0100
1000
0001
1000
0010
0100
,
0001
1000
0100
0010
0100
1000
0001
1000
0010
0100
0001
0100
0010
1000
0100
0010
,
0001
0010
0100
1000
0001
1000
0001
0100
0010
1000
0001
1000
0010
0100
0001
1000
,
0001
0010
0100
1000
0010
0100
0001
0100
0010
1000
0001
1000
0100
0010
0001
1000
,
0001
0010
0001
1000
0010
0100
0010
1000
0100
0010
0100
1000
0010
0100
0001
1000
,
0100
0010
0100
1000
0010
0100
0001
0010
0100
0010
0001
1000
0010
0100
0001
1000
,
0100
0010
0100
1000
0010
0100
0001
0010
0100
0010
0001
1000
0010
0100
0010
0100
,
0001
1000
0100
1000
0001
1000
0010
1000
0001
1000
0100
1000
0001
0100
0010
1000
,
0100
1000
0001
1000
0100
1000
0010
1000
0100
1000
0001
1000
0100
0010
0001
1000
,
0001
1000
0010
0100
0010
1000
0001
1000
0100
0010
0100
1000
0001
0100
0010
0100
,
0001
1000
0100
0010
0100
1000
0001
1000
0010
1000
0001
1000
0010
0100
0010
1000
,
0001
0010
0001
1000
0010
0100
0010
1000
0001
0010
0001
1000
0010
0100
0001
1000
,
0001
0100
0001
1000
0100
0010
0100
1000
0001
0100
0001
1000
0100
0010
0001
1000
,
0010
0100
0001
1000
0100
0010
0001
0100
0010
0100
0001
1000
0100
0010
0001
1000
,
0002
0003
0200
0300
0020
0030
2000
3000
0002
0003
0020
0030
0200
0300
2000
3000
0002
0003
0200
0300
0020
0030
2000
3000
0002
0003
0020
0030
0200
0300
2000
3000
,
0001
1000
0010
1000
0001
1000
0100
1000
0001
1000
0010
1000
0001
1000
0100
0010
,
0001
1000
0100
1000
0001
1000
0010
1000
0001
1000
0100
1000
0001
1000
0010
0100
,
0001
1000
0100
0010
0100
1000
0001
1000
0010
0100
0001
0100
0010
1000
0100
0010
,
0001
0010
0100
1000
0001
1000
0001
0100
0010
1000
0001
1000
0010
0100
0001
1000
,
0001
0010
0100
1000
0010
0100
0001
0100
0010
1000
0001
1000
0100
0010
0001
1000
,
0001
0010
0001
1000
0010
0100
0010
1000
0100
0010
0100
1000
0010
0100
0001
1000
,
0100
0010
0100
1000
0010
0100
0001
0010
0100
0010
0001
1000
0010
0100
0001
1000
,
0100
0010
0100
1000
0010
0100
0001
0010
0100
0010
0001
1000
0010
0100
0010
0100
,
0001
0100
0010
1000
0100
0010
0001
1000
0001
0100
0010
1000
0100
0010
0001
1000
,
0001
0010
0100
1000
0010
0100
0001
1000
0001
0010
0100
1000
0010
0100
0010
1000
,
0100
0010
0001
0010
0100
1000
0010
0100
0010
1000
0001
0010
0100
1000
0001
1000
,
0001
0100
0010
1000
0100
0010
0001
1000
0010
0100
0010
1000
0100
0010
0001
1000
,
0001
0100
0001
1000
0100
0010
0001
1000
0001
0100
0001
1000
0100
0010
0001
1000
,
0001
0010
0001
1000
0010
0100
0001
1000
0001
0010
0001
1000
0010
0100
0001
1000
,
0001
0010
0001
0100
0010
1000
0001
1000
0001
0010
0001
0100
0010
1000
0001
1000
,
0001
0010
0001
0100
0010
1000
0010
0100
0001
0010
0001
0100
0010
1000
0010
0100
,
0002
0000
0000
0000
,
0000
0000
0000
M000
0000
0000
0000
0000
,
0000
0M00
0000
0000
0000
00M0
0000
0003
,
1000
0100
0000
0100
0010
0000
0001
1000
0002
0023
0230
2300
3020
0230
0302
2003
,
3100
0010
0001
1000
0001
0100
0010
1000
0100
1000
0001
0100
0010
1000
0001
0010
,
0100
1000
0001
1000
0010
0100
0010
1000
0100
0010
0001
1000
0001
0100
0001
1000
,
0100
0010
0001
1000
0010
0100
0010
1000
0100
0010
0001
1000
0010
1000
0010
0100
,
0001
1000
0001
0010
0100
0010
0100
1000
0010
0100
0001
1000
0010
0100
0010
1000
,
0100
0010
0001
1000
0001
0100
0010
1000
0100
1000
0001
0100
0010
1000
0001
0010
,
0100
1000
0001
1000
0010
0100
0010
1000
0100
0010
0001
1000
0001
0100
0001
1000
,
0100
0010
0001
1000
0010
0100
0010
1000
0100
0010
0001
1000
0010
1000
0010
0100
,
0001
1000
0001
0010
0100
0010
0100
1000
0010
0100
0001
1000
0010
0100
0010
1000
,
0100
0010
0001
1000
0001
0100
0010
1000
0100
1000
0001
0100
0010
1000
0001
0010
,
0100
1000
0001
1000
0010
0100
0010
1000
0100
0010
0001
1000
0001
0100
0001
1000
,
0100
0010
0001
1000
0010
0100
0010
1000
0100
0010
0001
1000
0010
1000
0010
0100
,
0001
1000
0001
0010
0100
0010
0100
1000
0010
0100
0001
1000
0010
0100
0010
1000
,
0100
0010
0001
1000
0001
0100
0010
1000
0100
1000
0001
0100
0010
1000
0001
0010
,
0100
1000
0001
1000
0010
0100
0010
1000
0100
0010
0001
1000
0001
0100
0001
1000
,
0100
0010
0001
1000
0010
0100
0010
1000
0100
0010
0001
1000
0010
1000
0010
0100
,
0001
1000
0001
0010
0100
0010
0100
1000
0010
0100
0001
0010
0100
0010
0001
1000
,
0010
0100
0001
1000
0001
0010
0100
1000
0010
1000
0001
0010
0100
1000
0001
0100
,
0010
1000
0001
1000
0100
0010
0100
1000
0010
0100
0001
1000
0001
0010
0001
1000
,
0010
0100
0001
1000
0100
0010
0100
1000
0010
0100
0001
1000
0100
1000
0100
0010
,
0001
1000
0001
0100
0010
0100
0010
1000
0100
0010
0001
1000
0100
0010
0100
1000
,
0010
0100
0001
1000
0001
0010
0100
1000
0010
1000
0001
0010
0100
1000
0001
0100
,
0010
1000
0001
1000
0100
0010
0100
1000
0010
0100
0001
1000
0001
0010
0001
1000
,
0010
0100
0001
1000
0100
0010
0100
1000
0010
0100
0001
1000
0100
1000
0100
0010
,
0001
1000
0001
0100
0010
0100
0010
1000
0100
0010
0001
1000
0100
0010
0100
1000
,
0010
0100
0001
1000
0001
0010
0100
1000
0010
1000
0001
0010
0100
1000
0001
0100
,
0010
1000
0001
1000
0100
0010
0100
1000
0010
0100
0001
1000
0001
0010
0001
1000
,
0010
0100
0001
1000
0100
0010
0100
1000
0010
0100
0001
1000
0100
1000
0100
0010
,
0001
1000
0001
0100
0010
0100
0010
1000
0100
0010
0001
1000
0100
0010
0100
1000
,
0010
0100
0001
1000
0001
0010
0100
1000
0010
1000
0001
0010
0100
1000
0001
0100
,
0010
1000
0001
1000
0100
0010
0100
1000
0010
0100
0001
1000
0001
0010
0001
1000
,
0010
0100
0001
1000
0100
0010
0100
1000
0010
0100
0001
1000
0100
0010
0100
1000
,
0010
0100
0001
1000
0100
0010
0100
1000
0010
0100
0001
0010
0100
1000
0010
0100
,
0002
0000
0000
0000
,
0013
0100
1000
0000
0001
0010
0001
0000
1000
0010
1000
0000
0001
0100
0010
0000
,
0100
0001
0100
0000
0010
0100
0010
0000
1000
0010
1000
0000
0001
0010
0100
0000
,
1000
0010
1000
0000
0010
0100
0010
0000
1000
0100
1000
0000
0001
0010
0100
0000
,
0010
0001
0010
0000
0100
0010
0100
0000
1000
0100
1000
0000
0001
0100
0010
0000
,
1000
0100
1000
0000
0100
0010
0100
0000
1000
0010
1000
0000
0001
0100
0010
0000
,
0100
0001
0100
0000
0010
0100
0010
0000
1000
0010
1000
0000
0001
0010
0100
0000
,
1000
0010
1000
0000
0001
0010
0001
0000
1000
0010
1000
0000
0001
0100
0010
0000
,
1000
0100
1000
0000
0001
0100
0001
0000
1000
0100
1000
0000
0001
0010
0100
0000
,
1000
0010
1000
0000
0010
0100
0010
0000
1000
0100
1000
0000
0001
0010
0100
0000
,
0010
0001
0010
0000
0100
0010
0100
0000
1000
0100
1000
0000
0001
0100
0010
0000
,
1000
0100
1000
0000
0100
0010
0100
0000
1000
0010
1000
0000
0001
0100
0010
0000
,
0100
0001
0100
0000
0010
0100
0010
0000
1000
0010
1000
0000
0001
0010
0100
0000
,
1000
0010
1000
0000
0010
0100
0010
0000
1000
0100
1000
0000
0001
0010
0100
0000
,
0010
0001
0010
0000
0100
0010
0100
0000
1000
0100
1000
0000
0001
0100
0010
0000
,
1000
0100
1000
0000
0001
0100
0001
0000
1000
0100
1000
0000
0001
0010
0100
0000
,
1000
0100
0000
0100
0010
0000
0001
0100
0010
1000
0001
1000
0100
0010
0001
1000
,
0002
0003
0020
0030
0200
0300
2000
3000
0002
0003
0200
0300
0020
0030
2000
3000
0002
0003
0020
0030
0200
0300
2000
3000
0002
0003
0200
0300
0020
0030
2000
3000
,
0001
1000
0100
1000
0001
1000
0010
1000
0001
1000
0100
1000
0001
0100
0010
1000
,
0100
1000
0001
1000
0100
1000
0010
1000
0100
1000
0001
1000
0100
0010
0001
1000
,
0001
1000
0010
0100
0010
1000
0001
1000
0100
0010
0001
1000
0010
1000
0100
0010
,
0100
1000
0010
0100
0010
1000
0001
1000
0010
0100
0001
0100
0010
1000
0001
0010
,
0001
1000
0010
0100
0010
1000
0001
0010
0001
1000
0001
0100
0010
0100
0001
1000
,
0001
0100
0001
1000
0100
0010
0100
1000
0001
0100
0001
1000
0100
0010
0001
1000
,
0010
0100
0001
1000
0100
0010
0001
0100
0010
0100
0001
1000
0100
0010
0001
1000
,
0002
0003
0200
0300
0020
0030
2000
3000
0002
0003
0020
0030
0200
0300
2000
3000
0002
0003
0200
0300
0020
0030
2000
3000
0002
0003
0020
0030
0200
0300
2000
3000
,
0001
1000
0010
1000
0001
1000
0100
1000
0001
1000
0010
1000
0001
1000
0100
0010
,
0001
1000
0100
1000
0001
1000
0010
1000
0001
1000
0100
1000
0001
1000
0010
0100
,
0001
1000
0100
0010
0100
1000
0001
1000
0010
0100
0001
0100
0010
1000
0100
0010
,
0001
0010
0100
1000
0001
1000
0001
0100
0010
1000
0001
1000
0010
0100
0001
1000
,
0001
0010
0100
1000
0010
0100
0001
0100
0010
1000
0001
1000
0100
0010
0001
1000
,
0001
0010
0001
1000
0010
0100
0010
1000
0100
0010
0100
1000
0010
0100
0001
1000
,
0100
0010
0100
1000
0010
0100
0001
0010
0100
0010
0001
1000
0010
0100
0001
1000
,
0100
0010
0100
1000
0010
0100
0001
0010
0100
0010
0001
1000
0010
0100
0010
0100
,
0001
1000
0100
1000
0001
1000
0010
1000
0001
1000
0100
1000
0001
0100
0010
1000
,
0100
1000
0001
1000
0100
1000
0010
1000
0100
1000
0001
1000
0100
0010
0001
1000
,
0001
1000
0010
0100
0010
1000
0001
1000
0100
0010
0001
1000
0100
1000
0010
0100
,
0001
1000
0100
0010
0100
1000
0001
1000
0010
1000
0001
1000
0010
0100
0010
1000
,
0001
0010
0001
1000
0010
0100
0010
1000
0001
0010
0001
1000
0010
0100
0001
1000
,
0001
0100
0001
1000
0100
0010
0100
1000
0001
0100
0001
1000
0100
0010
0001
1000
,
0010
0100
0001
1000
0100
0010
0001
0100
0010
0100
0001
1000
0100
0010
0001
1000
,
0002
0003
0200
0300
0020
0030
2000
3000
0002
0003
0020
0030
0200
0300
2000
3000
0002
0003
0200
0300
0020
0030
2000
3000
0002
0003
0020
0030
0200
0300
2000
3000
,
0001
1000
0010
1000
0001
1000
0100
1000
0001
1000
0010
1000
0001
1000
0100
0010
,
0001
1000
0100
1000
0001
1000
0010
1000
0001
1000
0100
1000
0001
1000
0010
0100
,
0001
1000
0100
0010
0100
1000
0001
1000
0010
0100
0001
0100
0010
1000
0100
0010
,
0001
0010
0100
1000
0001
1000
0001
0100
0010
1000
0001
1000
0010
0100
0001
1000
,
0001
0010
0100
1000
0010
0100
0001
0100
0010
1000
0001
1000
0100
0010
0001
1000
,
0001
0010
0001
1000
0010
0100
0010
1000
0100
0010
0100
1000
0010
0100
0001
1000
,
0100
0010
0100
1000
0010
0100
0001
0010
0100
0010
0001
1000
0010
0100
0001
1000
,
0100
0010
0100
1000
0010
0100
0001
0010
0100
0010
0001
1000
0010
0100
0010
0100
,
0001
0100
0010
1000
0100
0010
0001
1000
0001
0100
0010
1000
0100
0010
0001
1000
,
0001
0010
0100
1000
0010
0100
0001
1000
0001
0010
0100
1000
0010
0100
0010
1000
,
0100
0010
0001
0010
0100
1000
0010
0100
0010
1000
0001
0010
0100
1000
0001
1000
,
0001
0100
0010
1000
0100
0010
0001
1000
0010
0100
0010
1000
0100
0010
0001
1000
,
0002
0000
0000
0000
,
0000
0000
0000
0000
,
0000
0000
0000
0000
,
0000
0003
0000
0000
;
