#TITLE:Meeting With Knuckles;
#SUBTITLE:;
#ARTIST:Unknown artist;
#TITLETRANSLIT:;
#SUBTITLETRANSLIT:;
#ARTISTTRANSLIT:;
#CREDIT:Dancing Monkeys v1.04;
#BANNER:Meeting With Knuckles - BN.png;
#BACKGROUND:Meeting With Knuckles - BG.png;
#LYRICSPATH:;
#CDTITLE:;
#MUSIC:Meeting with Knuckles.mp3;
#OFFSET:-0.182;
#SAMPLESTART:3.180;
#SAMPLELENGTH:12.000;
#SELECTABLE:YES;
#BPMS:0.000=200.121;
#STOPS:;
#BGCHANGES:;
// cache tags:
#FIRSTBEAT:1.000;
#LASTBEAT:35.000;
#SONGFILENAME:Songs/toune/Meeting with Knuckles/Meeting with Knuckles.sm;
#HASMUSIC:1;
#HASBANNER:1;
#MUSICLENGTH:13.121;
// end cache tags

//---------------dance-single - Basic----------------
#NOTES:
     dance-single:
     Basic:
     Easy:
     5:
     0.283,0.346,0.076,0.000,0.000,25.000,1.000,0.000,0.000,0.000:
0000
0000
0000
0000
0000
0000
1000
0000
,
0000
0000
0001
0000
0100
0000
0010
0000
,
1000
0000
0000
0000
0100
0000
0010
0000
,
0000
0000
0000
0000
0001
0000
0000
0000
,
1000
0000
0000
0000
0010
0000
0000
0000
,
1000
0000
0100
0000
1000
0000
0100
0000
,
0001
0000
0100
0000
1010
0000
1000
0010
,
1000
0000
0001
0000
0100
0000
0010
0000
,
0001
0000
0010
0000
0000
0000
0000
0000
,;

//---------------dance-single - Standard----------------
#NOTES:
     dance-single:
     Standard:
     Medium:
     7:
     0.403,0.433,0.305,0.000,0.000,33.000,4.000,0.000,0.000,0.000:
0000
0000
0000
0000
0000
0000
0001
1000
,
0000
1000
0100
0000
0010
0000
0001
0000
,
0001
0000
0000
0000
0010
0100
0010
0000
,
0000
0000
0000
1000
0000
0000
0000
0000
,
0001
1000
0000
0000
0010
0000
0000
1000
,
1000
0000
1100
0000
0001
1000
0100
0000
,
1100
0000
1000
0000
0011
0000
0100
0000
,
0101
0000
1000
0010
0100
0000
0000
0010
,
1000
0000
0010
0000
1000
0000
0010
0000
,;

//---------------dance-single - Heavy----------------
#NOTES:
     dance-single:
     Heavy:
     Hard:
     8:
     0.512,0.460,0.305,0.000,0.000,43.000,4.000,0.000,0.000,0.000:
0000
0000
0001
0000
0000
0000
1000
0010
,
0001
0100
0001
0000
0100
0000
0001
0100
,
1000
0000
0010
1000
0001
0100
0010
1000
,
0000
0000
0000
0001
0000
0100
0000
0000
,
1000
0001
0100
0000
0001
0000
0001
0100
,
0001
0000
0110
0000
0100
1000
0100
0000
,
0011
0000
0100
0000
1010
0000
0010
0000
,
1001
0000
1000
0100
0010
0000
0000
0100
,
1000
0000
0001
0010
0100
1000
0000
0000
,
;
