#TITLE:Speedcore Paradise;
#SUBTITLE:;
#ARTIST:Imil;
#TITLETRANSLIT:;
#SUBTITLETRANSLIT:;
#ARTISTTRANSLIT:;
#CREDIT:;
#BANNER:speedcore paradise bn.png;
#BACKGROUND:speedcore paradise bg.png;
#LYRICSPATH:;
#CDTITLE:;
#MUSIC:Speedcore Paradise.ogg;
#OFFSET:0.009;
#SAMPLESTART:118.220;
#SAMPLELENGTH:12.000;
#SELECTABLE:YES;
#BPMS:0.000=175.000;
#STOPS:;
#BGCHANGES:;
// cache tags:
#FIRSTBEAT:15.500;
#LASTBEAT:385.500;
#SONGFILENAME:Songs/SPEEEDCOOOORE 3/Speedcore Paradise - [Aoreo]/Speedcore Paradise.SM;
#HASMUSIC:1;
#HASBANNER:1;
#MUSICLENGTH:135.085;
// end cache tags

//---------------dance-single - J. Nero----------------
#NOTES:
     dance-single:
     J. Nero:
     Challenge:
     13:
     1.000,1.000,0.437,0.955,1.000,863.000,59.000,129.000,2.000,0.000:
0000
0000
0000
0000
,
0000
0000
0000
0000
,
0000
0000
0000
0000
,
0000
0000
0000
0000
0000
0000
0000
0000
0000
0000
0000
0000
0000
0000
1000
0001
,
0100
0000
0100
0000
0001
0000
0010
0100
0000
0010
0100
0000
1000
0000
0001
0100
,
0010
0000
0000
0000
0000
0000
0010
0000
0000
0000
0000
0000
1000
0000
0000
0000
0000
0000
0100
0000
0000
0010
0000
0000
0000
0000
0000
0100
0000
0000
0010
0000
0000
0000
0000
0000
0001
0000
1000
0000
0001
0000
1000
0000
0010
0000
0100
0000
,
0001
0000
0100
0000
0001
0000
0010
0100
0000
0010
0100
0000
1000
0000
0001
0100
,
0040
0030
0000
0000
0400
0300
0000
0000
0004
0000
0003
0000
1200
0000
4300
3000
,
0001
0010
0001
1000
0100
0010
0100
1000
0001
1000
0010
0100
0001
0100
0010
1000
,
0001
1000
0100
0010
0100
1000
0001
1000
0010
0100
0001
1000
0001
0000
0400
0300
,
0010
0000
0000
1000
0000
0000
0001
0000
0000
0100
0000
0000
0001
0000
0000
1000
0000
0000
0100
0000
0000
0010
0000
0000
0001
0000
0000
1000
0000
0000
0010
0000
0000
0100
0000
0000
0001
0000
0100
0000
0001
0000
1000
0000
0100
0000
0010
0000
,
0001
0000
0000
1000
0000
0000
0100
0000
0000
1000
0000
0000
0001
0000
0000
0100
0000
0000
0010
0000
0000
0100
0000
0000
0001
0000
0000
1000
0000
0000
0100
0000
0000
1000
0000
0000
0001
0000
0100
0000
0001
0000
0100
0000
0001
0000
0100
0000
,
0001
1000
0100
0010
0100
1000
0001
0100
0010
0100
0001
1000
0100
0010
0001
0400
,
0310
1000
0001
0100
0001
1000
0100
0010
0100
1000
0001
0100
0010
0000
0010
0000
,
0100
0001
0100
0010
1000
0001
0010
0100
1000
0001
1000
0010
0100
0010
1000
0001
,
1100
0000
0040
0030
1100
0000
0004
0003
1100
0000
0040
0030
2000
0000
0000
3000
,
0004
0000
0000
0000
0013
0100
1000
0010
0100
0001
0100
0010
1000
0001
0010
0100
,
1000
0000
0000
0001
0000
0000
0100
0000
0000
0010
0000
0000
0100
0000
0000
0001
0000
0000
1000
0000
0000
0100
0000
0000
0010
0000
0000
0001
0000
0000
0100
0000
0000
0010
0000
0000
4000
0000
0000
3000
0000
0000
0001
0000
0100
0000
0001
0000
,
0100
0010
1000
0001
0010
0100
1000
0001
1000
0010
0100
0001
0010
0100
1000
0001
,
0100
0000
0000
0010
0000
0000
0100
0000
0000
0010
0000
0000
0100
0000
0000
0000
0000
0000
0001
1000
0001
1000
0001
1000
,
0001
0100
0010
0100
0001
0010
0100
1000
0001
0010
0001
0100
0010
1000
0001
1000
,
0100
0010
0001
0100
0010
1000
0001
1000
0100
0010
0001
0100
0010
1000
0001
0100
,
0001
1000
0001
1000
0000
0000
0001
0100
0001
0100
0000
0000
0040
0000
0000
0030
0000
0000
4000
0000
0000
3000
0000
0000
,
0202
0303
0202
0303
0202
0303
0000
0000
,
1002
1003
0020
0000
0130
0001
0010
0200
,
0000
0000
1300
0010
0200
0000
0000
0301
,
0101
0100
0020
0000
1030
0001
0010
0200
,
0000
0000
1300
0100
0020
0000
0000
0031
,
1001
1000
0020
0000
0130
0001
1000
0200
,
0000
0000
0310
0001
2000
0000
0000
3010
,
0110
0100
0001
1000
1100
0000
1001
0000
,
0000
0001
0101
0000
1000
0000
1000
0000
,
2001
3001
0200
0000
0310
1000
0001
0020
,
0000
0000
0130
1000
0002
0000
0000
0103
,
0010
1000
0200
0000
0310
0001
1000
0020
,
0000
0000
0130
0001
2000
0000
0000
3001
,
0010
0100
2000
0000
3001
0100
0001
0020
,
0000
0000
0130
1000
0002
0000
0000
0013
,
0100
0010
0200
0000
1300
0001
0100
0020
,
1000
1000
1000
1000
,
0130
0001
0010
0100
1000
0001
1000
0010
,
0100
0000
0001
0000
1000
0000
0100
0000
0010
0000
0100
0000
1000
0000
0001
0100
,
0010
0100
0010
1000
0001
0100
0010
1000
,
0100
0000
0000
0000
0010
0000
0000
0000
0100
0000
0000
0000
1000
0000
0000
0000
0004
0000
0000
0000
0000
0000
0000
0000
2003
3000
0000
0000
0000
0000
0000
0000
,
0001
0100
0001
1000
0100
0010
0001
1000
0010
0100
0010
1000
0001
1000
0100
0010
,
0100
1000
0001
1000
0010
0100
0010
1000
0001
0010
0100
1000
0001
0000
0400
0300
,
0001
1000
0100
1000
0001
0010
0100
1000
0001
1000
0010
0100
0010
1000
0001
0100
,
0002
0003
0002
0003
0002
0003
0000
0000
,
1000
0100
0010
0001
0100
0010
1000
0001
0100
0001
0010
0100
1000
0010
0100
0001
,
1000
0001
0010
0100
1000
0010
0100
0001
0010
0100
1000
0010
0100
0000
0001
0000
,
1000
0100
0010
0001
0100
0010
1000
0100
1000
0001
0010
0100
1000
0000
0004
0003
,
1000
0000
0000
0100
0000
0000
0010
0000
0000
0100
0000
0000
1000
0000
0000
0001
0000
0000
0100
0000
0000
0010
0000
0000
0100
0000
0000
0001
0000
0000
1000
0000
0000
0010
0000
0000
1000
0000
0001
0000
1000
0000
0001
0000
1000
0000
0001
0000
,
1000
0001
0010
0100
1000
0010
0100
0001
1000
0100
1000
0001
0010
0100
1000
0001
,
0100
0010
0100
0001
1000
0100
0010
0001
1000
0010
0100
0010
1000
0001
0010
0100
,
1000
0001
0100
0001
1000
0100
0010
0001
1000
0100
1000
0001
0100
0010
0100
0001
,
2000
3000
0000
0000
0000
0000
0000
0000
,
2002
3003
0001
0100
0010
0000
0110
0000
,
0000
0100
0100
0000
0101
0000
0001
1000
,
0100
0000
1000
0001
0101
0000
0100
0000
,
0000
0010
0010
0000
0110
0000
0000
0000
,
0202
0303
0000
2002
3003
0000
2200
3300
,
0000
0000
2002
3003
0000
0000
0022
0033
,
0022
0033
0000
0220
0330
0000
2200
3300
,
2000
3000
0000
0000
2002
3000
0003
0000
2000
3000
0000
0000
2000
3000
0000
0000
,
0001
0010
0001
1000
0100
0010
0100
1000
0001
1000
0010
0100
0001
1000
0001
0100
,
0010
0000
0000
0100
0000
0000
0001
0000
0000
1000
0000
0000
0100
0000
0000
0010
0000
0000
0001
0000
0000
1000
0000
0000
0100
0000
0000
1000
0000
0000
0001
0000
0000
0100
0000
0000
0010
0000
1000
0000
0010
0000
0100
0000
0001
0000
1000
0000
,
0001
0100
0001
1000
0100
0010
0001
0100
0010
0100
0001
1000
0001
0010
0100
1000
,
0001
0000
0000
1000
0000
0000
0010
0000
0000
0100
0000
0000
0010
0000
0000
1000
0000
0000
0001
0000
0000
1000
0000
0000
0100
0000
0000
0010
0000
0000
0001
0000
0000
0100
0000
0000
0001
0000
1000
0000
0001
0000
1000
0000
0001
0000
1000
0000
,
0100
0010
0001
1000
0010
0100
0001
0100
0010
1000
0001
0010
0100
0000
4000
3000
,
0001
0100
0001
1000
0100
0010
0001
0100
0010
0100
0001
1000
0001
0000
1000
0000
,
0010
0100
0010
1000
0100
0010
0001
1000
0001
0100
0010
1000
0001
0010
0100
1000
,
0001
0100
0001
0100
0001
0000
00M0
00M0
,
1000
0100
1000
0001
0010
0100
1000
0001
1000
0010
0100
0001
1000
0100
0010
0001
,
1000
0000
0000
0010
0000
0000
0100
0000
0000
0010
0000
0000
1000
0000
0000
0001
0000
0000
0010
0000
0000
0100
0000
0000
1000
0000
0000
0001
0000
0000
1000
0000
0000
0001
0000
0000
0400
0000
0000
0300
0000
0000
0010
0000
1000
0000
0010
0000
,
0100
0001
1000
0001
0010
0100
1000
0001
1000
0010
0100
0010
1000
0001
0100
0001
,
2000
3000
2000
3000
0004
0003
0004
0003
,
0100
0001
1000
0001
0010
0100
1000
0001
1000
0001
0010
0100
1000
0000
0004
0003
,
1000
0010
0100
0010
1000
0001
0010
0100
1000
0001
0100
0001
1000
0010
0100
0004
,
1003
0100
0010
0100
1000
0001
0010
0001
1000
0010
0100
0001
0100
0010
1000
0001
,
2000
0000
0000
0000
0000
0000
0000
3000
,
0002
0003
0020
0030
0022
0000
0033
0000
0220
0000
0330
0000
2200
0000
3300
0000
,
2002
0000
3003
0000
0202
0000
0303
0000
0220
0000
0330
0000
1020
0030
2000
3002
,
0203
0300
0202
0303
0022
0033
0220
0330
,
2200
3300
2002
3003
0220
0330
0000
0000
,
2002
3003
0202
0303
0220
0330
2020
3030
,
2002
0000
3003
0000
0022
0000
0033
0000
0220
0000
0330
0000
0200
0300
2000
3000
,
2002
3003
0202
0303
0220
0330
2020
3030
,
2002
0003
3000
0000
0002
0003
0000
0000
0002
0003
0000
0000
0002
0003
0000
0000
,
1000
0100
0020
0000
0031
0100
0010
2000
,
0100
0000
0000
0000
3100
0000
0010
0000
0002
0000
0000
0000
1003
0100
1000
0100
,
0010
0001
2000
0000
3010
0100
0001
0020
,
0100
0000
0000
0000
0000
0000
0130
0000
0000
1000
0000
0000
0004
0000
0000
0000
0000
0000
1003
0100
1000
0001
0010
0100
,
1000
0001
0200
0000
0301
0010
0100
2000
,
0001
0000
3001
0100
0020
0000
0100
0130
,
0001
0000
1000
0000
0001
0000
0010
0000
0100
0000
1000
0000
0001
0000
0400
0300
,
0001
0000
0000
1000
0000
0000
0100
0000
0000
1000
0000
0000
0001
0000
0000
0010
0000
0000
0100
0000
0000
1000
0000
0000
0001
0000
0100
0000
0001
0000
1000
0000
0010
0000
0100
0000
0004
0000
0000
0000
0000
0000
0000
0000
0003
0000
0000
0000
,
2000
0000
0000
3000
0000
0000
0000
0000
;
