#TITLE:TwitchPlaysPokemon The Song;
#SUBTITLE:;
#ARTIST:SHINDEHAI;
#TITLETRANSLIT:;
#SUBTITLETRANSLIT:;
#ARTISTTRANSLIT:;
#CREDIT:;
#BANNER:banner.png;
#BACKGROUND:bg.png;
#LYRICSPATH:;
#CDTITLE:;
#MUSIC:TwitchPlaysPokemonTheSong.ogg;
#OFFSET:-0.452;
#SAMPLESTART:52.426;
#SAMPLELENGTH:12.000;
#SELECTABLE:YES;
#BPMS:0.000=200.000,512.750=199.980;
#STOPS:;
#BGCHANGES:;
// cache tags:
#FIRSTBEAT:16.000;
#LASTBEAT:709.000;
#SONGFILENAME:Songs/Index Tournament 1/TwitchPlaysPokemon The Song (Okami)/TwitchPlaysPokemon The Song.sm;
#HASMUSIC:1;
#HASBANNER:1;
#MUSICLENGTH:213.524;
// end cache tags

//---------------dance-single - Okami 10*-2/10*-2/2-----------------
#NOTES:
     dance-single:
     Okami 10*-2/10*-2/2-:
     Challenge:
     14:
     1.000,1.000,0.543,0.108,1.000,1429.000,116.000,23.000,137.000,0.000:

0000
0000
0000
0000
,
0000
0000
0000
0000
,
0000
0000
0000
0000
,
0000
0000
0000
0000
,
M001
M001
M001
M001
,
0M10
0M10
0M10
0M10
,
01M0
01M0
01M0
01M0
,
100M
0000
100M
0000
100M
0000
100M
0010
,
0100
0010
0100
0010
0100
0000
0001
0000
0010
0100
0010
0100
0010
0000
0001
0000
,
0100
0010
0100
0010
0100
0000
0001
0000
1000
0000
0000
0000
0010
0000
0100
0000
,
0001
0100
0001
0100
0001
0000
0010
0000
0001
0010
0001
0010
0001
0000
1000
0000
,
0100
1000
0100
1000
0100
0000
1000
0000
0010
1000
0010
1000
0010
0000
0100
0000
,
0001
1000
0001
1000
0001
0000
1000
0000
0001
1000
0001
1000
0001
0000
1000
0000
,
0001
1000
0001
1000
0001
0000
0100
0000
0010
0000
0000
0000
1000
0000
0100
0000
,
0010
0001
0010
0001
0100
0001
0100
0001
1000
0010
1000
0010
1000
0100
1000
0100
,
1000
0000
0100
0000
0010
0000
0001
0000
0000
0000
0000
0000
,
0001
0001
0010
0010
,
0100
0100
1000
1000
,
0010
0010
0100
0100
,
0001
1000
0001
1000
1001
0000
0000
0000
,
0010
0000
0000
0000
0000
1000
0000
0100
,
M0MM
0100
0001
1000
0000
1000
0010
0100
,
0001
0000
0000
0000
0000
0010
0000
0001
,
0000
0010
0001
1000
0000
0010
0100
0000
,
0010
2000
0000
3000
,
0001
2000
0000
3000
,
0100
2000
0000
3000
,
1100
1001
0000
1010
0000
0011
0000
0101
,
0000
0000
0001
0100
0001
1000
0100
0020
,
0000
0030
0001
0100
0010
1000
0100
1000
,
0001
0010
0100
0010
0001
1000
0010
0100
,
0010
0100
M001
0010
010M
1000
0M10
1000
,
0100
1000
0001
0100
0010
0100
0001
1000
,
0100
0010
0100
1000
0010
0100
0001
0010
,
0100
1000
0001
1000
0010
1000
0100
0010
,
0001
0010
0100
1000
0001
0100
0010
1000
0001
1000
0010
0100
0001
0100
0010
1000
,
0001
0010
0100
1000
0100
0010
0001
0100
,
010M
1000
0100
0010
0001
0100
0010
1000
,
0010
M010
0001
0100
0010
1000
0100
0001
,
0100
1000
0010
0100
0001
0010
1000
0010
,
0001
0100
0001
0010
001M
1000
0100
M100
,
0001
1000
0001
0100
0020
0000
0000
0030
,
1000
0100
0010
0001
1000
0100
0010
0001
0100
0010
1000
0001
,
0100
0000
1010
0000
0000
1010
0000
0000
1001
0000
0000
0000
0101
0000
0000
0000
,
1000
0001
0010
0100
1000
0000
0001
0100
0010
1000
0001
0000
1000
0100
0010
0100
,
1000
0000
0001
0010
0100
0010
0001
0010
0100
1000
0100
0010
0001
0000
0000
0000
,
1000
0001
0010
0100
1000
0001
1000
0100
0010
0001
0010
0100
1000
0001
0100
0010
,
0100
0001
1000
0010
1000
0001
0100
0001
1000
0000
0000
0000
0001
0000
0000
0000
,
0100
0010
1000
0001
0010
0000
0001
0010
0100
1000
0100
0000
0010
0001
1000
0001
,
0100
0000
0010
1000
0001
1000
0010
1000
0001
0010
0100
1000
0001
0000
0000
0000
,
0010
0100
1000
0001
0010
0100
0010
0001
1000
0010
0100
0010
1000
0001
0100
0001
,
1000
0010
1000
0001
0010
0100
0010
0001
1000
0000
0000
0000
1100
0000
0000
0000
,
0001
0010
0100
0010
0001
0000
1000
0100
0010
0100
1000
0000
0010
0100
0001
0100
,
0010
0000
0100
0001
1000
0001
0010
0100
0010
0001
1000
0001
0100
0000
0000
0000
,
0010
1000
0001
0100
0000
0101
0000
1100
,
0000
1010
0011
0000
1001
0000
1001
0000
,
0001
0010
0001
1000
0001
0000
1000
0010
0100
0010
1000
0000
0010
0100
0001
1000
,
0010
0000
1000
0010
0100
0010
1000
0001
1000
0100
0010
0001
1000
0000
0000
0000
,
1001
0000
0000
1010
0000
0000
1001
0000
1100
0000
0000
0011
0000
0000
1100
0000
,
0101
0000
0000
1010
0000
0000
0101
0000
0022
0000
0000
0000
0000
0000
0033
0000
,
0010
001M
1000
0100
0010
0001
0010
0001
,
0100
010M
1000
0010
1000
0100
0010
0001
,
0010
001M
1000
0010
0100
0001
1000
0001
,
1000
0010
0100
0001
0010
0100
1000
0010
,
M100
0001
1000
0010
0100
0010
1000
0010
,
M001
0010
1000
0010
1000
0100
1000
0010
,
M001
0010
0100
0001
0010
0100
1000
0100
,
M001
0100
1000
0010
0100
0010
1000
0010
,
M001
0010
1000
0001
1000
0100
0010
0100
,
00M1
0100
0010
0100
1000
0001
0100
0010
,
0M01
0010
0100
0010
1000
0010
0100
0001
,
0100
0000
0000
0001
0000
0000
0100
0000
0000
0001
0000
0000
0100
0000
0000
0001
0000
0000
0100
0000
0000
0001
0000
0000
0100
0000
0000
0000
0000
0000
0000
0000
0001
0000
0000
0000
0000
0000
0000
0000
1000
0000
0000
0000
0000
0000
0000
0000
,
001M
0100
0001
1000
0010
0100
0001
0100
,
100M
0100
0001
0010
0100
0010
0001
0010
,
100M
0010
0100
1000
0010
0100
0001
0100
,
100M
0100
0001
1000
0010
1000
0001
0100
,
100M
0100
0010
1000
0001
0010
0100
0010
,
1M00
0010
0001
0100
0010
1000
0010
0100
,
10M0
0100
0010
1000
0001
0010
0001
1000
,
0001
0010
0001
1000
0100
1000
0001
0100
0010
1000
0001
0010
0001
1000
0010
0100
,
0001
1000
0001
0100
0010
1000
0010
0100
,
0010
1000
0100
0010
0001
1000
0010
1000
,
0001
0100
0001
0010
0100
1000
0001
1000
,
0100
1000
0010
0100
0001
0010
0100
1000
,
1100
2002
0000
0000
3003
2020
3030
0202
,
0000
0000
0000
0303
2002
0000
0000
3003
,
1000
0100
0010
0001
0100
0010
1000
0100
0010
0001
0100
0010
,
1000
0100
0010
0001
0100
0010
0110
0000
0000
1001
0000
0000
,
1000
0100
0010
0001
1000
0000
0001
0100
0010
1000
0001
0000
1000
0100
0010
0001
,
1000
0000
0001
0010
0100
1000
0100
0010
0100
1000
0001
0100
0010
0000
0000
0000
,
1000
0001
0010
0100
0010
0001
1000
0001
0100
0010
1000
0001
0100
0001
1000
0100
,
0010
0001
1000
0001
0010
0100
1000
0001
1000
0000
0000
0000
0110
0000
0000
0000
,
0001
1000
0010
0100
0001
0000
0010
0100
1000
0001
0100
0000
0010
1000
0100
0010
,
0001
0000
1000
0100
1000
0001
0100
0001
1000
0010
1000
0001
0010
0000
0000
0000
,
0001
0010
0001
1000
0010
0100
0001
0010
0001
1000
0001
0100
0010
1000
0100
0010
,
0001
0010
0100
1000
0001
0100
0010
1000
0010
0000
0000
0000
1001
0000
0000
0000
,
1000
0010
1000
0100
1000
0000
0001
0010
0001
0100
0001
0000
1000
0010
1000
0100
,
1000
0000
0001
0010
0100
0010
0001
0100
0010
1000
0100
0010
0001
0000
0000
0000
,
1000
0001
1000
1010
0000
0011
0000
0101
,
0000
1100
1001
0000
0011
0000
1100
0000
,
0001
1000
0001
0010
0001
0000
0100
0001
1000
0100
1000
0000
0010
1000
0001
0010
,
0001
0000
0010
0001
1000
0010
1000
0001
0100
0001
0010
0100
1000
0000
0000
0000
,
0011
0000
0000
1001
0000
0000
1100
0000
1001
0000
0000
0110
0000
0000
1001
0000
,
0011
0000
0000
1010
0000
0000
0011
0000
1100
0000
0000
0101
0000
0000
1100
0000
,
0440
0000
0000
0000
,
0000
0000
0000
0000
,
0330
0000
0000
0000
,
0000
0000
0000
0000
,
1001
0000
0000
1001
0000
0000
0000
1001
,
0000
0000
0000
0000
0000
0011
1100
0000
,
1010
0000
0000
0101
0000
0000
0000
1001
,
0000
0000
0000
0000
0000
0000
0000
0110
,
0000
0000
0000
0000
0000
4004
0000
0000
0000
0000
0000
0000
0000
0000
0000
0000
,
3003
0000
0000
0000
0000
0000
0000
0000
1100
0000
0011
0000
0000
0000
0000
0011
,
0000
4400
0000
0000
0000
0000
0000
0000
0000
0000
0000
0000
0000
0000
0000
0000
,
3300
0000
0000
0000
,
0000
1000
0100
0010
1000
0100
0010
0000
,
1000
0100
0010
1000
0100
0010
0001
0010
,
0100
0000
0000
0001
0000
0100
0000
0010
0000
0001
0000
0100
0000
0010
0000
0000
,
0000
0001
0000
0100
0000
0010
0000
0001
0000
0100
0000
0010
0000
0000
0000
0000
,
2MMM
0000
0MMM
0000
0MMM
3000
M2MM
0300
MM2M
0000
MM0M
0000
MM0M
0030
MMM2
0000
,
MMM0
0000
MMM0
0000
MMM0
0003
MM2M
0030
M2MM
0000
M0MM
0000
M0MM
0000
M0MM
0000
,
M0MM
M0MM
M0MM
M0MM
M3MM
0000
1000
0001
,
0010
0001
1000
0001
0010
0000
0001
0000
1000
0010
1000
0001
1000
0000
0010
0000
,
0100
0001
1000
0001
0100
0000
0001
0000
0010
0000
0000
0000
0100
0000
1000
0000
,
0010
1000
0010
1000
0010
0000
0100
0000
0001
0100
0001
0100
0001
0000
0010
0000
,
0001
0010
0001
0010
0001
0000
1000
0000
0100
1000
0100
1000
0100
0000
1000
0000
,
0010
0100
0010
0100
0010
0000
0100
0000
0001
0010
0100
0010
0001
0000
1000
0000
,
0010
0100
0001
0100
0010
0000
1000
0000
0001
0000
0000
0000
1000
0000
0010
0000
,
1000
0100
0010
0001
1000
0010
0100
0001
1000
0100
0010
0001
0100
0010
1000
0100
,
1000
0000
0001
0010
0100
0000
0010
0001
,
1000
0100
1000
0010
0100
0000
0001
0000
0010
0100
1000
0010
0100
0000
0001
0000
,
0010
0001
0100
0001
0010
0000
0100
0000
1000
0000
0000
0000
0010
0000
0100
0000
,
0010
0100
0010
1000
0010
0000
0100
0000
0001
0010
0001
0100
0001
0000
1000
0000
,
0100
0010
0100
1000
0100
0000
0010
0000
0100
1000
0010
1000
0100
0000
1000
0000
,
001M
0100
M001
0010
010M
0000
10M0
0000
010M
0010
M001
0100
001M
0000
1M00
0000
,
001M
0100
M001
0010
010M
0000
1M00
0000
M010
0000
0000
0000
10M0
0000
0M01
0000
,
1000
0100
0010
0001
0100
0010
0100
0001
1000
0100
0010
0001
1000
0100
1000
0010
,
0100
0000
0001
0000
1000
0000
0010
0000
0100
0000
0010
0000
,
1000
0000
0000
0000
0000
0000
0000
0000
0001
0000
0000
0000
0000
0000
0000
0000
0010
0000
0000
0000
0000
0000
0000
0000
0100
0000
0000
1000
0000
0000
0001
0000
0000
0010
0000
0000
0100
0000
0000
1000
0000
0000
0001
0000
0000
0010
0000
0000
,
0100
1000
0100
0010
0001
1000
0100
0010
0001
1000
0100
0010
0001
1000
0100
0010
,
0001
1000
0100
0010
0001
1000
0100
0010
0001
0000
0000
0000
0000
0000
0000
0000
,
1000
0000
0000
0100
0000
0000
1000
0000
1000
0000
0000
0000
0001
0000
0010
0000
,
0100
0000
0000
0010
0000
0000
0001
0000
0001
0000
0000
0000
1000
0000
0000
0000
,
0010
0000
0000
0100
0000
0000
0001
0000
0001
0000
0000
0000
1000
0000
0010
0000
,
0100
0000
0000
0001
0000
0000
1000
0000
1000
0000
0000
0000
0001
0000
1000
0000
,
0001
1001
0000
1001
,
0000
0110
0000
0110
,
0011
0000
0000
1100
0000
0000
0011
0000
1010
0000
0000
0101
0000
0000
1010
0000
,
1100
0000
0000
0011
0000
0000
1100
0000
0101
0000
0000
0000
1100
0000
0000
0000
,
0001
0010
0001
0010
0001
0000
1000
0100
1000
0100
1000
0000
0010
0100
0010
0100
,
0010
0000
1000
0010
1000
0010
1000
0100
0010
0100
0010
0001
1000
0000
0000
0000
,
0001
0010
0000
0100
0000
1000
0100
1000
,
0000
1100
1100
0000
0011
0000
0011
0000
,
0001
0010
0001
0100
0001
0000
0100
0010
1000
0100
0010
0000
0100
0010
0001
0100
,
0010
0000
1000
0100
0010
0001
0100
0010
1000
0001
0010
0100
1000
0000
0000
0000
,
0001
0010
0001
1000
0010
0100
0001
0100
0010
0100
0001
1000
0100
0010
0001
0100
,
0010
0100
0001
0010
0100
1000
0100
0010
0100
0000
0000
0000
1000
0000
0000
0000
,
0010
0100
0001
1000
0100
0000
0010
0100
1000
0001
0100
0000
0001
1000
0100
0010
,
0100
0000
1000
0100
0010
0001
0100
0001
1000
0010
0100
0001
1000
0000
0000
0000
,
0001
0100
0010
1000
0100
0010
0100
1000
0010
0100
0001
0010
0001
0100
0010
0100
,
0001
1000
0010
0100
0001
0010
0100
1000
0001
0000
0000
0000
1000
0000
0000
0000
,
0010
0100
0010
0100
0010
0000
1000
0001
1000
0001
1000
0000
0100
0010
0100
0010
,
0100
0000
1000
0100
0010
0001
0100
0010
1000
0010
0100
0001
0100
0000
0000
0000
,
1010
0000
0000
1010
0000
0000
1010
0000
0101
0000
0000
0101
0000
0000
0101
0000
,
0011
0000
0000
0011
0000
0000
0011
0000
1100
0000
0000
1100
0000
0000
1100
0000
,
0011
0000
0000
1100
0000
0000
1010
0000
0101
0000
0000
0011
0000
0000
1100
0000
,
1001
0000
0000
0110
0000
0000
1001
0000
0101
0000
0000
0011
0000
0000
1010
0000
,
1001
0000
0000
1100
0000
0000
0100
0000
1000
0000
0100
0000
1000
0000
0010
0000
,
0100
0001
0010
0001
0100
0010
1000
0100
,
0010
0001
1000
0010
1000
0010
1000
0100
1000
0100
0010
0001
0010
0100
0010
0001
,
1000
0100
1000
0001
0010
0001
0100
0010
1000
0001
0010
0001
0100
0010
0100
0001
,
1000
0100
0010
0001
1000
0001
0100
0010
1000
0001
1000
0010
1000
0100
0010
0001
,
0100
0010
0100
0001
1000
0100
0010
0100
1000
0001
0100
0010
1000
0001
0010
0100
,
1000
0000
0000
000M
0000
0000
00M0
0000
0000
0M00
0000
0000
M000
0000
0000
0000
0000
0000
000M
0000
0000
0000
0000
0000
0000
0000
0000
0000
0000
0000
M00M
0000
0M00
0000
00M0
0000
M000
0000
0000
0000
0000
0000
0000
0000
0000
0000
0000
0000
,
MMMM
0000
0000
0000
0000
0000
0000
0000
0000
0000
0000
0000
0000
2MM2
0000
0000
,
0000
0000
0000
0000
,
0000
3003
0000
0000
;
