#TITLE:Vertex Beta;
#SUBTITLE:8-Arrowed;
#ARTIST:Silvia;
#TITLETRANSLIT:;
#SUBTITLETRANSLIT:;
#ARTISTTRANSLIT:;
#CREDIT:;
#BANNER:Vertex Beta-bn.png;
#BACKGROUND:Vertex Beta-bg.png;
#LYRICSPATH:;
#CDTITLE:!IzzyTitle.png;
#MUSIC:vertexbeta.mp3;
#OFFSET:-0.220;
#SAMPLESTART:98.536;
#SAMPLELENGTH:12.000;
#SELECTABLE:YES;
#BPMS:0.000=200.100;
#STOPS:;
#BGCHANGES:;
// cache tags:
#FIRSTBEAT:4.000;
#LASTBEAT:600.000;
#SONGFILENAME:Songs/Izzy's 8-Arrowed Pack Volume 1/Vertex Beta/vertexbeta.sm;
#HASMUSIC:1;
#HASBANNER:1;
#MUSICLENGTH:184.404;
// end cache tags

//---------------dance-double - Vertex Beta----------------
#NOTES:
     dance-double:
     Vertex Beta:
     Hard:
     15:
     1.000,1.000,1.000,0.862,1.000,1619.000,1576.000,159.000,0.000,47.000:
00000000
00000000
00000000
00000000
,
22220002
00000000
00000000
00000000
00000000
00000000
00000000
00000000
00000000
00000000
00000000
00000000
00000000
00000000
00000000
00000003
,
00000020
00000000
00000000
00000000
00000000
00000000
00000000
00000030
00000200
00000000
00000000
00000000
00000000
00000000
00000000
33330300
,
22220020
00000000
00000000
00000000
00000000
00000000
00000000
00000000
00000000
00000000
00000000
00000000
00000000
00000000
00000000
00000030
,
00000020
00000000
00000000
00000000
00000000
00000000
00000000
33330030
22220200
00000000
00000000
00000000
00000000
00000000
00000000
33330300
,
22220020
00000000
00000000
00000000
00000000
00000000
00000000
00000000
00000000
00000000
00000000
00000000
00000000
00000000
00000000
00000030
,
00000020
00000000
00000000
00000000
00000000
00000000
00000000
00000030
00000002
00000000
00000000
00000000
00000000
00000000
00000000
33330003
,
22220002
00000000
00000000
00000000
00000000
00000000
00000000
00000000
00000000
00000000
00000000
00000003
00000020
00000030
00002000
00003000
,
00000020
00000000
00000000
00000000
00000000
00000000
00000000
00000000
00000000
00000000
00000000
00000000
00000000
00000000
00000000
33330030
,
22222000
00000000
00000000
00000000
00000000
00000000
00000000
00000000
00000000
00000000
00000000
00000000
00000000
00000000
00000000
00003000
,
00000200
00000000
00000000
00000000
00000000
00000000
00000000
33330300
22220020
00000000
00000000
00000000
00000000
00000000
00000000
33330030
,
22220002
00000000
00000000
00000000
00000000
00000000
00000000
00000000
00000000
00000000
00000000
00000000
00000000
00000000
00000000
00000003
,
00000002
00000000
00000000
00000000
00000000
00000000
00000000
33330003
22220020
00000000
00000000
00000000
00000000
00000000
00000000
33330030
,
22220200
00000000
00000000
00000000
00000000
00000000
00000000
00000000
00000000
00000000
00000000
00000000
00000000
00000000
00000000
00000300
,
00000200
00000000
00000000
00000000
00000000
00000000
00000000
00000300
00000002
00000000
00000000
00000000
00000000
00000000
00000000
33330003
,
22220020
00000000
00000000
00000000
00000000
00000000
00000000
00000000
00000000
00000000
00000000
00000000
00000000
00000000
00000000
00000030
,
00000002
00000000
00000000
00000000
00000000
00000000
00000000
00000000
00000000
00000000
00000000
00000000
00000000
00000000
00000000
33330003
,
00011000
00100100
00011000
01000010
00100100
01000010
00011000
10000001
00011000
10000001
00100100
01000010
00100100
10000001
01000010
10000001
,
00011000
00100100
00011000
10000001
00100100
10000001
00011000
01000010
00011000
01000010
00100100
10000001
00100100
01000010
00011000
00100100
,
00011000
10000001
01000010
00100100
00011000
01000010
00100100
10000001
01000010
00100100
00011000
10000001
00011000
10000001
01000010
10000001
,
00100100
01000010
00100100
01000010
00011000
00100100
00011000
01000010
00100100
10000001
01000010
10000001
00011000
00100100
00011000
01000010
,
00011000
00100100
01000010
10000001
00011000
01000010
00011000
10000001
00100100
10000001
00011000
00100100
00011000
01000010
00100100
10000001
,
01000010
10000001
00011000
10000001
00011000
10000001
00011000
10000001
01000010
00100100
00011000
01000010
00100100
01000010
00100100
10000001
,
01000010
00100100
00011000
00100100
00011000
01000010
00100100
10000001
01000010
10000001
00100100
10000001
00011000
01000010
00100100
10000001
,
01000010
00100100
00011000
01000010
00100100
10000001
01000010
00100100
00011000
01000010
00011000
00100100
00011000
10000001
00011000
01000010
,
00011000
00100100
00011000
00100100
01000010
10000001
01000010
10000001
00011000
01000010
00100100
10000001
00100100
10000001
01000010
00100100
,
01000010
00100100
01000010
10000001
00011000
01000010
00011000
00100100
00011000
01000010
00100100
10000001
00100100
01000010
00100100
10000001
,
01000010
00100100
00011000
00100100
00011000
00100100
01000010
10000001
01000010
10000001
01000010
00100100
00011000
01000010
00100100
10000001
,
01000010
00100100
01000010
10000001
00011000
10000001
00011000
01000010
00100100
10000001
01000010
00100100
00011000
00100100
00011000
00100100
,
01000010
10000001
01000010
10000001
00011000
01000010
00011000
00100100
00011000
01000010
00100100
10000001
01000010
00100100
00011000
00100100
,
00011000
01000010
00100100
10000001
00100100
10000001
01000010
00100100
00011000
00100100
00011000
01000010
00100100
10000001
01000010
00100100
,
00011000
00100100
00011000
10000001
00100100
10000001
00011000
01000010
00011000
10000001
01000010
10000001
00100100
01000010
00011000
00100100
,
00011000
01000010
00100100
10000001
01000010
10000001
00011000
00100100
00011000
10000001
00011000
10000001
00011000
10000001
00011000
10000001
,
00100100
10000001
00011000
00100100
00011000
01000010
00100100
10000001
00100100
01000010
00011000
00100100
00011000
01000010
00100100
10000001
,
01000010
10000001
00011000
01000010
00100100
10000001
01000010
00100100
00011000
01000010
00100100
10000001
01000010
00100100
00011000
10000001
,
00011000
00100100
00011000
10000001
00100100
01000010
00011000
00100100
00011000
10000001
00100100
01000010
00011000
00100100
00011000
01000010
,
00100100
10000001
01000010
10000001
00100100
01000010
00011000
00100100
00011000
10000001
00100100
01000010
00011000
00100100
00011000
10000001
,
00100100
01000010
00011000
10000001
00100100
01000010
00100100
10000001
01000010
10000001
00011000
00100100
00011000
10000001
00100100
01000010
,
00011000
10000001
00100100
01000010
00011000
10000001
01000010
10000001
00100100
10000001
01000010
00100100
00011000
10000001
00011000
01000010
,
00100100
10000001
01000010
00100100
00011000
01000010
00100100
10000001
00011000
00100100
00011000
01000010
00011000
00100100
00011000
01000010
,
00011000
10000001
01000010
00100100
00011000
00100100
01000010
10000001
00011000
00100100
00011000
10000001
01000010
10000001
00011000
00100100
,
00011000
00100100
00011000
01000010
00100100
01000010
00011000
10000001
00011000
10000001
00100100
01000010
00100100
10000001
01000010
10000001
,
00011000
00100100
00011000
10000001
00100100
10000001
00011000
01000010
00011000
01000010
00100100
10000001
00100100
01000010
00011000
00100100
,
00011000
10000001
01000010
00100100
00011000
01000010
00100100
10000001
01000010
00100100
00011000
10000001
00011000
10000001
01000010
10000001
,
00100100
01000010
00100100
01000010
00011000
00100100
00011000
01000010
00100100
10000001
01000010
10000001
00011000
00100100
00011000
01000010
,
00011000
00100100
01000010
10000001
00011000
01000010
00011000
10000001
00100100
10000001
00011000
00100100
00011000
01000010
00100100
10000001
,
01000010
10000001
00011000
10000001
00011000
10000001
00011000
10000001
01000010
00100100
00011000
01000010
00100100
01000010
00100100
10000001
,
01000010
00100100
00011000
00100100
00011000
01000010
00100100
10000001
01000010
10000001
00100100
10000001
00011000
01000010
00100100
10000001
,
01000010
00100100
00011000
01000010
00100100
10000001
01000010
00100100
00011000
01000010
00011000
00100100
00011000
10000001
00011000
01000010
,
00011000
00100100
00011000
00100100
01000010
10000001
01000010
10000001
00011000
01000010
00100100
10000001
00100100
10000001
01000010
00100100
,
01000010
00100100
01000010
10000001
00011000
01000010
00011000
00100100
00011000
01000010
00100100
10000001
00100100
01000010
00100100
10000001
,
01000010
00100100
00011000
00100100
00011000
00100100
01000010
10000001
01000010
10000001
01000010
00100100
00011000
01000010
00100100
10000001
,
01000010
00100100
01000010
10000001
00011000
10000001
00011000
01000010
00100100
10000001
01000010
00100100
00011000
00100100
00011000
00100100
,
01000010
10000001
01000010
10000001
00011000
01000010
00011000
00100100
00011000
01000010
00100100
10000001
01000010
00100100
00011000
00100100
,
00011000
01000010
00100100
10000001
00100100
10000001
01000010
00100100
00011000
00100100
00011000
01000010
00100100
10000001
01000010
00100100
,
00011000
00100100
00011000
10000001
00100100
10000001
00011000
01000010
00011000
10000001
01000010
10000001
00100100
01000010
00011000
00100100
,
00011000
01000010
00100100
10000001
01000010
10000001
00011000
00100100
00011000
10000001
00011000
10000001
00011000
10000001
00011000
10000001
,
00100100
10000001
00011000
00100100
00011000
01000010
00100100
10000001
00100100
01000010
00011000
00100100
00011000
01000010
00100100
10000001
,
01000010
10000001
00011000
01000010
00100100
10000001
01000010
00100100
00011000
01000010
00100100
10000001
01000010
00100100
00011000
10000001
,
00011000
00100100
00011000
10000001
00100100
01000010
00011000
00100100
00011000
10000001
00100100
01000010
00011000
00100100
00011000
01000010
,
00100100
10000001
01000010
10000001
00100100
01000010
00011000
00100100
00011000
10000001
00100100
01000010
00011000
00100100
00011000
10000001
,
00100100
01000010
00011000
10000001
00100100
01000010
00100100
10000001
01000010
10000001
00011000
00100100
00011000
10000001
00100100
01000010
,
00011000
10000001
00100100
01000010
00011000
10000001
01000010
10000001
00100100
10000001
01000010
00100100
00011000
10000001
00011000
01000010
,
00100100
10000001
01000010
00100100
00011000
01000010
00100100
10000001
00011000
00100100
00011000
01000010
00011000
00100100
00011000
01000010
,
00011000
10000001
01000010
00100100
00011000
00100100
01000010
10000001
00011000
00100100
00011000
10000001
01000010
10000001
00011000
00100100
,
00002000
00000000
00000000
00000000
00000000
00003000
00000200
00000000
00000000
00000000
00000000
00000300
00000020
00000000
00000000
00000030
,
00000002
00000000
00000000
00000000
00000000
00000003
00000200
00000000
00000000
00000000
00000000
00000300
00000020
00000000
00000000
00000030
,
00000002
00000000
00000000
00000000
00000000
00000003
00000020
00000000
00000000
00000000
00000000
00000030
00000200
00000000
00000000
00000300
,
00002000
00000000
00000000
00000000
00000000
00000000
00000000
00000000
00000000
00000000
00000000
00000000
00000000
00000000
00000000
00003000
,
00000000
00000000
00000000
00000000
,
00000000
00000000
00000000
00000000
,
00000000
00000000
00000000
00000000
,
00000000
00000000
00000000
00000000
,
20000000
00000000
00000000
00000000
00000000
30000000
02000000
00000000
00000000
00000000
00000000
03000000
00200000
00000000
00000000
00300000
,
00020000
00000000
00000000
00000000
00000000
00030000
02000000
00000000
00000000
00000000
00000000
03000000
00020000
00000000
00000000
00030000
,
00020000
00000000
00000000
00000000
00000000
00030000
00200000
00000000
00000000
00000000
00000000
00300000
02000000
00000000
00000000
03000000
,
20000000
00000000
00000000
00000000
00000000
00000000
00000000
00000000
00000000
00000000
00000000
00000000
00000000
00000000
00000000
30000000
,
00000000
00000000
00000000
00000000
,
00000000
00000000
00000000
00000000
,
00000000
00000000
00000000
00000000
,
00000000
00000000
00000000
00000000
,
00100100
00011000
00100100
00011000
00100100
00011000
00100100
00011000
00100100
00011000
00100100
00011000
00100100
00011000
00100100
00011000
,
10000001
00011000
10000001
00100100
01000010
00100100
10000001
00011000
10000001
00011000
01000010
00100100
01000010
00011000
00100100
00011000
,
10000001
01000010
10000001
00011000
01000010
00011000
10000001
00100100
10000001
00100100
01000010
00011000
01000010
00100100
10000001
01000010
,
10000001
00011000
00100100
01000010
10000001
00100100
01000010
00011000
00100100
01000010
10000001
00011000
10000001
00011000
00100100
00011000
,
01000010
00100100
01000010
00100100
10000001
01000010
10000001
00100100
01000010
00011000
00100100
00011000
10000001
01000010
10000001
00100100
,
10000001
01000010
00100100
00011000
10000001
00100100
10000001
00011000
01000010
00011000
10000001
01000010
10000001
00100100
01000010
00011000
,
00100100
00011000
10000001
00011000
10000001
00011000
10000001
00011000
00100100
01000010
10000001
00100100
01000010
00100100
01000010
00011000
,
00100100
01000010
10000001
01000010
10000001
00100100
01000010
00011000
00100100
00011000
01000010
00011000
10000001
00100100
01000010
00011000
,
00100100
01000010
10000001
00100100
01000010
00011000
00100100
01000010
10000001
00100100
10000001
01000010
10000001
00011000
10000001
00100100
,
10000001
01000010
10000001
01000010
00100100
00011000
00100100
00011000
10000001
00100100
01000010
00011000
01000010
00011000
00100100
01000010
,
00100100
01000010
00100100
00011000
10000001
00100100
10000001
01000010
10000001
00100100
01000010
00011000
01000010
00100100
01000010
00011000
,
00100100
01000010
10000001
01000010
10000001
01000010
00100100
00011000
00100100
00011000
00100100
01000010
10000001
00100100
01000010
00011000
,
00100100
01000010
00100100
00011000
10000001
00011000
10000001
00100100
01000010
00011000
00100100
01000010
10000001
01000010
10000001
01000010
,
00100100
00011000
00100100
00011000
10000001
00100100
10000001
01000010
10000001
00100100
01000010
00011000
00100100
01000010
10000001
01000010
,
10000001
00100100
01000010
00011000
01000010
00011000
00100100
01000010
10000001
01000010
10000001
00100100
01000010
00011000
00100100
01000010
,
10000001
01000010
10000001
00011000
01000010
00011000
10000001
00100100
10000001
00011000
00100100
00011000
01000010
00100100
10000001
01000010
,
10000001
00100100
01000010
00011000
00100100
00011000
10000001
01000010
10000001
00011000
10000001
00011000
10000001
00011000
10000001
00011000
,
01000010
00011000
10000001
01000010
10000001
00100100
01000010
00011000
01000010
00100100
10000001
01000010
10000001
00100100
01000010
00011000
,
00100100
00011000
10000001
00100100
01000010
00011000
00100100
01000010
10000001
00100100
01000010
00011000
00100100
01000010
10000001
00011000
,
10000001
01000010
10000001
00011000
01000010
00100100
10000001
01000010
10000001
00011000
01000010
00100100
10000001
01000010
10000001
00100100
,
01000010
00011000
00100100
00011000
01000010
00100100
10000001
01000010
10000001
00011000
01000010
00100100
10000001
01000010
10000001
00011000
,
01000010
00100100
10000001
00011000
01000010
00100100
01000010
00011000
00100100
00011000
10000001
01000010
10000001
00011000
01000010
00100100
,
10000001
00011000
01000010
00100100
10000001
00011000
00100100
00011000
01000010
00011000
00100100
01000010
10000001
00011000
10000001
00100100
,
01000010
00011000
00100100
01000010
10000001
00100100
01000010
00011000
10000001
01000010
10000001
00100100
10000001
01000010
10000001
00100100
,
10000001
00011000
00100100
01000010
10000001
01000010
00100100
00011000
10000001
01000010
10000001
00011000
00100100
00011000
10000001
01000010
,
10000001
01000010
10000001
00100100
01000010
00100100
10000001
00011000
10000001
00011000
01000010
00100100
01000010
00011000
00100100
00011000
,
10000001
01000010
10000001
00011000
01000010
00011000
10000001
00100100
10000001
00100100
01000010
00011000
01000010
00100100
10000001
01000010
,
10000001
00011000
00100100
01000010
10000001
00100100
01000010
00011000
00100100
01000010
10000001
00011000
10000001
00011000
00100100
00011000
,
01000010
00100100
01000010
00100100
10000001
01000010
10000001
00100100
01000010
00011000
00100100
00011000
10000001
01000010
10000001
00100100
,
10000001
01000010
00100100
00011000
10000001
00100100
10000001
00011000
01000010
00011000
10000001
01000010
10000001
00100100
01000010
00011000
,
00100100
00011000
10000001
00011000
10000001
00011000
10000001
00011000
00100100
01000010
10000001
00100100
01000010
00100100
01000010
00011000
,
00100100
01000010
10000001
01000010
10000001
00100100
01000010
00011000
00100100
00011000
01000010
00011000
10000001
00100100
01000010
00011000
,
00100100
01000010
10000001
00100100
01000010
00011000
00100100
01000010
10000001
00100100
10000001
01000010
10000001
00011000
10000001
00100100
,
10000001
01000010
10000001
01000010
00100100
00011000
00100100
00011000
10000001
00100100
01000010
00011000
01000010
00011000
00100100
01000010
,
00100100
01000010
00100100
00011000
10000001
00100100
10000001
01000010
10000001
00100100
01000010
00011000
01000010
00100100
01000010
00011000
,
00100100
01000010
10000001
01000010
10000001
01000010
00100100
00011000
00100100
00011000
00100100
01000010
10000001
00100100
01000010
00011000
,
00100100
01000010
00100100
00011000
10000001
00011000
10000001
00100100
01000010
00011000
00100100
01000010
10000001
01000010
10000001
01000010
,
00100100
00011000
00100100
00011000
10000001
00100100
10000001
01000010
10000001
00100100
01000010
00011000
00100100
01000010
10000001
01000010
,
10000001
00100100
01000010
00011000
01000010
00011000
00100100
01000010
10000001
01000010
10000001
00100100
01000010
00011000
00100100
01000010
,
10000001
01000010
10000001
00011000
01000010
00011000
10000001
00100100
10000001
00011000
00100100
00011000
01000010
00100100
10000001
01000010
,
10000001
00100100
01000010
00011000
00100100
00011000
10000001
01000010
10000001
00011000
10000001
00011000
10000001
00011000
10000001
00011000
,
01000010
00011000
10000001
01000010
10000001
00100100
01000010
00011000
01000010
00100100
10000001
01000010
10000001
00100100
01000010
00011000
,
00100100
00011000
10000001
00100100
01000010
00011000
00100100
01000010
10000001
00100100
01000010
00011000
00100100
01000010
10000001
00011000
,
10000001
01000010
10000001
00011000
01000010
00100100
10000001
01000010
10000001
00011000
01000010
00100100
10000001
01000010
10000001
00100100
,
01000010
00011000
00100100
00011000
01000010
00100100
10000001
01000010
10000001
00011000
01000010
00100100
10000001
01000010
10000001
00011000
,
01000010
00100100
10000001
00011000
01000010
00100100
01000010
00011000
00100100
00011000
10000001
01000010
10000001
00011000
01000010
00100100
,
10000001
00011000
01000010
00100100
10000001
00011000
00100100
00011000
01000010
00011000
00100100
01000010
10000001
00011000
10000001
00100100
,
01000010
00011000
00100100
01000010
10000001
00100100
01000010
00011000
10000001
01000010
10000001
00100100
10000001
01000010
10000001
00100100
,
10000001
00011000
00100100
01000010
10000001
01000010
00100100
00011000
10000001
01000010
10000001
00011000
00100100
00011000
10000001
01000010
,
22220002
00000000
00000000
00000000
00000000
00000000
00000000
00000000
00000000
00000000
00000000
00000000
00000000
00000000
00000000
00000003
,
00000020
00000000
00000000
00000000
00000000
00000000
00000000
00000030
00000200
00000000
00000000
00000000
00000000
00000000
00000000
33330300
,
22220020
00000000
00000000
00000000
00000000
00000000
00000000
00000000
00000000
00000000
00000000
00000000
00000000
00000000
00000000
00000030
,
00000020
00000000
00000000
00000000
00000000
00000000
00000000
33330030
22220200
00000000
00000000
00000000
00000000
00000000
00000000
33330300
,
22220020
00000000
00000000
00000000
00000000
00000000
00000000
00000000
00000000
00000000
00000000
00000000
00000000
00000000
00000000
00000030
,
00000020
00000000
00000000
00000000
00000000
00000000
00000000
00000030
00000002
00000000
00000000
00000000
00000000
00000000
00000000
33330003
,
22220002
00000000
00000000
00000000
00000000
00000000
00000000
00000000
00000000
00000000
00000000
00000000
00000000
00000000
00000000
00000003
,
00000020
00000000
00000000
00000000
00000000
00000000
00000000
00000000
00000000
00000000
00000000
00000000
00000000
00000000
00000000
33330030
,
22222000
00000000
00000000
00000000
00000000
00000000
00000000
00000000
00000000
00000000
00000000
00000000
00000000
00000000
00000000
00003000
,
00000002
00000000
00000000
00000000
00000000
00000000
00000000
33330003
22220020
00000000
00000000
00000000
00000000
00000000
00000000
33330030
,
22220200
00000000
00000000
00000000
00000000
00000000
00000000
00000000
00000000
00000000
00000000
00000000
00000000
00000000
00000000
00000300
,
00000002
00000000
00000000
00000000
00000000
00000000
00000000
33330003
22220020
00000000
00000000
00000000
00000000
00000000
00000000
33330030
,
22220200
00000000
00000000
00000000
00000000
00000000
00000000
00000000
00000000
00000000
00000000
00000000
00000000
00000000
00000000
00000300
,
00000200
00000000
00000000
00000000
00000000
00000000
00000000
00000300
00002000
00000000
00000000
00000000
00000000
00000000
00000000
33333000
,
22222000
00000000
00000000
00000000
00000000
00000000
00000000
00000000
00000000
00000000
00000000
00000000
00000000
00000000
00000000
00003000
,
00002200
00000000
00000000
00000000
00000000
00000000
00000000
00000000
00000000
00000000
00000000
00000000
00000000
00000000
00000000
33333300
,
22220000
00000000
00000000
00000000
,
00000000
00000000
00000000
00000000
,
00000000
00000000
00000000
00000000
,
00000000
00000000
00000000
00000000
,
33330000
00000000
00000000
00000000
;

//---------------dance-double - Vertex Beta----------------
#NOTES:
     dance-double:
     Vertex Beta:
     Medium:
     13:
     1.000,1.000,1.000,0.613,0.000,843.000,800.000,113.000,0.000,46.000:
00000000
00000000
00000000
00000000
,
20020002
00000000
00000000
00000000
00000000
00000000
00000000
00000000
00000000
00000000
00000000
00000000
00000000
00000000
00000000
00000003
,
00000020
00000000
00000000
00000000
00000000
00000000
00000000
00000030
00000200
00000000
00000000
00000000
00000000
00000000
00000000
30030300
,
20020020
00000000
00000000
00000000
00000000
00000000
00000000
00000000
00000000
00000000
00000000
00000000
00000000
00000000
00000000
00000030
,
00000020
00000000
00000000
00000000
00000000
00000000
00000000
30030030
20020200
00000000
00000000
00000000
00000000
00000000
00000000
30030300
,
20020020
00000000
00000000
00000000
00000000
00000000
00000000
00000000
00000000
00000000
00000000
00000000
00000000
00000000
00000000
00000030
,
00000020
00000000
00000000
00000000
00000000
00000000
00000000
00000030
00000002
00000000
00000000
00000000
00000000
00000000
00000000
30030003
,
20020002
00000000
00000000
00000000
00000000
00000000
00000000
00000000
00000000
00000000
00000000
00000003
00000020
00000030
00002000
00003000
,
00000020
00000000
00000000
00000000
00000000
00000000
00000000
00000000
00000000
00000000
00000000
00000000
00000000
00000000
00000000
30030030
,
20022000
00000000
00000000
00000000
00000000
00000000
00000000
00000000
00000000
00000000
00000000
00000000
00000000
00000000
00000000
00003000
,
00000200
00000000
00000000
00000000
00000000
00000000
00000000
30030300
20020020
00000000
00000000
00000000
00000000
00000000
00000000
30030030
,
20020002
00000000
00000000
00000000
00000000
00000000
00000000
00000000
00000000
00000000
00000000
00000000
00000000
00000000
00000000
00000003
,
00000002
00000000
00000000
00000000
00000000
00000000
00000000
30030003
20020020
00000000
00000000
00000000
00000000
00000000
00000000
30030030
,
20020200
00000000
00000000
00000000
00000000
00000000
00000000
00000000
00000000
00000000
00000000
00000000
00000000
00000000
00000000
00000300
,
00000200
00000000
00000000
00000000
00000000
00000000
00000000
00000300
00000002
00000000
00000000
00000000
00000000
00000000
00000000
30030003
,
20020020
00000000
00000000
00000000
00000000
00000000
00000000
00000000
00000000
00000000
00000000
00000000
00000000
00000000
00000000
00000030
,
00000002
00000000
00000000
00000000
00000000
00000000
00000000
00000000
00000000
00000000
00000000
00000000
00000000
00000000
00000000
30030003
,
00010001
00010001
00100010
00010001
10001000
00100010
00100010
10001000
,
00010001
10001000
00100010
00010001
10001000
00100010
01000100
00010001
,
10001000
01000100
00010001
00100010
01000100
10001000
00010001
01000100
,
00100010
10001000
00010001
10001000
00100010
01000100
00100010
10001000
,
00100010
01000100
10001000
00010001
00100010
00010001
10001000
00100010
,
01000100
00010001
10001000
00010001
01000100
00010001
10001000
00100010
,
10001000
01000100
00010001
00100010
01000100
10001000
00010001
00100010
,
01000100
00010001
10001000
01000100
10001000
01000100
00100010
00010001
,
00100010
10001000
01000100
00100010
01000100
00010001
10001000
01000100
,
10001000
01000100
00010001
10001000
00010001
00100010
10001000
00100010
,
01000100
00010001
00010001
01000100
01000100
01000100
00010001
00100010
,
01000100
01000100
10001000
00010001
00100010
01000100
00010001
10001000
,
01000100
10001000
00010001
00010001
00010001
10001000
01000100
00010001
,
10001000
01000100
00100010
10001000
00010001
10001000
00100010
01000100
,
10001000
00010001
00100010
00010001
00010001
01000100
10001000
00010001
,
00010001
00100010
01000100
10001000
00010001
00100010
01000100
10001000
,
00100010
00010001
00010001
00100010
00100010
00010001
00010001
00100010
,
01000100
00010001
00100010
01000100
00010001
00100010
01000100
00010001
,
10001000
00010001
00100010
00010001
10001000
01000100
10001000
01000100
,
00100010
01000100
00100010
00010001
10001000
00100010
00010001
10001000
,
00100010
00010001
00100010
01000100
00010001
10001000
00010001
00100010
,
00010001
00100010
00010001
01000100
00100010
01000100
00010001
10001000
,
00100010
01000100
00010001
00100010
00010001
10001000
00010001
10001000
,
00010001
01000100
00010001
01000100
00010001
10001000
01000100
00010001
,
10001000
00010001
00100010
00010001
00010001
00100010
10001000
01000100
,
00010001
00010001
00100010
00010001
00010001
00100010
10001000
00010001
,
00010001
01000100
00010001
00100010
01000100
10001000
00010001
01000100
,
00100010
00100010
00010001
10001000
00100010
01000100
00010001
10001000
,
00010001
01000100
10001000
00010001
00100010
00010001
10001000
00100010
,
01000100
00010001
10001000
00010001
01000100
00010001
00100010
10001000
,
01000100
00010001
00100010
00100010
01000100
00100010
10001000
00100010
,
01000100
00010001
00100010
01000100
00010001
10001000
00100010
01000100
,
00010001
10001000
01000100
00100010
10001000
00100010
00010001
01000100
,
10001000
01000100
00010001
01000100
00100010
10001000
01000100
00010001
,
01000100
00010001
10001000
01000100
00100010
01000100
00010001
00100010
,
01000100
01000100
00010001
00010001
10001000
01000100
00010001
00010001
,
01000100
01000100
10001000
00010001
00010001
00100010
01000100
00010001
,
10001000
00100010
01000100
00100010
10001000
00010001
00100010
01000100
,
00010001
10001000
00100010
00010001
10001000
01000100
00100010
00010001
,
01000100
00100010
01000100
00010001
00010001
10001000
00010001
10001000
,
00100010
00010001
10001000
00100010
01000100
00010001
00100010
10001000
,
01000100
00010001
00100010
01000100
00010001
00100010
01000100
00010001
,
10001000
00010001
00100010
00010001
10001000
00100010
10001000
00010001
,
00100010
01000100
00100010
00010001
10001000
00100010
10001000
00010001
,
00100010
00010001
00100010
10001000
01000100
00010001
10001000
00100010
,
00010001
10001000
01000100
00100010
10001000
00010001
10001000
00010001
,
00100010
01000100
00010001
00100010
00010001
10001000
00010001
01000100
,
00010001
01000100
10001000
00100010
10001000
00010001
01000100
00010001
,
00002000
00000000
00000000
00000000
00000000
00003000
00000200
00000000
00000000
00000000
00000000
00000300
00000020
00000000
00000000
00000030
,
00000002
00000000
00000000
00000000
00000000
00000003
00000200
00000000
00000000
00000000
00000000
00000300
00000020
00000000
00000000
00000030
,
00000002
00000000
00000000
00000000
00000000
00000003
00000020
00000000
00000000
00000000
00000000
00000030
00000200
00000000
00000000
00000300
,
00002000
00000000
00000000
00000000
00000000
00000000
00000000
00000000
00000000
00000000
00000000
00000000
00000000
00000000
00000000
00003000
,
00000000
00000000
00000000
00000000
,
00000000
00000000
00000000
00000000
,
00000000
00000000
00000000
00000000
,
00000000
00000000
00000000
00000000
,
20000000
00000000
00000000
00000000
00000000
30000000
02000000
00000000
00000000
00000000
00000000
03000000
00200000
00000000
00000000
00300000
,
00020000
00000000
00000000
00000000
00000000
00030000
02000000
00000000
00000000
00000000
00000000
03000000
00020000
00000000
00000000
00030000
,
00020000
00000000
00000000
00000000
00000000
00030000
00200000
00000000
00000000
00000000
00000000
00300000
02000000
00000000
00000000
03000000
,
20000000
00000000
00000000
00000000
00000000
00000000
00000000
00000000
00000000
00000000
00000000
00000000
00000000
00000000
00000000
30000000
,
00000000
00000000
00000000
00000000
,
00000000
00000000
00000000
00000000
,
00000000
00000000
00000000
00000000
,
00000000
00000000
00000000
00000000
,
00011000
00011000
00011000
00011000
00011000
00011000
00011000
00011000
,
00010001
00010001
00100010
00010001
10001000
00100010
00100010
10001000
,
00010001
10001000
00100010
00010001
10001000
00100010
01000100
00010001
,
10001000
01000100
00010001
00100010
01000100
10001000
00010001
01000100
,
00100010
10001000
00010001
10001000
00100010
01000100
00100010
10001000
,
00100010
01000100
10001000
00010001
00100010
00010001
10001000
00100010
,
01000100
00010001
10001000
00010001
01000100
00010001
10001000
00100010
,
10001000
01000100
00010001
00100010
01000100
10001000
00010001
00100010
,
01000100
00010001
10001000
01000100
10001000
01000100
00100010
00010001
,
00100010
10001000
01000100
00100010
01000100
00010001
10001000
01000100
,
10001000
01000100
00010001
10001000
00010001
00100010
10001000
00100010
,
01000100
00010001
00010001
01000100
01000100
01000100
00010001
00100010
,
01000100
01000100
10001000
00010001
00100010
01000100
00010001
10001000
,
01000100
10001000
00010001
00010001
00010001
10001000
01000100
00010001
,
10001000
01000100
00100010
10001000
00010001
10001000
00100010
01000100
,
10001000
00010001
00100010
00010001
00010001
01000100
10001000
00010001
,
00010001
00100010
01000100
10001000
00010001
00100010
01000100
10001000
,
00100010
00010001
00010001
00100010
00100010
00010001
00010001
00100010
,
01000100
00010001
00100010
01000100
00010001
00100010
01000100
00010001
,
10001000
00010001
00100010
00010001
10001000
01000100
10001000
01000100
,
00100010
01000100
00100010
00010001
10001000
00100010
00010001
10001000
,
00100010
00010001
00100010
01000100
00010001
10001000
00010001
00100010
,
00010001
00100010
00010001
01000100
00100010
01000100
00010001
10001000
,
00100010
01000100
00010001
00100010
00010001
10001000
00010001
10001000
,
00010001
01000100
00010001
01000100
00010001
10001000
01000100
00010001
,
10001000
00010001
00100010
00010001
00010001
00100010
10001000
01000100
,
00010001
00010001
00100010
00010001
00010001
00100010
10001000
00010001
,
00010001
01000100
00010001
00100010
01000100
10001000
00010001
01000100
,
00100010
00100010
00010001
10001000
00100010
01000100
00010001
10001000
,
00010001
01000100
10001000
00010001
00100010
00010001
10001000
00100010
,
01000100
00010001
10001000
00010001
01000100
00010001
00100010
10001000
,
01000100
00010001
00100010
00100010
01000100
00100010
10001000
00100010
,
01000100
00010001
00100010
01000100
00010001
10001000
00100010
01000100
,
00010001
10001000
01000100
00100010
10001000
00100010
00010001
01000100
,
10001000
01000100
00010001
01000100
00100010
10001000
01000100
00010001
,
01000100
00010001
10001000
01000100
00100010
01000100
00010001
00100010
,
01000100
01000100
00010001
00010001
10001000
01000100
00010001
00010001
,
01000100
01000100
10001000
00010001
00010001
00100010
01000100
00010001
,
10001000
00100010
01000100
00100010
10001000
00010001
00100010
01000100
,
00010001
10001000
00100010
00010001
10001000
01000100
00100010
00010001
,
01000100
00100010
01000100
00010001
00010001
10001000
00010001
10001000
,
00100010
00010001
10001000
00100010
01000100
00010001
00100010
10001000
,
01000100
00010001
00100010
01000100
00010001
00100010
01000100
00010001
,
10001000
00010001
00100010
00010001
10001000
00100010
10001000
00010001
,
00100010
01000100
00100010
00010001
10001000
00100010
10001000
00010001
,
00100010
00010001
00100010
10001000
01000100
00010001
10001000
00100010
,
00010001
10001000
01000100
00100010
10001000
00010001
10001000
00010001
,
00100010
01000100
00010001
00100010
00010001
10001000
00010001
01000100
,
00010001
01000100
10001000
00100010
10001000
00010001
01000100
00010001
,
20020002
00000000
00000000
00000000
00000000
00000000
00000000
00000000
00000000
00000000
00000000
00000000
00000000
00000000
00000000
00000003
,
00000020
00000000
00000000
00000000
00000000
00000000
00000000
00000030
00000200
00000000
00000000
00000000
00000000
00000000
00000000
30030300
,
20020020
00000000
00000000
00000000
00000000
00000000
00000000
00000000
00000000
00000000
00000000
00000000
00000000
00000000
00000000
00000030
,
00000020
00000000
00000000
00000000
00000000
00000000
00000000
30030030
20020200
00000000
00000000
00000000
00000000
00000000
00000000
30030300
,
20020020
00000000
00000000
00000000
00000000
00000000
00000000
00000000
00000000
00000000
00000000
00000000
00000000
00000000
00000000
00000030
,
00000020
00000000
00000000
00000000
00000000
00000000
00000000
00000030
00000002
00000000
00000000
00000000
00000000
00000000
00000000
30030003
,
20020002
00000000
00000000
00000000
00000000
00000000
00000000
00000000
00000000
00000000
00000000
00000000
00000000
00000000
00000000
00000003
,
00000020
00000000
00000000
00000000
00000000
00000000
00000000
00000000
00000000
00000000
00000000
00000000
00000000
00000000
00000000
30030030
,
20022000
00000000
00000000
00000000
00000000
00000000
00000000
00000000
00000000
00000000
00000000
00000000
00000000
00000000
00000000
00003000
,
00000002
00000000
00000000
00000000
00000000
00000000
00000000
30030003
20020020
00000000
00000000
00000000
00000000
00000000
00000000
30030030
,
20020200
00000000
00000000
00000000
00000000
00000000
00000000
00000000
00000000
00000000
00000000
00000000
00000000
00000000
00000000
00000300
,
00000002
00000000
00000000
00000000
00000000
00000000
00000000
30030003
20020020
00000000
00000000
00000000
00000000
00000000
00000000
30030030
,
20020200
00000000
00000000
00000000
00000000
00000000
00000000
00000000
00000000
00000000
00000000
00000000
00000000
00000000
00000000
00000300
,
00000200
00000000
00000000
00000000
00000000
00000000
00000000
00000300
00002000
00000000
00000000
00000000
00000000
00000000
00000000
30033000
,
20022000
00000000
00000000
00000000
00000000
00000000
00000000
00000000
00000000
00000000
00000000
00000000
00000000
00000000
00000000
00003000
,
00002200
00000000
00000000
00000000
00000000
00000000
00000000
00000000
00000000
00000000
00000000
00000000
00000000
00000000
00000000
30033300
,
20020000
00000000
00000000
00000000
,
00000000
00000000
00000000
00000000
,
00000000
00000000
00000000
00000000
,
00000000
00000000
00000000
00000000
,
30030000
00000000
00000000
00000000
;

//---------------dance-double - Vertex Beta----------------
#NOTES:
     dance-double:
     Vertex Beta:
     Easy:
     8:
     0.851,0.854,1.000,0.613,0.000,503.000,460.000,113.000,0.000,46.000:
00000000
00000000
00000000
00000000
,
20020002
00000000
00000000
00000000
00000000
00000000
00000000
00000000
00000000
00000000
00000000
00000000
00000000
00000000
00000000
00000003
,
00000020
00000000
00000000
00000000
00000000
00000000
00000000
00000030
00000200
00000000
00000000
00000000
00000000
00000000
00000000
30030300
,
20020020
00000000
00000000
00000000
00000000
00000000
00000000
00000000
00000000
00000000
00000000
00000000
00000000
00000000
00000000
00000030
,
00000020
00000000
00000000
00000000
00000000
00000000
00000000
30030030
20020200
00000000
00000000
00000000
00000000
00000000
00000000
30030300
,
20020020
00000000
00000000
00000000
00000000
00000000
00000000
00000000
00000000
00000000
00000000
00000000
00000000
00000000
00000000
00000030
,
00000020
00000000
00000000
00000000
00000000
00000000
00000000
00000030
00000002
00000000
00000000
00000000
00000000
00000000
00000000
30030003
,
20020002
00000000
00000000
00000000
00000000
00000000
00000000
00000000
00000000
00000000
00000000
00000003
00000020
00000030
00002000
00003000
,
00000020
00000000
00000000
00000000
00000000
00000000
00000000
00000000
00000000
00000000
00000000
00000000
00000000
00000000
00000000
30030030
,
20022000
00000000
00000000
00000000
00000000
00000000
00000000
00000000
00000000
00000000
00000000
00000000
00000000
00000000
00000000
00003000
,
00000200
00000000
00000000
00000000
00000000
00000000
00000000
30030300
20020020
00000000
00000000
00000000
00000000
00000000
00000000
30030030
,
20020002
00000000
00000000
00000000
00000000
00000000
00000000
00000000
00000000
00000000
00000000
00000000
00000000
00000000
00000000
00000003
,
00000002
00000000
00000000
00000000
00000000
00000000
00000000
30030003
20020020
00000000
00000000
00000000
00000000
00000000
00000000
30030030
,
20020200
00000000
00000000
00000000
00000000
00000000
00000000
00000000
00000000
00000000
00000000
00000000
00000000
00000000
00000000
00000300
,
00000200
00000000
00000000
00000000
00000000
00000000
00000000
00000300
00000002
00000000
00000000
00000000
00000000
00000000
00000000
30030003
,
20020020
00000000
00000000
00000000
00000000
00000000
00000000
00000000
00000000
00000000
00000000
00000000
00000000
00000000
00000000
00000030
,
00000002
00000000
00000000
00000000
00000000
00000000
00000000
00000000
00000000
00000000
00000000
00000000
00000000
00000000
00000000
30030003
,
00010001
00010001
00010001
00010001
00000000
00000000
00100010
00000000
,
00010001
00100010
10001000
01000100
,
10001000
10001000
10001000
10001000
00000000
00000000
00010001
00000000
,
00100010
00010001
00100010
00100010
,
00100010
00100010
00100010
00100010
00000000
00000000
10001000
00000000
,
01000100
10001000
01000100
10001000
,
01000100
01000100
01000100
01000100
00000000
00000000
00010001
00000000
,
01000100
10001000
10001000
00100010
,
10001000
01000100
00100010
00010001
00000000
00000000
10001000
00000000
,
10001000
00010001
00010001
10001000
,
00010001
00100010
01000100
10001000
00000000
00000000
00010001
00000000
,
01000100
10001000
00100010
00010001
,
00100010
01000100
00010001
10001000
00000000
00000000
01000100
00000000
,
10001000
00100010
00010001
00100010
,
01000100
00100010
10001000
00010001
00000000
00000000
10001000
00000000
,
00010001
01000100
00010001
01000100
,
00010001
00010001
00010001
00010001
00000000
00000000
00100010
00000000
,
00010001
00100010
10001000
01000100
,
10001000
10001000
10001000
10001000
00000000
00000000
00010001
00000000
,
00100010
00010001
00100010
00100010
,
00100010
00100010
00100010
00100010
00000000
00000000
10001000
00000000
,
01000100
10001000
01000100
10001000
,
01000100
01000100
01000100
01000100
00000000
00000000
00010001
00000000
,
01000100
10001000
10001000
00100010
,
10001000
01000100
00100010
00010001
00000000
00000000
10001000
00000000
,
10001000
00010001
00010001
10001000
,
00010001
00100010
01000100
10001000
00000000
00000000
00010001
00000000
,
01000100
10001000
00100010
00010001
,
00100010
01000100
00010001
10001000
00000000
00000000
01000100
00000000
,
10001000
00100010
00010001
00100010
,
01000100
00100010
10001000
00010001
00000000
00000000
10001000
00000000
,
00010001
01000100
00010001
01000100
,
10001000
10001000
10001000
10001000
00000000
00000000
01000100
00000000
,
10001000
01000100
00010001
00100010
,
00010001
00010001
00010001
00010001
00000000
00000000
10001000
00000000
,
01000100
10001000
01000100
01000100
,
01000100
01000100
01000100
01000100
00000000
00000000
00010001
00000000
,
00100010
00010001
00100010
00010001
,
00100010
00100010
00100010
00100010
00000000
00000000
10001000
00000000
,
00100010
00010001
00010001
01000100
,
00010001
00100010
01000100
10001000
00000000
00000000
00010001
00000000
,
00010001
10001000
10001000
00010001
,
10001000
01000100
00100010
00010001
00000000
00000000
10001000
00000000
,
00100010
00010001
01000100
10001000
,
01000100
00100010
10001000
00010001
00000000
00000000
00100010
00000000
,
00010001
01000100
10001000
01000100
,
00100010
01000100
00010001
10001000
00000000
00000000
00010001
00000000
,
10001000
00100010
10001000
00100010
,
00002000
00000000
00000000
00000000
00000000
00003000
00000200
00000000
00000000
00000000
00000000
00000300
00000020
00000000
00000000
00000030
,
00000002
00000000
00000000
00000000
00000000
00000003
00000200
00000000
00000000
00000000
00000000
00000300
00000020
00000000
00000000
00000030
,
00000002
00000000
00000000
00000000
00000000
00000003
00000020
00000000
00000000
00000000
00000000
00000030
00000200
00000000
00000000
00000300
,
00002000
00000000
00000000
00000000
00000000
00000000
00000000
00000000
00000000
00000000
00000000
00000000
00000000
00000000
00000000
00003000
,
00000000
00000000
00000000
00000000
,
00000000
00000000
00000000
00000000
,
00000000
00000000
00000000
00000000
,
00000000
00000000
00000000
00000000
,
20000000
00000000
00000000
00000000
00000000
30000000
02000000
00000000
00000000
00000000
00000000
03000000
00200000
00000000
00000000
00300000
,
00020000
00000000
00000000
00000000
00000000
00030000
02000000
00000000
00000000
00000000
00000000
03000000
00020000
00000000
00000000
00030000
,
00020000
00000000
00000000
00000000
00000000
00030000
00200000
00000000
00000000
00000000
00000000
00300000
02000000
00000000
00000000
03000000
,
20000000
00000000
00000000
00000000
00000000
00000000
00000000
00000000
00000000
00000000
00000000
00000000
00000000
00000000
00000000
30000000
,
00000000
00000000
00000000
00000000
,
00000000
00000000
00000000
00000000
,
00000000
00000000
00000000
00000000
,
00000000
00000000
00000000
00000000
,
00011000
00011000
00011000
00011000
,
10001000
10001000
10001000
10001000
00000000
00000000
01000100
00000000
,
10001000
01000100
00010001
00100010
,
00010001
00010001
00010001
00010001
00000000
00000000
10001000
00000000
,
01000100
10001000
01000100
01000100
,
01000100
01000100
01000100
01000100
00000000
00000000
00010001
00000000
,
00100010
00010001
00100010
00010001
,
00100010
00100010
00100010
00100010
00000000
00000000
10001000
00000000
,
00100010
00010001
00010001
01000100
,
00010001
00100010
01000100
10001000
00000000
00000000
00010001
00000000
,
00010001
10001000
10001000
00010001
,
10001000
01000100
00100010
00010001
00000000
00000000
10001000
00000000
,
00100010
00010001
01000100
10001000
,
01000100
00100010
10001000
00010001
00000000
00000000
00100010
00000000
,
00010001
01000100
10001000
01000100
,
00100010
01000100
00010001
10001000
00000000
00000000
00010001
00000000
,
10001000
00100010
10001000
00100010
,
10001000
10001000
10001000
10001000
00000000
00000000
01000100
00000000
,
10001000
01000100
00010001
00100010
,
00010001
00010001
00010001
00010001
00000000
00000000
10001000
00000000
,
01000100
10001000
01000100
01000100
,
01000100
01000100
01000100
01000100
00000000
00000000
00010001
00000000
,
00100010
00010001
00100010
00010001
,
00100010
00100010
00100010
00100010
00000000
00000000
10001000
00000000
,
00100010
00010001
00010001
01000100
,
00010001
00100010
01000100
10001000
00000000
00000000
00010001
00000000
,
00010001
10001000
10001000
00010001
,
10001000
01000100
00100010
00010001
00000000
00000000
10001000
00000000
,
00100010
00010001
01000100
10001000
,
01000100
00100010
10001000
00010001
00000000
00000000
00100010
00000000
,
00010001
01000100
10001000
01000100
,
00100010
01000100
00010001
10001000
00000000
00000000
00010001
00000000
,
10001000
00100010
10001000
00100010
,
00010001
00010001
00010001
00010001
00000000
00000000
00100010
00000000
,
00010001
00100010
10001000
01000100
,
10001000
10001000
10001000
10001000
00000000
00000000
00010001
00000000
,
00100010
00010001
00100010
00100010
,
00100010
00100010
00100010
00100010
00000000
00000000
10001000
00000000
,
01000100
10001000
01000100
10001000
,
01000100
01000100
01000100
01000100
00000000
00000000
00010001
00000000
,
01000100
10001000
10001000
00100010
,
10001000
01000100
00100010
00010001
00000000
00000000
10001000
00000000
,
10001000
00010001
00010001
10001000
,
00010001
00100010
01000100
10001000
00000000
00000000
00010001
00000000
,
01000100
10001000
00100010
00010001
,
00100010
01000100
00010001
10001000
00000000
00000000
01000100
00000000
,
10001000
00100010
00010001
00100010
,
01000100
00100010
10001000
00010001
00000000
00000000
10001000
00000000
,
00010001
01000100
00010001
01000100
,
20020002
00000000
00000000
00000000
00000000
00000000
00000000
00000000
00000000
00000000
00000000
00000000
00000000
00000000
00000000
00000003
,
00000020
00000000
00000000
00000000
00000000
00000000
00000000
00000030
00000200
00000000
00000000
00000000
00000000
00000000
00000000
30030300
,
20020020
00000000
00000000
00000000
00000000
00000000
00000000
00000000
00000000
00000000
00000000
00000000
00000000
00000000
00000000
00000030
,
00000020
00000000
00000000
00000000
00000000
00000000
00000000
30030030
20020200
00000000
00000000
00000000
00000000
00000000
00000000
30030300
,
20020020
00000000
00000000
00000000
00000000
00000000
00000000
00000000
00000000
00000000
00000000
00000000
00000000
00000000
00000000
00000030
,
00000020
00000000
00000000
00000000
00000000
00000000
00000000
00000030
00000002
00000000
00000000
00000000
00000000
00000000
00000000
30030003
,
20020002
00000000
00000000
00000000
00000000
00000000
00000000
00000000
00000000
00000000
00000000
00000000
00000000
00000000
00000000
00000003
,
00000020
00000000
00000000
00000000
00000000
00000000
00000000
00000000
00000000
00000000
00000000
00000000
00000000
00000000
00000000
30030030
,
20022000
00000000
00000000
00000000
00000000
00000000
00000000
00000000
00000000
00000000
00000000
00000000
00000000
00000000
00000000
00003000
,
00000002
00000000
00000000
00000000
00000000
00000000
00000000
30030003
20020020
00000000
00000000
00000000
00000000
00000000
00000000
30030030
,
20020200
00000000
00000000
00000000
00000000
00000000
00000000
00000000
00000000
00000000
00000000
00000000
00000000
00000000
00000000
00000300
,
00000002
00000000
00000000
00000000
00000000
00000000
00000000
30030003
20020020
00000000
00000000
00000000
00000000
00000000
00000000
30030030
,
20020200
00000000
00000000
00000000
00000000
00000000
00000000
00000000
00000000
00000000
00000000
00000000
00000000
00000000
00000000
00000300
,
00000200
00000000
00000000
00000000
00000000
00000000
00000000
00000300
00002000
00000000
00000000
00000000
00000000
00000000
00000000
30033000
,
20022000
00000000
00000000
00000000
00000000
00000000
00000000
00000000
00000000
00000000
00000000
00000000
00000000
00000000
00000000
00003000
,
00002200
00000000
00000000
00000000
00000000
00000000
00000000
00000000
00000000
00000000
00000000
00000000
00000000
00000000
00000000
30033300
,
20020000
00000000
00000000
00000000
,
00000000
00000000
00000000
00000000
,
00000000
00000000
00000000
00000000
,
00000000
00000000
00000000
00000000
,
30030000
00000000
00000000
00000000
;

//---------------dance-double - Vertex Beta----------------
#NOTES:
     dance-double:
     Vertex Beta:
     Beginner:
     6:
     0.435,0.529,1.000,0.472,0.000,258.000,217.000,87.000,0.000,1.000:
00000000
00000000
00000000
00000000
,
00020002
00000000
00000000
00000000
00000000
00000000
00000000
00000000
00000000
00000000
00000000
00000000
00000000
00000000
00000000
00000003
,
00000020
00000000
00000000
00000000
00000000
00000000
00000000
00000030
00000200
00000000
00000000
00000000
00000000
00000000
00000000
00030300
,
00020020
00000000
00000000
00000000
00000000
00000000
00000000
00000000
00000000
00000000
00000000
00000000
00000000
00000000
00000000
00000030
,
00000020
00000000
00000000
00000000
00000000
00000000
00000000
00030030
00020200
00000000
00000000
00000000
00000000
00000000
00000000
00030300
,
00020020
00000000
00000000
00000000
00000000
00000000
00000000
00000000
00000000
00000000
00000000
00000000
00000000
00000000
00000000
00000030
,
00000020
00000000
00000000
00000000
00000000
00000000
00000000
00000030
00000002
00000000
00000000
00000000
00000000
00000000
00000000
00030003
,
00020002
00000000
00000000
00000000
,
00000000
00000000
00000000
00000000
00000000
00000000
00000000
00000000
00000000
00000000
00000000
00000000
00000000
00000000
00000000
00030003
,
00022000
00000000
00000000
00000000
00000000
00000000
00000000
00000000
00000000
00000000
00000000
00000000
00000000
00000000
00000000
00003000
,
00000200
00000000
00000000
00000000
00000000
00000000
00000000
00030300
00020020
00000000
00000000
00000000
00000000
00000000
00000000
00030030
,
00020002
00000000
00000000
00000000
00000000
00000000
00000000
00000000
00000000
00000000
00000000
00000000
00000000
00000000
00000000
00000003
,
00000002
00000000
00000000
00000000
00000000
00000000
00000000
00030003
00020020
00000000
00000000
00000000
00000000
00000000
00000000
00030030
,
00020200
00000000
00000000
00000000
00000000
00000000
00000000
00000000
00000000
00000000
00000000
00000000
00000000
00000000
00000000
00000300
,
00000200
00000000
00000000
00000000
00000000
00000000
00000000
00000300
00000002
00000000
00000000
00000000
00000000
00000000
00000000
00030003
,
00020020
00000000
00000000
00000000
00000000
00000000
00000000
00000000
00000000
00000000
00000000
00000000
00000000
00000000
00000000
00000030
,
00000002
00000000
00000000
00000000
00000000
00000000
00000000
00000000
00000000
00000000
00000000
00000000
00000000
00000000
00000000
00030003
,
00010001
00000000
00100010
00000000
,
01000100
00000000
10001000
00000000
,
00010001
00000000
00100010
00000000
,
01000100
00000000
00010001
00000000
,
00100010
00000000
10001000
00000000
,
01000100
00000000
00100010
00000000
,
00010001
00000000
01000100
00000000
,
00010001
00000000
00010001
00000000
,
00100010
00000000
01000100
00000000
,
00100010
00000000
01000100
00000000
,
10001000
00000000
00010001
00000000
,
00100010
00000000
01000100
00000000
,
00100010
00000000
10001000
00000000
,
00010001
00000000
01000100
00000000
,
00100010
00000000
00100010
00000000
,
01000100
00000000
00010001
00000000
,
10001000
00000000
10001000
00000000
,
01000100
00000000
10001000
00000000
,
00010001
00000000
00010001
00000000
,
00100010
00000000
00100010
00000000
,
01000100
00000000
01000100
00000000
,
10001000
00000000
10001000
00000000
,
01000100
00000000
01000100
00000000
,
00100010
00000000
00100010
00000000
,
00010001
00000000
00010001
00000000
,
01000100
00000000
00010001
00000000
,
10001000
00000000
00100010
00000000
,
10001000
00000000
01000100
00000000
,
10001000
00000000
00100010
00000000
,
10001000
00000000
00010001
00000000
,
10001000
00000000
00010001
00000000
,
01000100
00000000
00010001
00000000
,
00100010
00000000
00010001
00000000
,
10001000
00000000
00010001
00000000
,
00100010
00000000
00010001
00000000
,
01000100
00000000
00010001
00000000
,
10001000
00000000
00010001
00000000
,
01000100
00000000
00010001
00000000
,
00100010
00000000
00010001
00000000
,
00100010
00000000
01000100
00000000
,
10001000
00000000
01000100
00000000
,
01000100
00000000
00100010
00000000
,
00100010
00000000
10001000
00000000
,
10001000
00000000
00010001
00000000
,
00010001
00000000
10001000
00000000
,
01000100
00000000
10001000
00000000
,
00100010
00000000
00100010
00000000
,
00100010
00000000
00100010
00000000
,
00002000
00000000
00000000
00000000
00000000
00003000
00000200
00000000
00000000
00000000
00000000
00000300
00000020
00000000
00000000
00000030
,
00000002
00000000
00000000
00000000
00000000
00000003
00000200
00000000
00000000
00000000
00000000
00000300
00000020
00000000
00000000
00000030
,
00000002
00000000
00000000
00000000
00000000
00000003
00000020
00000000
00000000
00000000
00000000
00000030
00000200
00000000
00000000
00000300
,
00002000
00000000
00000000
00000000
00000000
00000000
00000000
00000000
00000000
00000000
00000000
00000000
00000000
00000000
00000000
00003000
,
00000000
00000000
00000000
00000000
,
00000000
00000000
00000000
00000000
,
00000000
00000000
00000000
00000000
,
00000000
00000000
00000000
00000000
,
20000000
00000000
00000000
00000000
00000000
30000000
02000000
00000000
00000000
00000000
00000000
03000000
00200000
00000000
00000000
00300000
,
00020000
00000000
00000000
00000000
00000000
00030000
02000000
00000000
00000000
00000000
00000000
03000000
00020000
00000000
00000000
00030000
,
00020000
00000000
00000000
00000000
00000000
00030000
00200000
00000000
00000000
00000000
00000000
00300000
02000000
00000000
00000000
03000000
,
20000000
00000000
00000000
00000000
00000000
00000000
00000000
00000000
00000000
00000000
00000000
00000000
00000000
00000000
00000000
30000000
,
00000000
00000000
00000000
00000000
,
00000000
00000000
00000000
00000000
,
00000000
00000000
00000000
00000000
,
00000000
00000000
00000000
00000000
,
00011000
00000000
00011000
00000000
,
10001000
00000000
01000100
00000000
,
00100010
00000000
00010001
00000000
,
10001000
00000000
01000100
00000000
,
00100010
00000000
10001000
00000000
,
01000100
00000000
00010001
00000000
,
00100010
00000000
01000100
00000000
,
10001000
00000000
00100010
00000000
,
10001000
00000000
10001000
00000000
,
01000100
00000000
00100010
00000000
,
01000100
00000000
00100010
00000000
,
00010001
00000000
10001000
00000000
,
01000100
00000000
00100010
00000000
,
01000100
00000000
00010001
00000000
,
10001000
00000000
00100010
00000000
,
01000100
00000000
01000100
00000000
,
00100010
00000000
10001000
00000000
,
00010001
00000000
00010001
00000000
,
00100010
00000000
00010001
00000000
,
10001000
00000000
10001000
00000000
,
01000100
00000000
01000100
00000000
,
00100010
00000000
00100010
00000000
,
00010001
00000000
00010001
00000000
,
00100010
00000000
00100010
00000000
,
01000100
00000000
01000100
00000000
,
10001000
00000000
10001000
00000000
,
00100010
00000000
10001000
00000000
,
00010001
00000000
01000100
00000000
,
00010001
00000000
00100010
00000000
,
00010001
00000000
01000100
00000000
,
00010001
00000000
10001000
00000000
,
00010001
00000000
10001000
00000000
,
00100010
00000000
10001000
00000000
,
01000100
00000000
10001000
00000000
,
00010001
00000000
10001000
00000000
,
01000100
00000000
10001000
00000000
,
00100010
00000000
10001000
00000000
,
00010001
00000000
10001000
00000000
,
00100010
00000000
10001000
00000000
,
01000100
00000000
10001000
00000000
,
01000100
00000000
00100010
00000000
,
00010001
00000000
00100010
00000000
,
00100010
00000000
01000100
00000000
,
01000100
00000000
00010001
00000000
,
00010001
00000000
10001000
00000000
,
10001000
00000000
00010001
00000000
,
00100010
00000000
00010001
00000000
,
01000100
00000000
01000100
00000000
,
01000100
00000000
01000100
00000000
,
00020002
00000000
00000000
00000000
00000000
00000000
00000000
00000000
00000000
00000000
00000000
00000000
00000000
00000000
00000000
00000003
,
00000020
00000000
00000000
00000000
00000000
00000000
00000000
00000030
00000200
00000000
00000000
00000000
00000000
00000000
00000000
00030300
,
00020020
00000000
00000000
00000000
00000000
00000000
00000000
00000000
00000000
00000000
00000000
00000000
00000000
00000000
00000000
00000030
,
00000020
00000000
00000000
00000000
00000000
00000000
00000000
00030030
00020200
00000000
00000000
00000000
00000000
00000000
00000000
00030300
,
00020020
00000000
00000000
00000000
00000000
00000000
00000000
00000000
00000000
00000000
00000000
00000000
00000000
00000000
00000000
00000030
,
00000020
00000000
00000000
00000000
00000000
00000000
00000000
00000030
00000002
00000000
00000000
00000000
00000000
00000000
00000000
00030003
,
00020002
00000000
00000000
00000000
00000000
00000000
00000000
00000000
00000000
00000000
00000000
00000000
00000000
00000000
00000000
00000003
,
00000020
00000000
00000000
00000000
00000000
00000000
00000000
00000000
00000000
00000000
00000000
00000000
00000000
00000000
00000000
00030030
,
00022000
00000000
00000000
00000000
00000000
00000000
00000000
00000000
00000000
00000000
00000000
00000000
00000000
00000000
00000000
00003000
,
00000002
00000000
00000000
00000000
00000000
00000000
00000000
00030003
00020020
00000000
00000000
00000000
00000000
00000000
00000000
00030030
,
00020200
00000000
00000000
00000000
00000000
00000000
00000000
00000000
00000000
00000000
00000000
00000000
00000000
00000000
00000000
00000300
,
00000002
00000000
00000000
00000000
00000000
00000000
00000000
00030003
00020020
00000000
00000000
00000000
00000000
00000000
00000000
00030030
,
00020200
00000000
00000000
00000000
00000000
00000000
00000000
00000000
00000000
00000000
00000000
00000000
00000000
00000000
00000000
00000300
,
00000200
00000000
00000000
00000000
00000000
00000000
00000000
00000300
00002000
00000000
00000000
00000000
00000000
00000000
00000000
00033000
,
00022000
00000000
00000000
00000000
00000000
00000000
00000000
00000000
00000000
00000000
00000000
00000000
00000000
00000000
00000000
00003000
,
00002200
00000000
00000000
00000000
00000000
00000000
00000000
00000000
00000000
00000000
00000000
00000000
00000000
00000000
00000000
00033300
,
00020000
00000000
00000000
00000000
,
00000000
00000000
00000000
00000000
,
00000000
00000000
00000000
00000000
,
00000000
00000000
00000000
00000000
,
00030000
00000000
00000000
00000000
;
