#TITLE:It's Not Over Yet;
#SUBTITLE:TalesWeaver (2003);
#ARTIST:Spinai;
#TITLETRANSLIT:;
#SUBTITLETRANSLIT:;
#ARTISTTRANSLIT:;
#CREDIT:;
#BANNER:It's Not Over Yet.jpg;
#BACKGROUND:It's Not Over Yet-bg.jpg;
#LYRICSPATH:;
#CDTITLE:cdtitle7.png;
#MUSIC:It's Not Over Yet.mp3;
#OFFSET:-1.837;
#SAMPLESTART:122.740;
#SAMPLELENGTH:13.200;
#SELECTABLE:YES;
#DISPLAYBPM:135.000;
#BPMS:0.000=135.000,344.625=130.000,344.750=125.000,344.875=120.000,345.000=116.000,345.125=112.000,345.250=108.000,345.375=104.000,345.500=100.000,345.625=96.000,345.750=92.001,345.875=88.000,346.000=84.000,346.125=80.001,346.250=76.001,346.375=73.001,346.500=70.001,346.625=67.001,346.750=64.001,346.875=61.001,347.000=58.001,347.125=55.001,347.250=52.001,347.375=49.001,347.500=46.001,347.625=43.001,347.750=40.001,347.875=37.001,347.938=75.821;
#STOPS:;
#BGCHANGES:;
// cache tags:
#FIRSTBEAT:0.000;
#LASTBEAT:348.250;
#SONGFILENAME:Songs/VGMP 3/It's Not Over Yet (Linus)/It's Not Over Yet.sm;
#HASMUSIC:1;
#HASBANNER:1;
#MUSICLENGTH:158.706;
// end cache tags

//---------------dance-single - ----------------
#NOTES:
     dance-single:
     :
     Hard:
     12:
     1.000,1.000,0.926,0.624,1.000,924.000,147.000,99.000,0.000,6.000:

1000
0000
0100
0000
0001
0000
0010
0000
0100
0000
1000
0100
0000
0000
0010
0000
,
0001
0000
0010
0000
0100
0000
1000
0000
0100
0000
1000
0010
0000
0000
0001
0000
,
1000
0000
0100
0000
0001
0000
0010
0000
0100
0000
1000
0100
0000
0000
0010
0000
,
0001
0000
0000
0000
0010
0000
0000
0000
0100
0000
0000
0000
1000
0000
0000
0000
0100
0000
0000
0000
0001
0000
0100
0000
0000
0000
0000
0000
0010
0000
0000
0010
,
0002
0000
0000
0000
0000
0000
0013
0000
0001
0000
0100
1000
0000
0000
0000
0000
,
0000
0000
0000
0010
0000
0000
0000
0000
0000
0100
0000
0000
0010
0000
0000
0000
0000
0000
0001
0000
0000
0200
0000
0000
0000
0000
0000
0000
0000
0000
0000
0000
0000
0000
0000
0000
0000
0000
0000
0300
0000
0000
0000
0000
0000
0000
0010
0000
,
0002
0000
0000
0000
0000
0000
0000
0000
0000
0000
0003
1000
0100
0000
0000
0000
1000
0000
0000
0000
0100
0000
0000
0000
0010
0000
0000
0000
0001
0000
0020
0000
,
0000
0000
0000
0000
0000
0000
0000
0000
0000
0000
0000
0000
0030
0000
0000
0000
0000
0000
0000
0000
0000
0000
0000
0000
0000
0000
0000
0000
0000
0000
0000
0010
,
0002
0000
0000
0000
0000
0000
0013
0000
0001
0000
0100
1000
0000
0000
0000
0000
,
0000
0010
0000
0100
0010
0000
0100
0000
0010
0000
0001
1000
0000
0000
1000
0000
,
0002
0000
0000
0000
0000
0003
0100
0000
1000
0000
0100
0000
0010
0000
0001
0020
,
0000
0000
0000
0030
0000
0000
0000
0000
,
1001
0000
0010
0100
0000
0000
0000
0000
1010
0000
0100
1001
0000
0000
0000
0000
,
0000
0101
1000
0100
0011
0100
0000
0001
1000
0000
0000
1000
0000
0000
0000
0000
,
1001
0000
0010
0100
0000
0000
0000
0000
1010
0000
0100
1000
0000
0000
0001
0000
,
0110
0000
0000
1000
0000
0000
0010
0000
1001
0000
0000
0000
0100
0000
0000
0000
,
0101
0000
0010
0100
0000
0000
0000
0000
1010
0000
0100
1000
0000
0000
0000
0000
,
0000
0101
1000
0100
0011
1000
0010
0100
0001
0000
0000
0001
0000
0000
0000
0000
,
0010
0100
1000
0100
0001
1000
0100
0010
1001
0000
0000
1000
0000
0000
0010
0000
,
0200
0000
1000
0000
0000
0000
0320
0000
1000
0000
0000
0000
2031
0000
0000
0000
0100
0000
0010
0000
0000
0000
0100
0000
3100
0000
0100
0000
0100
0000
1000
0010
,
0002
0000
0000
0000
1000
0000
0013
0000
0001
0000
0010
0100
1000
0000
0000
1000
,
0000
0000
0000
0010
0000
0000
0000
0000
0000
0100
0000
0000
1010
0000
0000
0000
0000
0000
0001
0000
0000
1000
0000
0000
0000
0000
0000
0100
0000
0000
0000
0000
0000
0010
0000
0000
1001
0000
0000
0000
0000
0000
0000
0000
0000
1000
0010
0000
,
0002
0000
0000
0000
0000
0000
0000
0000
1000
0000
0003
1000
0100
0000
0000
0000
1000
0000
0000
0000
0100
0000
0010
0000
1000
0000
0000
0000
0001
0000
0020
0000
,
0100
0000
0000
0000
1000
0000
0000
0000
1000
0000
0000
0000
0130
0000
1000
0000
1000
0000
0000
0000
1000
0000
0000
0000
1000
0000
1000
0000
0100
0000
0000
0010
,
0002
0000
0000
0000
1000
0000
0013
0000
0001
0000
0010
0100
1000
0000
0000
1000
,
0000
0010
0000
0100
1010
0000
0100
0000
0010
0100
0010
1000
0100
0000
1000
0100
,
0002
0000
0000
0000
0100
1003
0000
1000
1000
0000
0100
0000
0110
0000
0001
0020
,
1000
0000
0100
0000
1000
0000
0130
0000
1000
0000
0000
0000
0100
0100
0100
0000
,
1001
0000
0010
0100
0000
0000
0001
0000
1010
0001
0110
1000
0001
0000
0010
0000
,
0000
0100
1010
0100
0011
0100
1000
0010
1000
0100
0000
0001
1000
0000
0010
0010
,
1001
0000
0010
0100
0000
0000
0000
1000
0011
1000
0101
1000
0100
0000
0001
0000
,
0010
0000
0000
0000
0100
0000
0010
0000
1100
0010
0100
0100
1010
0100
0101
0000
,
0011
0000
0010
0101
1000
0000
0001
0000
1010
0000
0100
1000
0000
0010
0001
0000
,
0010
0101
1000
0100
0011
1000
0100
1001
1010
0000
0000
0100
0001
0000
0000
0001
,
1010
0101
1010
0100
0011
1000
0100
1010
1001
0000
0000
0100
1000
0000
0010
0000
,
1200
0000
0000
0320
0001
0000
2130
0000
0100
0010
0000
0100
3100
0100
0100
0000
,
1000
0000
0000
1000
0000
1000
0100
0000
0000
1000
0000
1000
0100
0000
0000
1000
0000
1000
0100
0000
0000
1002
0003
1000
,
0100
0000
0000
1000
0000
1000
0100
0000
0000
1000
0000
1000
0100
0000
0000
1000
0000
1000
0100
0000
0000
1000
0000
1000
,
0100
0000
0000
1000
0000
1000
0100
0000
0000
1000
0000
1000
0100
0000
0000
1000
0000
1000
0100
0000
0000
1000
0000
1000
,
0100
0000
0000
1000
0000
1000
0100
0000
0000
1000
0000
1000
0100
0000
0000
1000
0000
1000
0100
0000
0000
1000
0100
0010
,
0002
0000
0000
0000
0000
0000
0000
0000
0000
0013
0100
1000
,
0002
0000
0000
0000
0000
0000
0000
0000
0000
0000
0000
0000
0003
0000
0100
1000
,
0100
0010
1000
0100
0010
0001
0100
0010
1000
0100
0010
0100
0010
1000
0010
0000
,
1002
0000
0003
0120
0000
0030
1002
0000
0000
0000
0000
0000
0000
0013
0001
0100
,
1010
0000
0100
1000
0000
0001
0010
0100
1001
0000
0100
1010
0100
0010
0000
0100
,
1000
0011
0100
0001
0011
1000
0100
0010
1001
0100
0010
1000
0100
0001
0010
0100
,
1010
0100
0010
1000
0100
0010
0100
0001
0011
0100
1001
0110
0001
1000
0100
0010
,
1002
0000
0000
0000
0000
0000
0000
0000
0000
0000
0000
0000
0000
0000
0000
0000
0103
0000
0000
0000
0000
0000
0000
0000
0000
0000
0000
0000
0000
0000
0000
0000
0010
0000
0000
0000
1000
0000
0000
0000
0000
0000
0100
0000
0000
0000
0000
0000
0002
0000
0000
0000
0000
0000
0000
0000
0000
0000
0000
0000
0000
0000
0000
0000
0103
0000
0000
0000
0000
0000
0000
0000
1000
0000
0000
0000
0000
0000
0000
0000
0010
0000
0000
0000
0000
0000
0000
0000
0000
0000
0000
0000
0000
0000
0000
0000
0002
0000
0000
0000
0000
0000
0000
0000
0000
0000
0000
0000
0000
0000
0000
0000
0103
0000
0000
0000
0000
0000
0000
0000
0000
0000
0000
0000
0000
0000
0000
0000
0010
0000
0000
0000
0000
0000
0000
0000
0000
0000
0000
0000
0000
0000
0000
0000
0002
0000
0000
0000
0000
0000
0000
0000
0000
0000
0000
0000
0000
0000
0000
0000
0000
0000
0000
0000
0000
0000
0000
0000
0003
0000
0000
0000
0000
0000
0000
0000
0000
0000
0000
0000
0000
0000
0000
0000
0000
0000
0000
0000
0000
0000
0000
0000
,
1020
0000
0000
0000
0000
0000
0000
0030
0001
0000
0100
1000
0010
0000
0001
2000
,
0000
0010
0000
0000
0010
0000
0000
0000
0100
0000
0000
0000
0000
3000
0000
0000
,
1010
0000
0010
0000
0010
0000
0100
0000
0011
0000
0101
1000
0010
0000
0001
2000
,
0001
0000
0000
0100
0000
0000
0001
0000
0000
3000
0000
0000
0000
0000
0100
1000
,
0101
0010
0001
0100
0010
1000
0100
0010
0101
1000
0001
0110
1000
0100
0010
0001
,
0000
0010
0101
0000
1000
0000
0000
0000
0101
0000
0000
0000
0010
0000
0001
0000
1000
0000
0000
0000
0000
0000
0100
0000
0000
0000
0100
0000
1000
0000
0000
0000
,
0001
0010
0100
1000
0100
0010
0001
0010
0100
1000
0100
0010
0001
0010
0100
1000
0100
0010
0001
0010
0100
1000
0100
0010
,
0001
0000
0010
0000
0100
0000
1000
0000
0100
0000
0010
0000
0001
0000
0010
0000
0100
0000
1000
0000
0100
0000
0010
0000
0001
0000
0010
0000
0100
0000
1000
0000
0100
0000
0010
0000
1001
0000
0010
1000
0100
0000
1000
0000
0100
1000
0010
0000
,
0001
0000
0010
0100
0000
0000
0000
0000
0000
0000
0000
0000
0100
1000
0100
0010
,
0000
0000
0000
0000
0000
0000
0000
0000
0000
0000
0000
0000
0000
0000
0100
0010
,
1000
0000
0100
0000
0010
0000
0001
0000
1000
0000
0010
0000
0100
0000
0001
0000
1000
0010
0100
0001
0010
0000
0100
0000
1000
0000
0010
0000
0001
0000
0000
0100
,
0001
0000
0100
0001
0000
0100
0001
0100
0001
0000
0100
0010
0000
1000
0010
0000
1000
0100
0000
0000
0000
0000
0000
0000
0000
0000
0000
0000
1000
0000
0100
0000
,
0010
0000
0010
0000
0010
0000
0100
1000
0000
0010
0000
0010
0000
0010
0100
1000
,
0010
0000
0010
0000
0010
0000
0100
1000
0001
0010
0001
0100
0000
0010
0100
1000
,
0000
0000
0000
0000
1100
0000
0000
0000
1010
0000
0000
0000
0100
0010
0000
0000
0101
0000
0000
0000
1010
0000
0101
0000
0000
0000
0011
0000
0000
0000
0001
0000
,
0000
0000
0001
1000
0001
1000
0001
1000
0001
1000
0001
1000
0001
1000
0001
1000
0001
1000
0001
1000
0001
1000
0001
1000
0001
1000
0001
1000
0001
1000
0001
1000
,
0100
0000
0010
0000
0000
0000
0000
0100
0010
0000
0000
0000
0010
0000
0000
0001
0010
0000
0100
0010
0000
0000
1000
0100
0010
0001
1000
0100
0010
0001
1000
0001
,
0110
0000
0000
0000
0100
0000
0000
0000
0100
0000
0000
0000
0100
0000
0000
1000
0100
0010
0001
1000
0100
0010
0001
1000
0100
0000
1100
0000
0000
0000
0100
0000
,
0011
0100
1000
0010
0001
0100
1000
0001
0010
0100
1000
0001
0010
0100
1000
0001
0010
0000
1000
0000
0010
0100
1000
0100
0001
0010
0000
0000
1010
0000
0001
0010
,
0100
0000
0001
0000
0000
0000
0001
0000
0100
0000
0001
0000
0000
0000
0001
0010
1100
0000
0001
0010
0100
1000
0001
0000
0100
0000
0000
0000
0100
1000
0001
1010
,
0102
0000
0000
0000
1000
0000
0013
0000
1001
0000
0010
0101
1000
0000
0000
1000
,
0000
0000
0000
0011
0000
0000
0000
0000
0000
0100
0000
0000
1010
0000
0000
0000
0000
0000
0100
0000
0000
0010
0000
0000
0001
0000
0000
1000
0000
0000
0000
0000
0000
0011
0000
0000
1000
0000
0000
0000
0000
0000
0000
0000
0000
1000
0010
0000
,
0102
0000
0000
0000
0100
0003
1000
0000
1001
0000
0101
0010
1010
0000
0001
0020
,
0100
0000
0000
0000
1000
0000
0001
0000
1000
0000
0000
0000
0130
0000
1000
0000
1000
0000
0001
0000
1100
0000
0000
0000
1001
0000
1000
0000
0100
0000
0000
0010
,
0102
0000
0000
0000
0000
0000
0000
0000
1000
0000
0000
0000
0013
0000
0000
0000
1001
0000
0000
0001
0010
0000
0101
0000
1000
0000
0000
0000
0000
0000
1000
0000
,
0000
0000
0011
0000
0000
0000
0100
0000
1010
0000
0000
0000
0100
0000
0000
0000
0011
0000
0000
1000
0100
0000
0011
0000
1100
0000
0000
0000
0010
0000
1000
0000
,
0102
0000
0000
0000
0000
0000
0000
0000
1000
0000
0013
0000
0000
0000
1000
0000
0101
0000
0000
0000
0011
0000
0101
0000
1000
0000
0001
0000
0010
0100
1000
0000
,
1002
0000
0100
0010
1000
0000
1000
0000
1003
0100
0010
0000
0101
0100
0110
0000
,
1002
0003
0000
0000
0020
0030
0200
0300
0000
0000
0001
0000
0010
0000
0100
0000
1020
0030
0001
0010
0200
0300
2010
3000
0000
0000
0010
0000
0100
0000
1000
0000
,
0001
0000
0200
0300
1020
0030
0200
0300
0002
0003
1200
0300
0000
0000
0002
0003
0010
0000
2000
3000
0000
0000
0210
0300
0000
0000
0100
0000
1000
0000
0100
0000
,
0012
0003
0000
0000
0020
0030
0200
0300
0000
0000
0001
0000
0010
0000
0100
0000
0012
0003
0000
0000
0200
0300
2010
3000
0000
0000
0010
0000
0102
0000
1000
0000
,
0213
0000
0000
0000
0000
0000
1000
0000
0000
0000
0000
0000
0311
0000
0000
0000
2100
3000
0001
0000
0200
0300
1000
0000
0021
0030
1000
0000
1002
0003
0000
0000
,
1002
0003
0010
0001
0100
0000
2010
3000
0000
0000
0001
0000
1010
0000
0100
0000
0020
0030
0100
0010
0001
0000
2000
3000
0000
0000
1010
0000
0101
0000
1000
0000
,
0001
0000
0200
0300
2000
3000
0200
0300
0020
0030
2000
3000
0000
0000
0012
0003
0010
0000
0000
0000
0100
0000
1000
0000
0101
0000
0010
0000
0001
0000
0101
0000
,
0010
0000
0201
0300
2010
3000
0200
0300
0021
0030
2000
3000
0200
0300
1020
0030
1002
0003
0000
0000
0000
0000
0200
0300
0001
0000
0000
0000
0020
0030
0000
0000
,
1200
0000
0001
0320
1000
0000
2031
0000
0100
0010
0000
0100
3100
1000
0100
0010
,
0001
0000
0201
0300
2010
3000
0200
0300
0012
0003
2000
3000
0200
0300
1020
0030
1002
0003
0000
0000
0000
0000
0200
0300
0010
0000
0000
0000
2100
3000
0000
0000
,
0012
0000
0000
1023
0000
0000
0000
0000
0000
0000
0000
0000
0000
0000
0000
0000
,
0030
0000
0000
0000
0000
0000
0100
0100
,
0001
0001
1000
0000
0000
0000
0000
0000
0000
0000
0000
0000
0000
0000
0000
0000
0000
0000
0000
0000
0000
0000
0000
0000
0000
0000
0000
0000
0000
0000
0000
0000
;

//---------------dance-single - ----------------
#NOTES:
     dance-single:
     :
     Challenge:
     13:
     0.914,0.685,0.000,0.000,1.000,1015.000,0.000,0.000,0.000,0.000:


1000
0000
0000
1000
0000
1000
1000
0000
0000
1000
0000
1000
1000
0000
0000
1000
0000
1000
1000
0000
0000
1000
0000
1000
,
1000
0000
0000
1000
0000
1000
1000
0000
0000
1000
0000
1000
1000
0000
0000
1000
0000
1000
1000
0000
0000
1000
0000
1000
,
1000
0000
0000
1000
0000
1000
1000
0000
0000
1000
0000
1000
1000
0000
0000
1000
0000
1000
1000
0000
0000
1000
0000
1000
,
1000
0000
0000
1000
0000
1000
1000
0000
0000
1000
0000
1000
1000
0000
0000
1000
0000
1000
1000
0000
0000
1000
0000
1000
,
1000
0000
0000
1000
0000
1000
1000
0000
0000
1000
0000
1000
1000
0000
0000
1000
0000
1000
1000
0000
0000
1000
0000
1000
,
1000
0000
0000
1000
0000
1000
1000
0000
0000
1000
0000
1000
1000
0000
0000
1000
0000
1000
1000
0000
0000
1000
0000
1000
,
1000
0000
0000
1000
0000
1000
1000
0000
0000
1000
0000
1000
1000
0000
0000
1000
0000
1000
1000
0000
0000
1000
0000
1000
,
1000
0000
0000
1000
0000
1000
1000
0000
0000
1000
0000
1000
1000
0000
0000
1000
0000
1000
1000
0000
0000
1000
0000
1000
,
1000
0000
0000
1000
0000
1000
1000
0000
0000
1000
0000
1000
1000
0000
0000
1000
0000
1000
1000
0000
0000
1000
0000
1000
,
1000
0000
0000
1000
0000
1000
1000
0000
0000
1000
0000
1000
1000
0000
0000
1000
0000
1000
1000
0000
0000
1000
0000
1000
,
1000
0000
0000
1000
0000
1000
1000
0000
0000
1000
0000
1000
1000
0000
0000
1000
0000
1000
1000
0000
0000
1000
0000
1000
,
1000
0000
0000
1000
0000
1000
1000
0000
0000
1000
0000
1000
1000
0000
0000
1000
0000
1000
1000
0000
0000
1000
0000
1000
,
1000
0000
0000
1000
0000
1000
1000
0000
0000
1000
0000
1000
1000
0000
0000
1000
0000
1000
1000
0000
0000
1000
0000
1000
,
1000
0000
0000
1000
0000
1000
1000
0000
0000
1000
0000
1000
1000
0000
0000
1000
0000
1000
1000
0000
0000
1000
0000
1000
,
1000
0000
0000
1000
0000
1000
1000
0000
0000
1000
0000
1000
1000
0000
0000
1000
0000
1000
1000
0000
0000
1000
0000
1000
,
1000
0000
0000
1000
0000
1000
1000
0000
0000
1000
0000
1000
1000
0000
0000
1000
0000
1000
1000
0000
0000
1000
0000
1000
,
1000
0000
0000
1000
0000
1000
1000
0000
0000
1000
0000
1000
1000
0000
0000
1000
0000
1000
1000
0000
0000
1000
0000
1000
,
1000
0000
0000
1000
0000
1000
1000
0000
0000
1000
0000
1000
1000
0000
0000
1000
0000
1000
1000
0000
0000
1000
0000
1000
,
1000
0000
0000
1000
0000
1000
1000
0000
0000
1000
0000
1000
1000
0000
0000
1000
0000
1000
1000
0000
0000
1000
0000
1000
,
1000
0000
0000
1000
0000
1000
1000
0000
0000
1000
0000
1000
1000
0000
0000
1000
0000
1000
1000
0000
0000
1000
0000
1000
,
1000
0000
0000
1000
0000
1000
1000
0000
0000
1000
0000
1000
1000
0000
0000
1000
0000
1000
1000
0000
0000
1000
0000
1000
,
1000
0000
0000
1000
0000
1000
1000
0000
0000
1000
0000
1000
1000
0000
0000
1000
0000
1000
1000
0000
0000
1000
0000
1000
,
1000
0000
0000
1000
0000
1000
1000
0000
0000
1000
0000
1000
1000
0000
0000
1000
0000
1000
1000
0000
0000
1000
0000
1000
,
1000
0000
0000
1000
0000
1000
1000
0000
0000
1000
0000
1000
1000
0000
0000
1000
0000
1000
1000
0000
0000
1000
0000
1000
,
1000
0000
0000
1000
0000
1000
1000
0000
0000
1000
0000
1000
1000
0000
0000
1000
0000
1000
1000
0000
0000
1000
0000
1000
,
1000
0000
0000
1000
0000
1000
1000
0000
0000
1000
0000
1000
1000
0000
0000
1000
0000
1000
1000
0000
0000
1000
0000
1000
,
1000
0000
0000
1000
0000
1000
1000
0000
0000
1000
0000
1000
1000
0000
0000
1000
0000
1000
1000
0000
0000
1000
0000
1000
,
1000
0000
0000
1000
0000
1000
1000
0000
0000
1000
0000
1000
1000
0000
0000
1000
0000
1000
1000
0000
0000
1000
0000
1000
,
1000
0000
0000
1000
0000
1000
1000
0000
0000
1000
0000
1000
1000
0000
0000
1000
0000
1000
1000
0000
0000
1000
0000
1000
,
1000
0000
0000
1000
0000
1000
1000
0000
0000
1000
0000
1000
1000
0000
0000
1000
0000
1000
1000
0000
0000
1000
0000
1000
,
1000
0000
0000
1000
0000
1000
1000
0000
0000
1000
0000
1000
1000
0000
0000
1000
0000
1000
1000
0000
0000
1000
0000
1000
,
1000
0000
0000
1000
0000
1000
1000
0000
0000
1000
0000
1000
1000
0000
0000
1000
0000
1000
1000
0000
0000
1000
0000
1000
,
1000
0000
0000
1000
0000
1000
1000
0000
0000
1000
0000
1000
1000
0000
0000
1000
0000
1000
1000
0000
0000
1000
0000
1000
,
1000
0000
0000
1000
0000
1000
1000
0000
0000
1000
0000
1000
1000
0000
0000
1000
0000
1000
1000
0000
0000
1000
0000
1000
,
1000
0000
0000
1000
0000
1000
1000
0000
0000
1000
0000
1000
1000
0000
0000
1000
0000
1000
1000
0000
0000
1000
0000
1000
,
1000
0000
0000
1000
0000
1000
1000
0000
0000
1000
0000
1000
1000
0000
0000
1000
0000
1000
1000
0000
0000
1000
0000
1000
,
1000
0000
0000
1000
0000
1000
1000
0000
0000
1000
0000
1000
1000
0000
0000
1000
0000
1000
1000
0000
0000
1000
0000
1000
,
1000
0000
0000
1000
0000
1000
1000
0000
0000
1000
0000
1000
1000
0000
0000
1000
0000
1000
1000
0000
0000
1000
0000
1000
,
1000
0000
0000
1000
0000
1000
1000
0000
0000
1000
0000
1000
1000
0000
0000
1000
0000
1000
1000
0000
0000
1000
0000
1000
,
1000
0000
0000
1000
0000
1000
1000
0000
0000
1000
0000
1000
1000
0000
0000
1000
0000
1000
1000
0000
0000
1000
0000
1000
,
1000
0000
0000
1000
0000
1000
1000
0000
0000
1000
0000
1000
1000
0000
0000
1000
0000
1000
1000
0000
0000
1000
0000
1000
,
1000
0000
0000
1000
0000
1000
1000
0000
0000
1000
0000
1000
1000
0000
0000
1000
0000
1000
1000
0000
0000
1000
0000
1000
,
1000
0000
0000
1000
0000
1000
1000
0000
0000
1000
0000
1000
1000
0000
0000
1000
0000
1000
1000
0000
0000
1000
0000
1000
,
1000
0000
0000
1000
0000
1000
1000
0000
0000
1000
0000
1000
1000
0000
0000
1000
0000
1000
1000
0000
0000
1000
0000
1000
,
1000
0000
0000
1000
0000
1000
1000
0000
0000
1000
0000
1000
1000
0000
0000
1000
0000
1000
1000
0000
0000
1000
0000
1000
,
1000
0000
0000
1000
0000
1000
1000
0000
0000
1000
0000
1000
1000
0000
0000
1000
0000
1000
1000
0000
0000
1000
0000
1000
,
1000
0000
0000
1000
0000
1000
1000
0000
0000
1000
0000
1000
1000
0000
0000
1000
0000
1000
1000
0000
0000
1000
0000
1000
,
1000
0000
0000
1000
0000
1000
1000
0000
0000
1000
0000
1000
1000
0000
0000
1000
0000
1000
1000
0000
0000
1000
0000
1000
,
1000
0000
0000
1000
0000
1000
1000
0000
0000
1000
0000
1000
1000
0000
0000
1000
0000
1000
1000
0000
0000
1000
0000
1000
,
1000
0000
0000
1000
0000
1000
1000
0000
0000
1000
0000
1000
1000
0000
0000
1000
0000
1000
1000
0000
0000
1000
0000
1000
,
1000
0000
0000
1000
0000
1000
1000
0000
0000
1000
0000
1000
1000
0000
0000
1000
0000
1000
1000
0000
0000
1000
0000
1000
,
1000
0000
0000
1000
0000
1000
1000
0000
0000
1000
0000
1000
1000
0000
0000
1000
0000
1000
1000
0000
0000
1000
0000
1000
,
1000
0000
0000
1000
0000
1000
1000
0000
0000
1000
0000
1000
1000
0000
0000
1000
0000
1000
1000
0000
0000
1000
0000
1000
,
1000
0000
0000
1000
0000
1000
1000
0000
0000
1000
0000
1000
1000
0000
0000
1000
0000
1000
1000
0000
0000
1000
0000
1000
,
1000
0000
0000
1000
0000
1000
1000
0000
0000
1000
0000
1000
1000
0000
0000
1000
0000
1000
1000
0000
0000
1000
0000
1000
,
1000
0000
0000
1000
0000
1000
1000
0000
0000
1000
0000
1000
1000
0000
0000
1000
0000
1000
1000
0000
0000
1000
0000
1000
,
1000
0000
0000
1000
0000
1000
1000
0000
0000
1000
0000
1000
1000
0000
0000
1000
0000
1000
1000
0000
0000
1000
0000
1000
,
1000
0000
0000
1000
0000
1000
1000
0000
0000
1000
0000
1000
1000
0000
0000
1000
0000
1000
1000
0000
0000
1000
0000
1000
,
1000
0000
0000
1000
0000
1000
1000
0000
0000
1000
0000
1000
1000
0000
0000
1000
0000
1000
1000
0000
0000
1000
0000
1000
,
1000
0000
0000
1000
0000
1000
1000
0000
0000
1000
0000
1000
1000
0000
0000
1000
0000
1000
1000
0000
0000
1000
0000
1000
,
1000
0000
0000
1000
0000
1000
1000
0000
0000
1000
0000
1000
1000
0000
0000
1000
0000
1000
1000
0000
0000
1000
0000
1000
,
1000
0000
0000
1000
0000
1000
1000
0000
0000
1000
0000
1000
1000
0000
0000
1000
0000
1000
1000
0000
0000
1000
0000
1000
,
1000
0000
0000
1000
0000
1000
1000
0000
0000
1000
0000
1000
1000
0000
0000
1000
0000
1000
1000
0000
0000
1000
0000
1000
,
1000
0000
0000
1000
0000
1000
1000
0000
0000
1000
0000
1000
1000
0000
0000
1000
0000
1000
1000
0000
0000
1000
0000
1000
,
1000
0000
0000
0000
0000
0000
0000
1000
0000
0000
0000
0000
1000
0000
0000
0000
0000
0000
0000
0000
0000
0000
0000
0000
,
1000
1000
1000
1000
1000
1000
1000
1000
,
1000
1000
1000
1000
1000
1000
1000
1000
,
1000
1000
1000
1000
1000
1000
1000
1000
,
1000
0000
0000
1000
0000
1000
1000
0000
0000
1000
0000
1000
1000
0000
0000
1000
0000
1000
1000
0000
0000
1000
0000
1000
,
1000
0000
0000
1000
0000
1000
1000
0000
0000
1000
0000
1000
1000
0000
0000
1000
0000
1000
1000
0000
0000
1000
0000
1000
,
1000
0000
0000
1000
0000
1000
1000
0000
0000
1000
0000
1000
1000
0000
0000
1000
0000
1000
1000
0000
0000
1000
0000
1000
,
1000
0000
0000
1000
0000
1000
1000
0000
0000
1000
0000
1000
1000
0000
0000
1000
0000
1000
1000
0000
0000
1000
0000
1000
,
1000
0000
0000
1000
0000
1000
1000
0000
0000
1000
0000
1000
1000
0000
0000
1000
0000
1000
1000
0000
0000
1000
0000
1000
,
1000
0000
0000
1000
0000
1000
1000
0000
0000
1000
0000
1000
1000
0000
0000
1000
0000
1000
1000
0000
0000
1000
0000
1000
,
1000
0000
0000
1000
0000
1000
1000
0000
0000
1000
0000
1000
1000
0000
0000
1000
0000
1000
1000
0000
0000
1000
0000
1000
,
1000
0000
0000
1000
0000
1000
1000
0000
0000
1000
0000
1000
1000
0000
0000
1000
0000
1000
1000
0000
0000
1000
0000
1000
,
1000
0000
0000
1000
0000
1000
1000
0000
0000
1000
0000
1000
1000
0000
0000
1000
0000
1000
1000
0000
0000
1000
0000
1000
,
1000
0000
0000
1000
0000
1000
1000
0000
0000
1000
0000
1000
1000
0000
0000
1000
0000
1000
1000
0000
0000
1000
0000
1000
,
1000
0000
0000
1000
0000
1000
1000
0000
0000
1000
0000
1000
1000
0000
0000
1000
0000
1000
1000
0000
0000
1000
0000
1000
,
1000
0000
0000
1000
0000
1000
1000
0000
0000
1000
0000
1000
1000
0000
0000
1000
0000
1000
1000
0000
0000
1000
0000
1000
,
1000
0000
0000
1000
0000
1000
1000
0000
0000
1000
0000
1000
1000
0000
0000
1000
0000
1000
1000
0000
0000
1000
0000
1000
,
1000
0000
0000
1000
0000
1000
1000
0000
0000
1000
0000
1000
1000
0000
0000
1000
0000
1000
1000
0000
0000
1000
0000
1000
,
1000
0000
0000
1000
0000
1000
1000
0000
0000
1000
0000
1000
1000
0000
0000
1000
0000
1000
1000
0000
0000
1000
0000
1000
,
1000
0000
0000
1000
0000
1000
1000
0000
0000
1000
0000
1000
1000
0000
0000
1000
0000
1000
1000
0000
0000
1000
0000
1000
,
1000
0000
0000
1000
0000
1000
1000
0000
0000
1000
0000
1000
1000
0000
0000
1000
0000
1000
1000
0000
0000
1000
0000
1000
,
1000
0000
0000
1000
0000
1000
1000
0000
0000
1000
0000
1000
1000
0000
0000
1000
0000
1000
1000
0000
0000
1000
0000
1000
,
1000
0000
0000
0000
0000
0000
1000
1000
,
1000
0000
0000
0000
;
