#TITLE:EMP Cloud;
#SUBTITLE:(Experimental);
#ARTIST:Kobaryo;
#TITLETRANSLIT:;
#SUBTITLETRANSLIT:;
#ARTISTTRANSLIT:;
#CREDIT:Owem;
#BANNER:;
#BACKGROUND:;
#LYRICSPATH:;
#CDTITLE:;
#MUSIC:Kobaryo - EMP Cloud.ogg;
#OFFSET:-0.072;
#SAMPLESTART:97.786;
#SAMPLELENGTH:29.999;
#SELECTABLE:YES;
#BPMS:0.000=175.000;
#STOPS:;
#BGCHANGES:;
// cache tags:
#FIRSTBEAT:1.500;
#LASTBEAT:777.500;
#SONGFILENAME:Songs/Owem's Simfiles 08 (not release)/EMP Cloud - [Owem] v1.0.2/EMP Cloud.sm;
#HASMUSIC:1;
#HASBANNER:0;
#MUSICLENGTH:268.408;
// end cache tags

//---------------dance-single - 96/1-1----------------
#NOTES:
     dance-single:
     96/1-1:
     Challenge:
     16:
     1.000,1.000,0.041,0.306,1.000,2521.000,11.000,82.000,2.000,0.000:
0000
0000
0000
0000
0000
0000
0002
0000
0000
1003
0000
0000
0100
0010
0000
0001
,
1000
0000
0010
0000
0100
0001
1000
0001
1000
0010
0100
0010
1000
0001
0000
0000
,
0010
0100
1000
0001
1000
0100
0010
0000
0001
0100
0000
0010
0100
0001
1000
0001
,
0100
0000
0000
0000
0000
0000
0000
0000
0000
0000
0000
0000
0000
0000
0000
0000
0000
0000
0000
0000
0000
0000
0000
0000
0000
0000
0000
0000
0000
0000
0000
0000
0000
0000
0000
0000
0001
0000
0000
0000
0000
0000
1000
0000
0000
0000
0000
0000
0001
0000
0000
0000
0000
0000
0000
0000
0000
0000
0000
0000
0000
0000
0000
0000
0000
0000
0000
0000
0000
0000
0000
0000
0001
0000
0000
0000
0000
0000
0000
0000
0000
0000
0000
0000
0000
0000
0000
0000
0000
0000
0000
0000
0000
0000
0000
0000
0000
0000
0000
0000
0000
0000
0000
0000
0000
0000
0000
0000
0100
0000
0000
0000
0000
0000
0000
0010
0000
0000
0000
0000
0000
0000
1000
0000
0000
0000
0000
0000
0000
0001
0000
0000
0000
0000
0000
0000
0000
0000
1000
0000
0000
0000
0000
0000
0010
0000
0000
0000
0000
0000
0000
0000
0000
0000
0000
0000
0100
0000
0000
0000
0000
0000
0000
0000
0000
0000
0000
0000
0001
0000
0000
0000
0000
0000
0000
0000
0000
0000
0000
0000
1000
0000
0000
0000
0000
0000
0000
0000
0000
0000
0000
0000
,
0001
0000
0100
0000
0001
0000
0100
0000
0001
0000
0100
0000
0002
0000
0000
0000
0000
0000
0000
0000
0000
2003
0000
0000
0000
0000
0000
0000
0000
0000
3200
0000
0000
0000
0000
0000
0000
0000
0000
0320
0000
0000
0000
0000
0000
0030
0000
0000
,
0020
0000
0000
0000
0000
0000
0000
0000
0000
0000
0031
1000
0001
0100
0010
2000
,
0000
0000
3200
0000
0000
0320
0000
0030
0020
0000
0000
0032
0000
0003
0002
0000
,
2003
0000
0000
0000
0000
0000
0000
0000
0000
0000
0000
0000
0000
0000
0000
3020
0000
0000
0000
0000
0000
0230
0000
0000
0000
0000
0000
0000
0000
0000
0301
0000
1000
0000
0001
0000
2000
0000
0000
0000
0000
0000
0000
0000
0000
0000
0000
0000
,
0000
0000
0000
0000
0000
0000
3100
0000
0010
0000
0001
0000
2M00
0000
0000
0000
0000
0000
0000
0000
0000
0000
0000
0000
0000
0000
0000
3020
0000
0000
0000
0000
0000
0000
0000
0000
0130
0000
0000
0002
0000
0000
0000
0000
0000
0000
0000
0000
,
0000
0000
0000
0000
0000
0000
0000
0000
0000
0000
0000
0000
0000
0000
0000
0000
1003
0000
0000
0000
0100
0000
0000
0000
0010
0000
0000
0000
0001
0000
0000
0000
1000
0000
0000
0000
0020
0030
0000
0000
2000
0000
0000
0000
0000
0000
0000
0000
0000
0000
0000
0000
0000
0000
0000
0000
3002
0000
0000
0000
0000
0000
0000
0000
,
0000
0000
0000
0000
0103
0020
0000
0000
0000
0000
0000
0000
1030
0000
0000
0000
0001
0000
0100
0000
0001
0000
1000
0000
0010
0000
0100
0000
0010
1000
0000
0000
,
0000
0000
0000
0002
0000
0000
0000
0000
0000
0000
0000
0000
0000
0000
0000
0000
0000
0000
0000
0000
0000
0000
0000
0000
1003
0000
0000
0000
0000
0000
0010
0000
0100
0000
0010
0000
0200
0000
0000
0000
0000
0000
0000
0000
0000
0001
0000
0000
,
0300
0000
0001
0000
1000
0010
1000
0200
0000
0000
0000
0010
0000
0000
0000
0310
,
0000
0000
0000
0000
0000
0000
0000
0000
0000
0000
0000
0000
0010
0000
0000
0000
0000
0000
0000
0000
0000
0000
0000
0000
0001
0000
0000
0000
0000
0000
0000
0000
0000
0000
0000
0000
1000
0000
0000
0000
0000
0000
0000
0000
0000
0000
0000
0000
0001
0000
0000
0000
0000
0000
0000
0000
0000
0000
0000
0000
0100
0000
0000
0000
0000
0000
0000
0000
0000
0000
0000
0000
0000
0000
0000
0000
0000
0000
0000
0000
0000
0000
0000
0000
0000
0000
0000
0000
0000
0000
0000
0000
0000
0000
0000
0000
0010
0000
0000
0000
0000
0000
0000
0000
0000
0000
0000
0000
1000
0000
0000
0000
0000
0000
0000
0001
0000
0000
0000
0000
0000
0000
0000
1000
0000
0000
0000
0000
0000
0000
0001
0000
0000
0000
0000
0000
0000
1000
0000
0000
0000
0000
0000
0000
0001
0000
0000
0000
0000
0000
0000
0000
0000
0000
0000
0000
0100
0000
0000
0000
0000
0000
0000
0000
0000
0000
0000
0000
0020
0000
0000
0000
0000
0000
0000
0000
0000
0000
0000
0000
0000
0000
0000
0000
0000
0000
0000
0000
0000
0000
0000
0000
,
1030
0002
0000
0103
0020
0000
2030
0000
0000
3004
0000
0000
0103
0010
0000
0000
,
0100
0001
0000
1000
0001
0000
0010
0100
1000
0001
1000
0010
0100
0000
0000
0004
,
0000
0000
0000
0000
1003
0000
0010
1000
0020
0000
0000
0000
0000
0000
0000
0000
0000
0000
0000
0000
0230
0000
0000
0000
0000
0000
0301
0000
2000
0000
0000
0000
,
0000
3100
0020
0031
,
1000
0000
0001
0000
0000
0000
0100
0000
0010
0000
0000
0000
0100
0000
0000
0000
0000
0000
0001
0000
0000
0000
1000
0010
2000
0000
0000
0000
0000
0000
3001
0000
,
0100
0000
0010
0100
0020
0000
1030
0001
1000
0100
0010
0001
1000
0001
0200
0000
,
0310
1000
0001
1000
0100
0010
0001
1000
0001
0200
0000
0300
0020
0000
0100
0000
,
0230
0000
0000
0000
0302
0000
0000
0000
0000
0000
0000
2003
0000
0000
0000
0000
,
0000
0000
0000
0000
0000
3100
0000
0010
0001
1000
0000
0010
0100
0010
1000
0001
,
1000
0100
1000
0010
0100
0001
0000
1000
0100
0000
0000
0020
0000
0000
0000
0000
,
0000
0000
0000
0030
0001
0000
1000
0000
0001
0000
0100
0000
0010
0000
1000
0000
,
0010
0100
0010
1000
0001
0100
0001
1000
,
0100
0010
0001
1000
0100
1000
0010
0100
,
0010
1000
0001
0010
0100
0010
0001
1000
,
0100
1000
0001
1000
0010
0100
0010
1000
,
0001
1000
0100
0010
0001
1000
0100
1000
,
0001
0100
0010
1000
0010
0100
0001
1000
,
0100
0010
0001
1000
0100
1000
0001
0010
,
0100
0000
1000
0000
00M1
0000
0100
0010
1000
0000
0001
1000
0001
0000
0010
0100
,
1000
0000
0010
0100
0010
0000
1000
0001
1000
0000
0020
0000
0130
0001
1000
0001
,
0010
0000
0100
0000
1000
0000
0010
0100
0001
0000
1000
0100
1000
0000
0010
0100
,
0001
0000
4000
3010
0100
0000
0001
1000
0001
0000
0020
0000
0130
1000
0001
1000
,
0010
0000
0100
0000
0001
0000
0010
0100
1000
0000
0001
0100
0010
0000
1000
0010
,
1000
0000
0000
0000
0000
0000
0000
0000
0004
0000
0000
0000
0013
0000
0000
0000
0200
0300
0000
0000
0000
0000
0000
0000
1000
0000
0000
0000
0010
0000
0000
0000
0100
0000
0000
0000
0000
0000
0000
0000
0001
0000
0000
0000
1000
0000
0000
0000
0001
0000
0000
0000
0100
0000
0000
0000
0010
0000
0000
0000
1000
0000
0000
0000
,
0010
0000
0100
0000
0001
0000
1000
0100
1000
0000
0010
0100
0001
0000
1000
0100
,
1000
0000
0100
0010
0001
0000
1000
0010
0100
0000
0001
1000
0001
0100
0010
1000
,
0010
0000
0100
0000
0102
0000
1003
0100
1000
0000
0010
0100
0001
0000
1000
0100
,
0010
0000
0001
1000
0001
0000
0100
0010
1000
0000
0001
0010
0001
0100
0010
1000
,
0001
0000
0010
0000
0100
0000
1000
0001
1000
0000
0010
0100
0001
0000
1000
0100
,
1000
0000
0001
0010
0001
0000
1000
0100
0010
0000
0001
1000
0001
0100
0010
1000
,
0001
0000
0010
0000
0100
0000
1000
0100
1000
0000
0001
0100
0010
0000
1000
0010
,
1000
0000
0001
0010
0100
0000
1000
0010
0100
0000
0001
1000
0001
0100
0010
1000
,
0010
0000
0100
0000
0001
0000
1000
0100
1000
0000
0010
0100
0001
0000
1000
0100
,
1000
0000
0100
0010
0001
0000
1000
0010
0100
0000
0001
1000
0001
0100
0010
1000
,
0010
0000
0100
0000
0102
0000
1003
0100
1000
0000
0010
0100
0001
0000
1000
0100
,
0010
0000
0001
1000
0001
0000
0100
0010
1000
0000
0001
0010
0001
0100
0010
1000
,
0001
0000
0010
0000
0100
0000
1000
0001
1000
0000
0010
0100
0001
0000
1000
0100
,
1000
0000
0001
0010
0001
0000
1000
0100
0010
0000
0001
1000
0001
0100
0010
1000
,
0001
0000
0010
0000
0100
0000
0001
1000
0010
0000
0001
0100
0010
0000
1000
0010
,
1000
0000
0001
0100
0010
0000
1000
0010
0100
0000
0001
1000
0001
0100
0010
1000
,
0010
0000
0100
0000
0001
0000
1000
0100
1000
0000
0010
0100
0001
0000
1000
0100
,
1000
0000
0100
0010
0001
0000
1000
0010
0100
0000
0001
1000
0001
0100
0010
1000
,
0001
0000
0010
0000
0012
0000
0013
0100
1000
0000
0010
0100
0001
0000
1000
0100
,
0010
0000
0001
1000
0001
0000
0100
0010
1000
0000
0001
0010
0001
0100
0010
1000
,
0001
0000
0010
0000
0100
0000
1000
0001
1000
0000
0010
0100
0001
0000
1000
0100
,
1000
0000
0001
0010
0001
0000
1000
0100
0010
0000
0001
1000
0001
0100
0010
1000
,
0001
0000
0010
0000
0100
0000
1000
0001
0100
0000
0010
0100
0010
0000
0100
0001
,
1000
0000
0001
0010
0100
0000
1000
0010
0100
0000
0001
1000
0001
0100
0010
1000
,
0010
0000
0100
0000
0001
0000
1000
0100
1000
0000
0010
0100
0001
0000
1000
0100
,
1000
0000
0100
0010
0001
0000
1000
0010
0100
0000
0001
1000
0001
0010
0100
1000
,
0001
0000
1000
0000
1002
0000
1003
0100
1000
0000
0010
0100
0001
0000
1000
0100
,
0010
0000
0001
1000
0001
0000
0100
0010
1000
0000
0001
0010
0001
0000
0100
0010
,
1000
0000
0100
0010
0001
0000
1000
0001
1000
0000
0010
0100
0001
0000
1000
0100
,
1000
0000
0001
0010
0001
0000
1000
0100
0010
0000
0001
1000
0001
0000
0100
0010
,
4000
0000
3001
0100
0010
0000
1000
0001
1000
0000
0100
0010
0001
1000
0001
0100
,
0010
0000
1000
0100
1000
0000
0001
0100
0010
0000
1000
0001
1000
0000
0010
0100
,
0001
0000
1000
0100
0010
0000
0001
1000
0001
0000
0100
0010
1000
0000
0001
0010
,
0100
0000
1000
0010
0100
0000
0001
1000
0001
0000
0010
0100
2000
0000
0000
0000
,
0000
0000
0000
0000
3001
0010
0100
1000
0010
0100
0001
0100
0010
1000
0001
1000
,
0100
0010
0001
1000
0100
1000
0001
0010
0001
1000
0001
0100
0010
0100
0001
1000
,
0010
1000
0100
0010
0001
1000
0100
1000
0001
0010
0001
0100
0010
0100
0001
1000
,
0010
1000
0100
0010
0001
1000
0100
1000
0001
1000
0100
0010
0001
1000
0001
0100
,
0010
0100
0001
1000
0010
1000
0001
0100
0001
1000
0100
1000
0001
0010
0100
0010
,
0001
1000
0100
1000
0010
0100
0001
1000
0001
0100
0010
0100
0001
1000
0010
1000
,
0100
0010
0001
1000
0100
1000
0001
0100
0010
0100
0001
1000
0100
1000
0010
0100
,
0001
1000
0001
0010
0100
1000
0100
0010
0001
1000
0100
1000
0010
0100
0001
1000
,
0001
0010
0100
1000
0001
1000
0100
1000
0010
0100
0010
1000
0001
0100
0001
1000
,
0100
0010
0001
1000
0010
0100
0001
1000
0100
1000
0010
0100
0010
1000
0001
0100
,
0001
1000
0010
0100
0010
1000
0100
0010
0001
1000
0001
0100
0010
1000
0010
0100
,
0001
1000
0100
0010
0001
1000
0100
1000
0010
0100
0010
1000
0001
0010
0100
0010
,
0001
1000
0100
1000
0010
0100
0001
0100
0010
1000
0001
1000
0100
0010
0001
1000
,
0100
1000
0010
0100
0001
1000
0001
0010
0100
1000
0001
0010
0001
0100
0010
1000
,
0010
0100
0001
1000
0100
1000
0001
0010
0001
1000
0100
0010
0100
1000
0001
0010
,
0001
0100
0010
1000
0010
0100
0001
1000
0100
1000
0010
0100
0010
1000
0001
0100
,
0001
1000
0100
0010
0001
1000
0100
1000
0010
0100
0001
0100
0010
1000
0001
1000
,
0100
0010
0001
1000
0100
1000
0001
0010
0001
1000
0001
0100
0010
0100
0001
1000
,
0010
1000
0100
0010
0001
1000
0100
1000
0001
0010
0001
0100
0010
0100
0001
1000
,
0010
1000
0100
0010
0001
1000
0100
1000
0001
1000
0100
0010
0001
1000
0001
0100
,
0010
0100
0001
1000
0010
1000
0001
0100
0001
1000
0100
1000
0001
0010
0100
0010
,
0001
1000
0100
1000
0010
0100
0001
1000
0001
0100
0010
0100
0001
1000
0010
1000
,
0100
0010
0001
1000
0100
1000
0001
0100
0010
0100
0001
1000
0100
1000
0010
0100
,
0001
1000
0001
0010
0100
1000
0100
0010
0001
1000
0100
1000
0010
0100
0001
1000
,
0001
0010
0100
1000
0001
1000
0100
1000
0010
0100
0010
1000
0001
0100
0001
1000
,
0100
0010
0001
1000
0010
0100
0001
1000
0100
1000
0010
0100
0010
1000
0001
0100
,
0010
1000
0010
0100
0001
1000
0001
1000
0010
0100
0010
1000
0100
0010
0001
1000
,
0001
0100
0010
1000
0010
0100
0001
1000
0100
0010
0001
1000
0100
1000
0010
0100
,
0010
1000
0001
0010
0100
0010
0001
1000
0100
1000
0010
0100
0001
0100
0010
1000
,
0001
1000
0100
0010
0001
1000
0100
1000
0010
0100
0001
1000
0001
0010
0100
1000
,
0001
0010
0001
0100
0010
1000
0010
0100
0001
1000
0100
1000
0001
0010
0001
1000
,
0100
0010
0100
1000
0001
0010
0001
0100
0010
1000
0010
0100
0001
1000
0100
1000
,
0010
0100
0010
1000
0001
0100
0001
1000
0100
0010
0001
1000
0100
1000
0010
0100
,
0001
0100
0010
1000
0001
1000
0100
0010
0001
1000
0100
1000
0001
0010
0001
1000
,
0001
0100
0010
0100
0001
1000
0010
1000
0100
0010
0001
1000
0100
1000
0001
0010
,
0001
0100
0010
0100
0001
1000
0010
1000
0100
0010
0001
1000
0100
1000
0001
1000
,
0100
0010
0001
1000
0001
0100
0010
0100
0001
1000
0010
1000
0001
0100
0001
1000
,
0100
1000
0001
0010
0100
0010
0001
1000
0100
1000
0010
0100
0001
1000
0001
0100
,
0010
0100
0001
1000
0010
1000
0100
0010
0001
1000
0100
1000
0001
0100
0010
0100
,
0001
1000
0100
1000
0010
0100
0001
1000
0001
0010
0100
1000
0100
0010
0001
1000
,
0100
1000
0010
0100
0001
1000
0001
0010
0100
1000
0001
1000
0100
1000
0010
0100
,
0010
1000
0001
0100
0001
1000
0100
0010
0001
1000
0010
0100
0001
1000
0100
1000
,
0010
0100
0001
0100
0010
1000
0001
0100
0001
1000
0010
0100
0010
1000
0100
0010
,
0001
1000
0001
0100
0010
1000
0010
0100
0001
1000
0100
0010
0001
1000
0100
1000
,
0010
0100
0010
1000
0001
0010
0100
0010
0001
1000
0100
1000
0010
0100
0001
0100
,
0010
1000
0001
1000
0100
0010
0001
1000
0100
1000
0010
0100
0001
1000
0001
0010
,
0100
1000
0001
0010
0001
0100
0010
1000
0010
0100
0001
1000
0100
1000
0001
0010
,
0001
1000
0100
0010
0100
1000
0001
0010
0001
0100
0010
1000
0010
0100
0001
1000
,
0100
1000
0010
0100
0010
1000
0001
0100
0001
1000
0100
0010
0001
1000
0100
1000
,
0010
0100
0001
0100
0010
1000
0001
1000
0100
0010
0001
1000
0100
1000
0001
0010
,
0001
1000
0001
0100
0010
0100
0001
1000
0010
1000
0100
0010
0001
1000
0100
1000
,
0001
0010
0001
0100
0010
0100
0001
1000
0010
1000
0100
0010
0001
1000
0100
1000
,
0001
1000
0100
0010
0001
1000
0001
0100
0010
0100
0001
1000
0010
1000
0001
0100
,
0001
1000
0100
1000
0001
0010
0100
0010
0001
1000
0100
1000
0010
0100
0001
1000
,
0001
0100
0010
0100
0001
1000
0010
1000
0100
0010
0001
1000
0100
1000
0001
0100
,
0010
0100
0001
1000
0100
1000
0010
0100
0001
1000
0001
0010
0100
1000
0100
0010
,
0001
1000
0100
1000
0010
0100
0001
1000
0001
0010
0100
1000
0001
1000
0100
1000
,
0010
0100
0010
1000
0001
0100
0001
1000
0010
0100
0010
1000
0100
0010
0001
1000
,
0001
0100
0010
1000
0010
0100
0001
1000
0100
0010
0001
1000
0100
1000
0010
0100
,
0010
1000
0001
0010
0100
0010
0001
1000
0100
1000
0010
0100
0001
0100
0010
1000
,
0001
1000
0100
0010
0001
1000
0100
1000
0010
0100
0001
1000
0001
0010
0100
1000
,
0001
0010
0001
0100
0010
1000
0010
0100
0001
1000
0100
1000
0001
0010
0001
1000
,
0100
0010
0100
1000
0001
0010
0001
0100
0010
1000
0010
0100
0001
1000
0100
1000
,
0010
0100
0010
1000
0001
0100
0001
1000
0100
0010
0001
1000
0100
1000
0010
0100
,
0001
0100
0010
1000
0001
1000
0100
0010
0001
1000
0100
1000
0001
0010
0001
1000
,
0001
0100
0010
0100
0001
1000
0010
1000
0100
0010
0001
1000
0100
1000
0001
0010
,
0001
0100
0010
0100
0001
1000
0010
1000
0100
0010
0001
1000
0100
1000
0001
1000
,
0100
0010
0001
1000
0001
0100
0010
0100
0001
1000
0010
1000
0001
0100
0001
1000
,
0100
1000
0001
0010
0100
0010
0001
1000
0100
1000
0010
0100
0001
1000
0001
0100
,
0010
0100
0001
1000
0010
1000
0100
0010
0001
1000
0100
1000
0001
0100
0010
0100
,
0001
1000
0100
1000
0010
0100
0001
1000
0001
0010
0100
1000
0100
0010
0001
1000
,
0100
1000
0010
0100
0001
1000
0001
0010
0100
1000
0001
1000
0100
1000
0010
0100
,
0010
1000
0001
0100
0001
1000
0100
0010
0001
1000
0010
0100
0001
1000
0100
1000
,
0010
0100
0010
1000
0001
0100
0010
1000
0010
0100
0001
1000
0001
1000
0010
0100
,
0010
1000
0100
0010
0001
1000
0001
0100
0010
1000
0010
0100
0001
1000
0100
0010
,
0001
1000
0100
1000
0010
0100
0010
1000
0001
0010
0100
0010
0001
1000
0100
1000
,
0010
0100
0001
0100
0010
1000
0001
1000
0100
0010
0001
1000
0100
1000
0010
0100
,
0001
1000
0001
0010
0100
1000
0001
0010
0001
0100
0010
1000
0010
0100
0001
1000
,
0100
1000
0001
0010
0001
1000
0100
0010
0100
1000
0001
0010
0001
0100
0010
1000
,
0010
0100
0001
1000
0100
1000
0010
0100
0010
1000
0001
0100
0001
1000
0100
0010
,
0001
1000
0100
1000
0010
0100
0001
0100
0010
1000
0001
1000
0100
0010
0001
1000
,
0100
1000
0001
0010
0001
1000
0001
0100
0010
0100
0001
1000
0010
1000
0100
0010
,
0001
1000
0100
1000
0001
0010
0001
0100
0010
0100
0001
1000
0010
1000
0100
0010
,
0001
1000
0100
1000
0001
1000
0100
0010
0001
1000
0001
0100
0010
0100
0001
1000
,
0010
1000
0001
0100
0001
1000
0100
1000
0001
0010
0100
0010
0001
1000
0100
1000
,
0010
0100
0001
1000
0001
0100
0010
0100
0001
1000
0010
1000
0100
0010
0001
1000
,
0100
1000
0001
0100
0010
0100
0001
1000
0100
1000
0010
0100
0001
1000
0001
0010
,
0100
1000
0100
0010
0001
1000
0100
1000
0010
0100
0001
1000
0001
0010
0100
1000
,
0001
1000
0100
1000
0010
0100
0010
1000
0001
0100
0001
1000
0100
0010
0001
1000
,
0010
0100
0001
1000
0100
1000
0010
0100
0001
0100
0010
1000
0001
0100
0001
1000
,
0010
0100
0010
1000
0100
0010
0001
1000
0001
0100
0010
1000
0010
0100
0001
1000
,
0100
0010
0001
1000
0100
1000
0010
0100
0010
1000
0001
0010
0100
0010
0001
1000
,
0100
1000
0010
0100
0001
0100
0010
1000
0001
1000
0100
0010
0001
1000
0100
1000
,
0010
0100
0001
1000
0001
0010
0100
1000
0001
0010
0001
0100
0010
1000
0010
0100
,
0001
1000
0100
1000
0001
0010
0001
1000
0100
0010
0100
1000
0001
0010
0001
0100
,
0010
1000
0010
0100
0001
1000
0100
1000
0010
0100
0010
1000
0001
0100
0001
1000
,
0100
0010
0001
1000
0100
0000
0010
0000
0001
0000
1000
0000
0010
0000
0100
0000
,
0010
1000
0001
0100
0001
1000
0100
0010
,
0001
1000
0100
1000
0010
0100
0010
1000
,
0001
0010
0100
0010
0001
1000
0100
1000
,
0010
0100
0001
1000
0100
1000
0001
0010
,
0100
0010
0001
1000
0100
1000
0010
0100
,
0010
1000
0001
0100
0001
1000
0100
0010
,
0001
1000
0100
1000
0010
0100
0010
1000
,
0001
0100
0010
1000
0010
0100
0010
1000
,
0001
0100
0001
1000
0100
0010
0001
1000
,
0100
1000
0010
0100
0010
1000
0001
0010
,
0100
0010
0001
1000
0100
1000
0001
1000
,
0010
0100
0010
1000
0001
0100
0001
1000
,
0100
0000
0010
0000
0100
0000
1000
0000
0001
0000
1000
0000
0010
0100
0010
1000
,
0001
0010
0100
1000
0001
1000
0001
0100
0010
0000
0100
0001
1000
0001
1000
0100
,
0020
0031
1000
0001
0200
0000
0000
0320
0000
0000
1030
0000
0001
1000
0200
0000
,
0000
0000
0000
0000
0000
0000
0000
0000
0000
0000
0000
0000
0310
0000
0000
0000
0000
0000
0000
0001
0000
0000
0000
0000
0000
0000
0000
0010
0000
0000
0000
0000
0000
0000
0001
0000
0000
0000
0000
0000
0000
0010
0000
0000
0000
0000
0000
0000
0004
0000
0000
0000
0000
0000
0000
0000
0000
0000
0000
0000
0000
0000
0000
0000
0000
0000
0000
0000
0000
0000
0000
0000
0000
0000
0000
0000
0000
0000
0000
0000
0000
0000
0000
0000
0000
0000
0000
0000
0000
0000
0000
0000
0000
0000
0000
0000
0000
0000
0000
0000
0000
0000
0000
0000
0000
0000
0000
0000
1003
0000
0000
0000
0000
0000
0000
0000
0000
0000
0000
0000
0000
0000
0000
0000
0000
0000
0000
0000
0000
0000
0000
0000
0020
0000
0000
0000
0000
0000
0000
0000
0000
0000
0000
0000
0000
0000
0000
0000
0000
0000
0000
0000
0000
0000
0000
0000
0000
0000
0000
0000
0000
0000
0000
0000
0000
0000
0000
0000
0230
0000
0000
0000
0000
0000
0000
0000
0000
0000
0000
0000
0000
0000
0000
0000
0000
0000
0000
0000
0000
0000
0000
0000
,
0000
0000
0000
0000
0000
0000
0000
0000
0000
0000
0000
0000
0301
0000
0000
0000
0000
0000
0000
1000
0000
0000
0000
0000
0000
0000
0000
0001
0000
0000
0000
0000
0000
0000
1000
0000
0000
0000
0000
0000
0000
0001
0000
0000
0000
0000
0000
0000
2000
0000
0000
0000
0000
0000
0000
0000
0000
0000
0000
0000
3020
0000
0000
0000
0000
0000
0000
0000
0000
0000
0000
0000
0230
0000
0000
0000
0000
0000
0000
0000
0000
0000
0000
0000
0000
0000
0000
0000
0000
0000
0000
0000
0000
0000
0000
0000
0302
0000
0000
0000
0000
0000
0000
0000
0000
0000
0000
0000
2003
0000
0000
0000
0000
0000
0000
0000
0000
0000
0000
0000
0000
0000
0000
0000
0000
0000
0000
0000
0000
0000
0000
0000
0000
0000
0000
0000
0000
0000
0000
0000
0000
0000
0000
0000
3020
0000
0000
0000
0000
0000
0000
0000
0000
0000
0000
0000
0000
0000
0000
0000
0000
0000
0000
0000
0000
0000
0000
0000
0000
0000
0000
0000
0000
0000
0000
0000
0000
0000
0000
0000
0230
0000
0000
0000
0000
0000
0000
0000
0000
0000
0000
0000
,
0000
0000
0000
0000
0302
0000
0000
0000
0000
0000
1000
0000
0000
0000
0000
0000
2003
0000
0000
0000
0000
0000
3010
0100
0020
0000
0000
0000
0130
0001
0200
0000
,
0000
0000
0320
0000
0000
2030
0000
0000
3002
0000
0000
1000
0000
0000
1000
0000
,
0000
1003
0010
0100
0010
0100
0001
1000
0100
0010
0001
1000
0010
0100
0001
0000
,
0000
1000
0000
0020
0000
0000
0230
0000
0000
0302
0000
0000
0000
0000
2003
0000
,
0000
0000
0000
0000
0000
0000
0000
0000
0000
0000
0000
0000
3010
0000
0000
0000
0000
0000
0000
0100
0000
0000
0000
0000
0000
0000
0000
0010
0000
0000
0000
0000
0000
0000
0100
0000
0000
0000
0000
0000
0000
0010
0000
0000
0000
0000
0000
0000
0400
0000
0000
0000
0000
0000
0000
0000
0000
0000
0000
0000
0000
0000
0000
0000
0000
0000
0000
0000
0000
0000
0000
0000
0000
0000
0000
0000
0000
0000
0000
0000
0000
0000
0000
0000
0302
0000
0000
0000
0000
0000
0000
0000
0000
0000
0000
0000
0000
0000
0000
0000
0000
0000
0000
0000
0000
0000
0000
0000
0000
0000
0000
0000
0000
0000
0000
0000
0000
0000
0000
0000
0000
0000
0000
0000
0000
0000
0000
0000
0000
0000
0000
0000
0000
0000
0000
0000
0000
0000
0000
0000
0000
0000
0000
0000
1003
0000
0000
0000
0000
0000
0000
0000
0000
0000
0000
0000
0010
0000
0000
0000
0000
0000
0000
0000
0000
0000
0000
0000
1000
0000
0000
0000
0000
0000
0000
0000
0000
0000
0000
0000
0010
0000
0000
0000
0000
0000
0000
0000
0000
0000
0000
0000
,
0100
0001
1000
0001
0010
0100
1000
0001
1000
0010
0100
0010
1000
0001
1000
0200
,
0000
0000
0320
0000
0000
0031
1000
0001
0100
0010
0100
0001
1000
0100
1000
0010
,
0100
0001
1000
0001
1000
0200
0000
0000
0310
0002
0000
0000
2003
0000
0000
3020
,
0000
0000
0000
0030
0000
0000
0000
0000
;

//---------------dance-single - 15-96/1-1----------------
#NOTES:
     dance-single:
     15-96/1-1:
     Edit:
     26:
     1.000,1.000,0.034,0.346,1.000,3085.000,9.000,93.000,6.000,0.000:
0000
0000
0000
0000
0000
0000
0002
0000
0000
1003
0000
0000
0100
0010
0000
0001
,
1000
0000
0010
0000
0100
0001
1000
0001
1000
0010
0100
0010
1000
0001
0000
0000
,
0010
0100
1000
0001
1000
0100
0010
0000
0001
0100
0000
0010
0100
0001
1000
0001
,
0100
0000
0000
0000
0000
0000
0000
0000
0000
0000
0000
0000
0000
0000
0000
0000
0000
0000
0000
0000
0000
0000
0000
0000
0000
0000
0000
0000
0000
0000
0000
0000
0000
0000
0000
0000
0001
0000
0000
0000
0000
0000
1000
0000
0000
0000
0000
0000
0001
0000
0000
0000
0000
0000
0000
0000
0000
0000
0000
0000
0000
0000
0000
0000
0000
0000
0000
0000
0000
0000
0000
0000
0001
0000
0000
0000
0000
0000
0000
0000
0000
0000
0000
0000
0000
0000
0000
0000
0000
0000
0000
0000
0000
0000
0000
0000
0000
0000
0000
0000
0000
0000
0000
0000
0000
0000
0000
0000
0100
0000
0000
0000
0000
0000
0000
0010
0000
0000
0000
0000
0000
0000
1000
0000
0000
0000
0000
0000
0000
0001
0000
0000
0000
0000
0000
0000
0000
0000
1000
0000
0000
0000
0000
0000
0010
0000
0000
0000
0000
0000
0000
0000
0000
0000
0000
0000
0100
0000
0000
0000
0000
0000
0000
0000
0000
0000
0000
0000
0001
0000
0000
0000
0000
0000
0000
0000
0000
0000
0000
0000
1000
0000
0000
0000
0000
0000
0000
0000
0000
0000
0000
0000
,
0001
0000
0100
0000
0001
0000
0100
0000
0001
0000
0100
0000
0002
0000
0000
0000
0000
0000
0000
0000
0000
2003
0000
0000
0000
0000
0000
0000
0000
0000
3200
0000
0000
0000
0000
0000
0000
0000
0000
0320
0000
0000
0000
0000
0000
0030
0000
0000
,
0020
0000
0000
0000
0000
0000
0000
0000
0000
0000
0031
1000
0001
0100
0010
2000
,
0000
0000
3200
0000
0000
0320
0000
0030
0020
0000
0000
0032
0000
0003
0002
0000
,
2003
0000
0000
0000
0000
0000
0000
0000
0000
0000
0000
0000
0000
0000
0000
3020
0000
0000
0000
0000
0000
0230
0000
0000
0000
0000
0000
0000
0000
0000
0301
0000
1000
0000
0001
0000
2000
0000
0000
0000
0000
0000
0000
0000
0000
0000
0000
0000
,
0000
0000
0000
0000
0000
0000
3100
0000
0010
0000
0001
0000
2M00
0000
0000
0000
0000
0000
0000
0000
0000
0000
0000
0000
0000
0000
0000
3020
0000
0000
0000
0000
0000
0000
0000
0000
0130
0000
0000
0002
0000
0000
0000
0000
0000
0000
0000
0000
,
0000
0000
0000
0000
0000
0000
0000
0000
0000
0000
0000
0000
0000
0000
0000
0000
1003
0000
0000
0000
0100
0000
0000
0000
0010
0000
0000
0000
0001
0000
0000
0000
1000
0000
0000
0000
0020
0030
0000
0000
2000
0000
0000
0000
0000
0000
0000
0000
0000
0000
0000
0000
0000
0000
0000
0000
3002
0000
0000
0000
0000
0000
0000
0000
,
0000
0000
0000
0000
0103
0020
0000
0000
0000
0000
0000
0000
1030
0000
0000
0000
0001
0000
0100
0000
0001
0000
1000
0000
0010
0000
0100
0000
0010
1000
0000
0000
,
0000
0000
0000
0002
0000
0000
0000
0000
0000
0000
0000
0000
0000
0000
0000
0000
0000
0000
0000
0000
0000
0000
0000
0000
1003
0000
0000
0000
0000
0000
0010
0000
0100
0000
0010
0000
0200
0000
0000
0000
0000
0000
0000
0000
0000
0001
0000
0000
,
0300
0000
0001
0000
1000
0010
1000
0200
0000
0000
0000
0010
0000
0000
0000
0310
,
0000
0000
0000
0000
0000
0000
0000
0000
0000
0000
0000
0000
0010
0000
0000
0000
0000
0000
0000
0000
0000
0000
0000
0000
0001
0000
0000
0000
0000
0000
0000
0000
0000
0000
0000
0000
1000
0000
0000
0000
0000
0000
0000
0000
0000
0000
0000
0000
0001
0000
0000
0000
0000
0000
0000
0000
0000
0000
0000
0000
0100
0000
0000
0000
0000
0000
0000
0000
0000
0000
0000
0000
0000
0000
0000
0000
0000
0000
0000
0000
0000
0000
0000
0000
0000
0000
0000
0000
0000
0000
0000
0000
0000
0000
0000
0000
0010
0000
0000
0000
0000
0000
0000
0000
0000
0000
0000
0000
1000
0000
0000
0000
0000
0000
0000
0001
0000
0000
0000
0000
0000
0000
0000
1000
0000
0000
0000
0000
0000
0000
0001
0000
0000
0000
0000
0000
0000
1000
0000
0000
0000
0000
0000
0000
0001
0000
0000
0000
0000
0000
0000
0000
0000
0000
0000
0000
0100
0000
0000
0000
0000
0000
0000
0000
0000
0000
0000
0000
0020
0000
0000
0000
0000
0000
0000
0000
0000
0000
0000
0000
0000
0000
0000
0000
0000
0000
0000
0000
0000
0000
0000
0000
,
1030
0002
0000
0103
0020
0000
2030
0000
0000
3004
0000
0000
0103
0010
0000
0000
,
0100
0001
0000
1000
0001
0000
0010
0100
1000
0001
1000
0010
0100
0000
0000
0004
,
0000
0000
0000
0000
1003
0000
0010
1000
0020
0000
0000
0000
0000
0000
0000
0000
0000
0000
0000
0000
0230
0000
0000
0000
0000
0000
0301
0000
2000
0000
0000
0000
,
0000
3100
0020
0031
,
1000
0000
0001
0000
0000
0000
0100
0000
0010
0000
0000
0000
0100
0000
0000
0000
0000
0000
0001
0000
0000
0000
1000
0010
2000
0000
0000
0000
0000
0000
3001
0000
,
0100
0000
0010
0100
0020
0000
1030
0001
1000
0100
0010
0001
1000
0001
0200
0000
,
0310
1000
0001
1000
0100
0010
0001
1000
0001
0200
0000
0300
0020
0000
0100
0000
,
0230
0000
0000
0000
0302
0000
0000
0000
0000
0000
0000
2003
0000
0000
0000
0000
,
0000
0000
0000
0000
0000
3100
0000
0010
0001
1000
0000
0010
0100
0010
1000
0001
,
1000
0100
1000
0010
0100
0001
0000
1000
0100
0000
0000
0020
0000
0000
0000
0000
,
0000
0000
0000
0030
0002
0000
0000
0000
0000
0000
0000
0000
0M00
0000
0000
0000
,
0000
0000
0000
1003
0001
0100
0001
1000
,
0100
0010
0001
1000
0100
1000
0010
0100
,
0010
1000
0001
0010
0100
0010
0001
1000
,
0100
1000
0001
1000
0010
0100
0010
1000
,
0001
1000
0100
0010
0001
1000
0100
1000
,
0001
0100
0010
1000
0010
0100
0001
1000
,
0100
0010
0001
1000
0100
1000
0001
0010
,
0100
0000
1000
0000
00M1
0000
0100
0010
1000
0000
0001
1000
0001
0000
0010
0100
,
1000
0000
0010
0100
0010
0000
1000
0001
1000
0000
0020
0000
0130
0001
1000
0001
,
0010
0000
0100
0000
1000
0000
0010
0100
0001
0000
1000
0100
1000
0000
0010
0100
,
0001
0000
4000
3010
0100
0000
0001
1000
0001
0000
0020
0000
0130
1000
0001
1000
,
0010
0000
0100
0000
0001
0000
0010
0100
1000
0000
0001
0100
0010
0000
1000
0010
,
1000
0000
0000
0000
0000
0000
0000
0000
0004
0000
0000
0000
0013
0000
0000
0000
0200
0300
0000
0000
0000
0000
0000
0000
1000
0000
0000
0000
0010
0000
0000
0000
0100
0000
0000
0000
0000
0000
0000
0000
0001
0000
0000
0000
1000
0000
0000
0000
0001
0000
0000
0000
0100
0000
0000
0000
0010
0000
0000
0000
1000
0000
0000
0000
,
0010
0000
0100
0000
0001
0000
1000
0100
1000
0000
0010
0100
0001
0000
1000
0100
,
1000
0000
0100
0010
0001
0000
1000
0010
0100
0000
0001
1000
0001
0100
0010
1000
,
0010
0000
0100
0000
0102
0000
1003
0100
1000
0000
0010
0100
0001
0000
1000
0100
,
0010
0000
0001
1000
0001
0000
0100
0010
1000
0000
0001
0010
0001
0100
0010
1000
,
0001
0000
0010
0000
0100
0000
1000
0001
1000
0000
0010
0100
0001
0000
1000
0100
,
1000
0000
0001
0010
0001
0000
1000
0100
0010
0000
0001
1000
0001
0100
0010
1000
,
0001
0000
0010
0000
0100
0000
1000
0100
1000
0000
0001
0100
0010
0000
1000
0010
,
1000
0000
0001
0010
0100
0000
1000
0010
0100
0000
0001
1000
0001
0100
0010
1000
,
0010
0000
0100
0000
0001
0000
1000
0100
1000
0000
0010
0100
0001
0000
1000
0100
,
1000
0000
0100
0010
0001
0000
1000
0010
0100
0000
0001
1000
0001
0100
0010
1000
,
0010
0000
0100
0000
0102
0000
1003
0100
1000
0000
0010
0100
0001
0000
1000
0100
,
0010
0000
0001
1000
0001
0000
0100
0010
1000
0000
0001
0010
0001
0100
0010
1000
,
0001
0000
0010
0000
0100
0000
1000
0001
1000
0000
0010
0100
0001
0000
1000
0100
,
1000
0000
0001
0010
0001
0000
1000
0100
0010
0000
0001
1000
0001
0100
0010
1000
,
0001
0000
0010
0000
0100
0000
0001
1000
0010
0000
0001
0100
0010
0000
1000
0010
,
1000
0000
0001
0100
0010
0000
1000
0010
0100
0000
0001
1000
0001
0100
0010
1000
,
0010
0000
0100
0000
0001
0000
1000
0100
1000
0000
0010
0100
0001
0000
1000
0100
,
1000
0000
0100
0010
0001
0000
1000
0010
0100
0000
0001
1000
0001
0100
0010
1000
,
0001
0000
0100
0000
01M1
0000
0001
0000
1000
0100
0010
0001
1000
0100
1000
0001
,
0100
0010
1000
0001
0100
0001
0010
0100
1000
0001
0010
0001
0100
0010
1000
0001
,
0100
0010
0100
0001
1000
0010
1000
0001
0100
0010
0100
0001
1000
0100
0010
0001
,
1000
0100
1000
0001
0100
0010
1000
0001
0100
0001
0010
0100
1000
0001
0010
0001
,
0100
0010
1000
0001
0100
0001
1000
0100
0010
0100
1000
0001
0010
0001
0100
0010
,
1000
0001
0100
0001
1000
0010
0100
0001
0100
0010
1000
0001
1000
0100
0010
0100
,
1000
0001
0010
0001
0100
0010
1000
0001
0100
0001
1000
0100
1000
0010
0100
0001
,
1000
0100
1000
0001
0100
0010
1000
0001
0100
0001
0010
0100
1000
0001
0010
0001
,
1000
0010
1000
0001
0100
0001
1000
0100
0010
0100
1000
0001
0010
0001
1000
0100
,
0010
0001
1000
0010
1000
0001
0010
0100
1000
0001
0100
0001
0010
0100
1000
0001
,
0100
0010
1000
0001
0100
0001
0010
0100
1000
0001
0010
0001
0100
0010
1000
0001
,
0100
0001
1000
0010
1000
0001
0100
0010
0100
0001
1000
0100
0010
0100
1000
0001
,
0010
0001
0100
0010
1000
0001
0100
0001
1000
0100
0010
0001
1000
0100
1000
0001
,
0010
0001
0100
0010
1000
0001
0100
0001
0010
0100
1000
0001
0010
0001
0100
0010
,
1000
0001
0100
0010
0100
0001
1000
0010
1000
0001
0100
0001
1000
0100
0010
0100
,
1000
0001
0100
0001
0010
0100
1000
0001
0010
0001
0100
0010
2000
0000
0000
0000
,
0M00
0000
0000
0000
0000
0000
3002
0103
0010
2000
3002
0103
0001
0010
0200
1300
0100
0010
0002
1003
0200
1300
0002
1003
,
0020
0130
0001
0100
0020
2030
3002
1003
0100
0010
0001
2000
3100
1000
0010
0100
0001
1000
0010
1000
0001
0100
0001
0010
,
0100
1000
0001
0010
0001
0100
0010
1000
0001
0100
0001
0010
0100
1000
0010
1000
0001
0100
0001
0010
0100
1000
0001
1000
,
0010
0100
0001
1000
0100
1000
0001
0010
0001
0100
0010
1000
0001
0100
0001
1000
0010
1000
0001
0100
0010
0100
0001
1000
,
0100
0010
0100
1000
0001
0010
0001
1000
0100
0010
0100
1000
0001
0100
0001
0010
0100
1000
0001
0010
0001
0100
0010
1000
,
0001
0100
0001
1000
0010
0100
0001
1000
0010
1000
0001
0100
0001
0010
0100
1000
0001
0010
0001
0100
0010
1000
0001
0100
,
0010
0100
0001
1000
0100
0010
0100
1000
0001
0010
0001
1000
0100
0010
0100
1000
0001
0010
0001
0100
0010
1000
0001
0100
,
0001
0010
0100
1000
0100
0010
0001
1000
0100
1000
0001
0010
0001
0100
0010
1000
0001
0100
0001
0010
0100
1000
0001
1000
,
0010
0100
0001
1000
0100
1000
0001
0100
0010
0100
0001
1000
0010
1000
0100
0010
0001
1000
0100
1000
0001
0010
0001
0100
,
0010
1000
0001
0100
0001
1000
0100
0010
0100
1000
0001
0010
0001
0100
0010
1000
0001
0100
0001
0010
0100
1000
0001
0010
,
0001
0100
0010
1000
0001
0100
0001
0100
0010
1000
0001
1000
0100
0010
0001
1000
0100
1000
0001
0100
0010
1000
0001
0100
,
0001
0010
0100
1000
0001
0010
0001
0100
0010
1000
0001
0100
0001
0010
0100
1000
0001
1000
0010
0100
0001
0100
0010
1000
,
0001
1000
0100
0010
0001
1000
0010
0100
0001
1000
0100
1000
0010
0100
0001
1000
0001
0010
0100
1000
0001
0010
0001
0100
,
0010
1000
0001
0100
0010
1000
0001
0100
0001
1000
0100
1000
0001
0010
0100
1000
0001
1000
0010
0100
0001
1000
0010
1000
,
0001
0100
0010
1000
0001
0100
0001
0010
0100
1000
0001
0010
0001
0100
0010
1000
0001
0100
0010
0100
0001
1000
0100
0010
,
0001
1000
0100
0010
0100
1000
0001
1000
0010
0100
0001
1000
0100
0010
0100
1000
0001
0010
0001
1000
0010
1000
0001
0100
,
0010
1000
0001
0010
0100
1000
0001
0010
0001
0100
0010
1000
0001
0100
0001
1000
0100
0010
0100
1000
0001
0010
0001
0100
,
0010
1000
0001
0100
0001
0010
0100
1000
0100
0010
0001
1000
0100
1000
0010
0100
0001
1000
0100
1000
0001
0010
0001
0100
,
0010
1000
0001
0100
0001
0010
0100
1000
0001
0010
0001
0100
0010
1000
0001
0100
0010
0100
0001
0010
0100
1000
0001
1000
,
0010
0100
0001
1000
0010
1000
0001
0010
0001
1000
0100
1000
0001
0100
0010
1000
0001
0100
0001
1000
0100
0010
0001
1000
,
0100
0010
0100
1000
0001
1000
0010
0100
0001
1000
0100
0010
0001
1000
0100
0010
0001
1000
0010
0100
0001
1000
0100
1000
,
0001
0100
0010
1000
0001
0100
0001
1000
0100
0010
0100
1000
0001
0010
0001
0100
0010
1000
0001
0100
0001
0100
0010
1000
,
0001
1000
0100
0010
0001
1000
0100
1000
0001
0100
0010
1000
0001
0100
0001
1000
0100
0010
0100
1000
0001
1000
0010
0100
,
0001
1000
0100
1000
0001
0010
0001
1000
0100
0010
0001
1000
0100
1000
0001
0100
0001
0010
0100
1000
0001
0010
0001
0100
,
0010
1000
0100
1000
0001
0100
0001
0010
0100
1000
0001
1000
0010
0100
0001
1000
0100
1000
0001
0100
0001
0010
0100
1000
,
0001
0010
0001
0100
0010
1000
0001
0100
0010
0100
0001
1000
0100
0010
0001
1000
0100
1000
0001
0010
0001
0100
0010
1000
,
0001
0100
0001
1000
0100
0010
0001
1000
0010
0100
0001
0100
0010
1000
0001
1000
0100
0010
0001
1000
0100
1000
0010
0100
,
0001
1000
0100
1000
0001
0010
0001
0100
0010
1000
0001
0100
0010
0100
0001
1000
0100
0010
0001
1000
0100
1000
0001
0010
,
0001
0100
0010
0100
0001
1000
0100
0010
0100
1000
0001
0010
0001
0100
0010
1000
0001
0100
0001
0010
0100
1000
0001
0010
,
0100
1000
0001
1000
0010
0100
0001
1000
0001
0100
0010
1000
0001
0100
0001
0010
0100
1000
0001
0010
0001
1000
0100
0010
,
0100
1000
0001
0010
0001
0100
0010
1000
0001
0100
0001
1000
0100
0010
0100
1000
0001
0010
0001
0100
0010
1000
0001
0100
,
0010
0100
0001
0100
0010
1000
0001
0100
0001
1000
0100
0010
0001
1000
0100
1000
0010
0100
0001
1000
0010
1000
0100
0010
,
0001
1000
0100
1000
0010
0100
0001
0100
0001
0010
0100
1000
0001
0010
0001
0100
0010
1000
0001
0100
0001
0010
0100
1000
,
0010
1000
0001
0100
0001
0010
0100
1000
0001
1000
0010
0100
0001
1000
0100
1000
0001
0010
0001
0100
0010
1000
0001
0100
,
0001
1000
0010
1000
0001
0100
0010
0100
0001
1000
0100
0010
0100
1000
0001
0010
0001
1000
0100
0010
0100
1000
0001
0100
,
0001
0010
0100
1000
0001
0010
0001
0100
0010
1000
0001
0100
0001
1000
0010
0100
0001
1000
0010
1000
0001
0100
0001
0010
,
0100
1000
0001
0010
0001
0100
0010
1000
0001
0100
0010
0100
0001
1000
0100
0010
0100
1000
0001
0010
0001
1000
0100
0010
,
0100
1000
0001
0010
0001
0100
0010
1000
0001
0100
0001
1000
0010
1000
0100
0010
0001
1000
0100
1000
0001
0010
0001
0100
,
0010
1000
0001
0100
0001
0010
0100
1000
0001
1000
0010
0100
0001
1000
0100
1000
0001
0100
0010
0100
0001
1000
0010
1000
,
0100
0010
0001
1000
0100
1000
0001
0010
0001
0100
0010
1000
0001
0100
0001
1000
0100
0010
0100
1000
0001
0010
0001
0100
,
0010
1000
0001
0100
0001
0010
0100
1000
0001
0010
0001
0100
0010
1000
0001
0100
0001
0100
0010
1000
0001
1000
0100
0010
,
0001
1000
0100
1000
0001
0100
0010
1000
0001
0100
0001
0010
0100
1000
0001
0010
0001
0100
0010
1000
0001
0100
0001
0010
,
0100
1000
0001
1000
0010
0100
0001
0100
0010
1000
0001
1000
0100
0010
0001
1000
0010
0100
0001
1000
0100
1000
0010
0100
,
0001
1000
0001
0010
0100
1000
0001
0010
0001
0100
0010
1000
0001
0100
0010
1000
0001
0100
0001
1000
0010
1000
0001
0010
,
0100
1000
0001
1000
0010
0100
0001
1000
0010
1000
0001
0100
0010
1000
0001
0100
0001
0010
0100
1000
0001
0010
0001
0100
,
0010
1000
0001
0100
0010
0100
0001
1000
0100
0010
0001
1000
0100
0010
0100
1000
0001
1000
0010
0100
0001
1000
0100
0010
,
0100
1000
0001
0010
0001
0100
0010
1000
0001
0100
0010
1000
0001
0010
0100
1000
0001
0010
0001
0100
0010
1000
0001
0010
,
0001
1000
0100
0010
0100
1000
0001
0010
0001
0100
0010
1000
0001
0100
0001
0010
0100
1000
0100
0010
0001
1000
0100
1000
,
0010
0100
0001
1000
0100
1000
0001
0010
0001
0100
0010
1000
0001
0100
0001
0010
0100
1000
0001
0010
0001
0100
0010
1000
,
0001
0100
0010
0100
0001
0010
0100
1000
0001
1000
0010
0100
0001
1000
0100
1000
0001
0010
0001
1000
0100
1000
0001
0100
,
0010
1000
0001
0100
0001
1000
0100
0010
0001
1000
0100
0010
0100
1000
0001
1000
0010
0100
0001
1000
0100
0010
0001
1000
,
0100
0010
0001
1000
0010
0100
0001
1000
0100
1000
0001
0100
0010
1000
0001
0100
0001
1000
0100
0010
0100
1000
0001
0010
,
0001
0100
0010
1000
0001
0010
0001
0100
0010
1000
0001
1000
0100
0010
0001
1000
0100
1000
0001
0100
0010
1000
0001
0100
,
0001
1000
0100
0010
0100
1000
0001
1000
0010
0100
0001
1000
0100
1000
0001
0010
0001
1000
0100
0010
0001
1000
0100
1000
,
0001
0010
0001
0100
0010
1000
0001
0010
0001
0100
0010
1000
0100
1000
0001
0100
0001
0010
0100
1000
0001
1000
0010
0100
,
0001
1000
0100
1000
0001
0100
0001
0010
0100
1000
0001
0010
0001
0100
0010
1000
0001
0100
0010
0100
0001
1000
0100
0010
,
0001
1000
0100
1000
0001
0010
0001
0100
0010
1000
0001
0100
0001
1000
0100
0010
0001
1000
0010
0100
0001
0100
0010
1000
,
0001
1000
0100
0010
0001
1000
0100
1000
0010
0100
0001
1000
0100
1000
0001
0010
0001
0100
0010
1000
0001
0100
0010
0100
,
0001
1000
0100
0010
0001
1000
0100
1000
0001
0010
0001
0100
0010
0100
0001
1000
0100
0010
0100
1000
0001
0010
0001
0100
,
0010
1000
0001
0100
0001
0010
0100
1000
0001
0010
0100
1000
0001
1000
0010
0100
0001
1000
0001
0100
0010
1000
0001
0100
,
0001
0010
0100
1000
0001
0010
0001
1000
0100
0010
0100
1000
0001
0010
0001
0100
0010
1000
0001
0100
0001
1000
0100
0010
,
0100
1000
0001
0010
0001
0100
0010
1000
0001
0010
0100
1000
0001
0100
0010
1000
0001
0100
0001
1000
0100
0010
0001
1000
,
0100
1000
0010
0100
0001
1000
0010
1000
0100
0010
0001
1000
0100
1000
0010
0100
0001
1000
0010
1000
0100
0010
0001
1000
,
0100
1000
0100
0010
0001
1000
0100
0010
0100
1000
0001
1000
0010
0100
0001
1000
0010
1000
0100
0010
0001
1000
0100
1000
,
0001
0000
0100
0000
0010
0000
1000
0000
0001
0000
0100
0000
00M1
0000
0000
1000
0000
0000
0100
0000
0000
0010
0000
0000
0001
0000
0000
1000
0000
0000
0100
0000
0000
1000
0000
0000
0001
0000
0000
0010
0000
0000
0001
0000
0000
1000
0000
0000
,
0001
0100
0010
0100
0001
1000
0010
1000
0100
0010
0001
1000
0100
1000
0001
0010
,
0001
0100
0010
0100
0001
1000
0010
1000
0100
0010
0001
1000
0100
1000
0001
1000
,
0100
0010
0001
1000
0001
0100
0010
0100
0001
1000
0010
1000
0001
0100
0001
1000
,
0100
1000
0001
0010
0100
0010
0001
1000
0100
1000
0010
0100
0001
1000
0001
0100
,
0010
0100
0001
1000
0010
1000
0100
0010
0001
1000
0100
1000
0001
0100
0010
0100
,
0001
1000
0100
1000
0010
0100
0001
1000
0001
0010
0100
1000
0100
0010
0001
1000
,
0100
1000
0010
0100
0001
1000
0001
0010
0100
1000
0001
1000
0100
1000
0010
0100
,
0010
1000
0001
0100
0001
1000
0100
0010
0001
1000
0010
0100
0001
1000
0100
1000
,
0010
0100
0010
1000
0001
0100
0010
1000
0010
0100
0001
1000
0001
1000
0010
0100
,
0010
1000
0100
0010
0001
1000
0001
0100
0010
1000
0010
0100
0001
1000
0100
0010
,
0001
1000
0100
1000
0010
0100
0010
1000
0001
0010
0100
0010
0001
1000
0100
1000
,
0010
0100
0001
0100
0010
1000
0001
1000
0100
0010
0001
1000
0100
1000
0010
0100
,
0001
1000
0001
0010
0100
1000
0001
0010
0001
0100
0010
1000
0010
0100
0001
1000
,
0100
1000
0001
0010
0001
1000
0100
0010
0100
1000
0001
0010
0001
0100
0010
1000
,
0010
0100
0001
1000
0100
1000
0010
0100
0010
1000
0001
0100
0001
1000
0100
0010
,
0001
1000
0100
1000
0010
0100
0001
0100
0010
1000
0001
1000
0100
0010
0001
1000
,
0100
1000
0001
0010
0001
1000
0001
0100
0010
0100
0001
1000
0010
1000
0100
0010
,
0001
1000
0100
1000
0001
0010
0001
0100
0010
0100
0001
1000
0010
1000
0100
0010
,
0001
1000
0100
1000
0001
1000
0100
0010
0001
1000
0001
0100
0010
0100
0001
1000
,
0010
1000
0001
0100
0001
1000
0100
1000
0001
0010
0100
0010
0001
1000
0100
1000
,
0010
0100
0001
1000
0001
0100
0010
0100
0001
1000
0010
1000
0100
0010
0001
1000
,
0100
1000
0001
0100
0010
0100
0001
1000
0100
1000
0010
0100
0001
1000
0001
0010
,
0100
1000
0100
0010
0001
1000
0100
1000
0010
0100
0001
1000
0001
0010
0100
1000
,
0001
1000
0100
1000
0010
0100
0010
1000
0001
0100
0001
1000
0100
0010
0001
1000
,
0010
0100
0001
1000
0100
1000
0010
0100
0001
0100
0010
1000
0001
0100
0001
1000
,
0010
0100
0010
1000
0100
0010
0001
1000
0001
0100
0010
1000
0010
0100
0001
1000
,
0100
0010
0001
1000
0100
1000
0010
0100
0010
1000
0001
0010
0100
0010
0001
1000
,
0100
1000
0010
0100
0001
0100
0010
1000
0001
1000
0100
0010
0001
1000
0100
1000
,
0010
0100
0001
1000
0001
0010
0100
1000
0001
0010
0001
0100
0010
1000
0010
0100
,
0001
1000
0100
1000
0001
0010
0001
1000
0100
0010
0100
1000
0001
0010
0001
0100
,
0010
1000
0010
0100
0001
1000
0100
1000
0010
0100
0010
1000
0001
0100
0001
1000
,
0100
0010
0001
1000
0100
0000
0010
0000
0001
0000
1000
0000
0010
0000
0100
0000
,
0010
1000
0001
0100
0001
1000
0100
0010
,
0001
1000
0100
1000
0010
0100
0010
1000
,
0001
0010
0100
0010
0001
1000
0100
1000
,
0010
0100
0001
1000
0100
1000
0001
0010
,
0100
0010
0001
1000
0100
1000
0010
0100
,
0010
1000
0001
0100
0001
1000
0100
0010
,
0001
1000
0100
1000
0010
0100
0010
1000
,
0001
0100
0010
1000
0010
0100
0010
1000
,
0001
0100
0001
1000
0100
0010
0001
1000
,
0100
1000
0010
0100
0010
1000
0001
0010
,
0100
0010
0001
1000
0100
1000
0001
1000
,
0010
0100
0010
1000
0001
0100
0001
1000
,
0100
0000
0010
0000
0100
0000
1000
0000
0001
0000
1000
0000
0010
0100
0010
1000
,
0001
0010
0100
1000
0001
1000
0001
0100
0010
0000
0100
0001
1000
0001
1000
0100
,
0020
0031
1000
0001
0200
0000
0000
0320
0000
0000
1030
0000
0001
1000
0200
0000
,
0000
0000
0000
0000
0000
0000
0000
0000
0000
0000
0000
0000
0310
0000
0000
0000
0000
0000
0000
0001
0000
0000
0000
0000
0000
0000
0000
0010
0000
0000
0000
0000
0000
0000
0001
0000
0000
0000
0000
0000
0000
0010
0000
0000
0000
0000
0000
0000
0004
0000
0000
0000
0000
0000
0000
0000
0000
0000
0000
0000
0000
0000
0000
0000
0000
0000
0000
0000
0000
0000
0000
0000
0000
0000
0000
0000
0000
0000
0000
0000
0000
0000
0000
0000
0000
0000
0000
0000
0000
0000
0000
0000
0000
0000
0000
0000
0000
0000
0000
0000
0000
0000
0000
0000
0000
0000
0000
0000
1003
0000
0000
0000
0000
0000
0000
0000
0000
0000
0000
0000
0000
0000
0000
0000
0000
0000
0000
0000
0000
0000
0000
0000
0020
0000
0000
0000
0000
0000
0000
0000
0000
0000
0000
0000
0000
0000
0000
0000
0000
0000
0000
0000
0000
0000
0000
0000
0000
0000
0000
0000
0000
0000
0000
0000
0000
0000
0000
0000
0230
0000
0000
0000
0000
0000
0000
0000
0000
0000
0000
0000
0000
0000
0000
0000
0000
0000
0000
0000
0000
0000
0000
0000
,
0000
0000
0000
0000
0000
0000
0000
0000
0000
0000
0000
0000
0301
0000
0000
0000
0000
0000
0000
1000
0000
0000
0000
0000
0000
0000
0000
0001
0000
0000
0000
0000
0000
0000
1000
0000
0000
0000
0000
0000
0000
0001
0000
0000
0000
0000
0000
0000
2000
0000
0000
0000
0000
0000
0000
0000
0000
0000
0000
0000
3020
0000
0000
0000
0000
0000
0000
0000
0000
0000
0000
0000
0230
0000
0000
0000
0000
0000
0000
0000
0000
0000
0000
0000
0000
0000
0000
0000
0000
0000
0000
0000
0000
0000
0000
0000
0302
0000
0000
0000
0000
0000
0000
0000
0000
0000
0000
0000
2003
0000
0000
0000
0000
0000
0000
0000
0000
0000
0000
0000
0000
0000
0000
0000
0000
0000
0000
0000
0000
0000
0000
0000
0000
0000
0000
0000
0000
0000
0000
0000
0000
0000
0000
0000
3020
0000
0000
0000
0000
0000
0000
0000
0000
0000
0000
0000
0000
0000
0000
0000
0000
0000
0000
0000
0000
0000
0000
0000
0000
0000
0000
0000
0000
0000
0000
0000
0000
0000
0000
0000
0230
0000
0000
0000
0000
0000
0000
0000
0000
0000
0000
0000
,
0000
0000
0000
0000
0302
0000
0000
0000
0000
0000
1000
0000
0000
0000
0000
0000
2003
0000
0000
0000
0000
0000
3010
0100
0020
0000
0000
0000
0130
0001
0200
0000
,
0000
0000
0320
0000
0000
2030
0000
0000
3002
0000
0000
1000
0000
0000
1000
0000
,
0000
1003
0010
0100
0010
0100
0001
1000
0100
0010
0001
1000
0010
0100
0001
0000
,
0000
1000
0000
0020
0000
0000
0230
0000
0000
0302
0000
0000
0000
0000
2003
0000
,
0000
0000
0000
0000
0000
0000
0000
0000
0000
0000
0000
0000
3010
0000
0000
0000
0000
0000
0000
0100
0000
0000
0000
0000
0000
0000
0000
0010
0000
0000
0000
0000
0000
0000
0100
0000
0000
0000
0000
0000
0000
0010
0000
0000
0000
0000
0000
0000
0400
0000
0000
0000
0000
0000
0000
0000
0000
0000
0000
0000
0000
0000
0000
0000
0000
0000
0000
0000
0000
0000
0000
0000
0000
0000
0000
0000
0000
0000
0000
0000
0000
0000
0000
0000
0302
0000
0000
0000
0000
0000
0000
0000
0000
0000
0000
0000
0000
0000
0000
0000
0000
0000
0000
0000
0000
0000
0000
0000
0000
0000
0000
0000
0000
0000
0000
0000
0000
0000
0000
0000
0000
0000
0000
0000
0000
0000
0000
0000
0000
0000
0000
0000
0000
0000
0000
0000
0000
0000
0000
0000
0000
0000
0000
0000
1003
0000
0000
0000
0000
0000
0000
0000
0000
0000
0000
0000
0010
0000
0000
0000
0000
0000
0000
0000
0000
0000
0000
0000
1000
0000
0000
0000
0000
0000
0000
0000
0000
0000
0000
0000
0010
0000
0000
0000
0000
0000
0000
0000
0000
0000
0000
0000
,
0100
0001
1000
0001
0010
0100
1000
0001
1000
0010
0100
0010
1000
0001
1000
0200
,
0000
0000
0320
0000
0000
0031
1000
0001
0100
0010
0100
0001
1000
0100
1000
0010
,
0100
0001
1000
0001
1000
0200
0000
0000
0310
0002
0000
0000
2003
0000
0000
3020
,
0000
0000
0000
0030
0000
0000
0000
0000
;
