#TITLE:Love is Eternity;
#SUBTITLE:Motoz;
#ARTIST:Kors K;
#TITLETRANSLIT:;
#SUBTITLETRANSLIT:;
#ARTISTTRANSLIT:;
#CREDIT:;
#BANNER:../fallback-bn.png;
#BACKGROUND:../fallback-bg.png;
#LYRICSPATH:;
#CDTITLE:;
#MUSIC:Love is Eternity.ogg;
#OFFSET:0.030;
#SAMPLESTART:99.980;
#SAMPLELENGTH:12.000;
#SELECTABLE:YES;
#BPMS:0.000=142.500,1.000=141.000,257.000=35.250,273.000=70.500,370.000=70.600,374.000=141.000;
#STOPS:122.000=0.003
,123.500=0.002
,305.000=4.296
;
#BGCHANGES:;
// cache tags:
#FIRSTBEAT:1.000;
#LASTBEAT:695.000;
#SONGFILENAME:Songs/SSSC PACK/[Mootz] - Love is Eternity/Love is Eternity.sm;
#HASMUSIC:1;
#HASBANNER:1;
#MUSICLENGTH:366.847;
// end cache tags

//---------------dance-single - Mootz----------------
#NOTES:
     dance-single:
     Mootz:
     Challenge:
     13:
     0.928,1.000,0.011,0.074,1.000,2352.000,4.000,27.000,204.000,0.000:

0000
0000
0000
0000
0010
0000
1000
0100
1000
0000
0001
0000
0100
0000
0010
1000
,
0010
0000
1000
0020
0000
0030
1000
0001
1000
0000
0100
0000
0010
0000
0001
0010
,
0001
0000
0010
0002
0000
0003
0010
0100
1000
0000
0001
0000
0100
0000
0010
1000
,
0001
0000
0100
0001
1000
0100
1000
0001
0100
0001
1000
0100
1000
0100
0010
0001
,
0010
0100
1000
0001
1000
0000
0010
0100
0010
0000
1000
0000
0100
0000
0010
0001
,
0100
0000
0010
2000
0000
3000
0010
0100
0001
0000
0010
0000
0100
0000
1000
0100
,
0010
0000
0001
0200
0000
0300
0010
1000
0001
0000
0100
0000
0010
0000
1000
0100
,
0010
0000
0001
0020
0000
0030
0100
1000
0001
0000
1000
0000
0100
0000
1000
0001
,
0100
0000
0001
1000
1001
0000
0001
0100
0010
0000
0100
0010
1000
0000
0100
0010
,
0001
1000
0001
2000
0000
3000
0010
0100
0010
0000
0100
0010
1000
0000
0001
0100
,
0010
1000
0001
0020
0000
0030
0100
1000
0100
0000
0010
0001
0010
0000
0001
0100
,
0001
1000
0010
0200
0000
0300
0010
1000
0010
0000
0100
0001
0100
0000
0010
1000
,
0100
0010
0001
2000
0000
3000
0100
0010
0001
0000
0010
0100
1000
0000
0001
0100
,
0010
1000
0001
0200
0000
0300
0001
1000
0001
0000
0100
0010
0100
0000
0001
1000
,
0001
0100
0001
1000
0001
0010
0001
0010
0100
1000
0100
1000
0010
1000
0010
1000
,
0001
0100
0001
0100
0001
0010
0100
1000
0100
0010
0001
1000
0010
0100
0010
1000
,
0100
1000
0001
0010
0001
0000
0000
0010
0000
0000
0100
1000
0010
0000
0000
0100
,
0000
0000
0010
1000
0100
0000
0000
0010
0000
0000
0001
0010
0100
0000
1000
0100
,
0000
0010
0001
1000
0010
0000
0000
0100
0000
0000
0001
1000
0100
0000
0000
0010
,
0000
0000
0100
1000
0001
0000
0000
0100
0000
0000
0010
1000
0010
0000
0100
0001
,
0000
1000
0100
0010
0001
0000
0000
0010
0000
0000
0100
1000
0100
0000
0000
0010
,
0000
0000
0001
0100
0001
0000
0000
1000
0000
0000
0010
0100
0010
0000
1000
0001
,
0000
1000
0001
0010
0100
0000
0000
1000
0000
0000
0001
0100
1000
0000
0000
0100
,
0000
0000
0001
0010
1000
0000
0000
0010
0000
0000
0001
1000
0010
0000
0100
0010
,
0000
0100
1000
0100
0001
0000
0000
1000
0000
0000
0001
1000
0001
0000
0000
1000
,
0000
0000
0001
1000
0001
0000
0000
1000
0000
0000
0001
1000
0001
0000
1000
0001
,
0000
0100
0010
1000
0100
0000
0000
0010
0000
0000
0100
0010
0100
0000
0000
0010
,
0000
0000
0100
0010
0100
0000
0000
0010
0000
0000
0100
0010
0100
0000
0010
0100
,
0000
0010
0001
1000
0010
0000
1000
0010
0000
1000
0100
0010
0001
0000
0010
0001
,
0000
0010
0100
1000
0001
0000
1000
0001
0000
1000
0010
0100
0010
0000
0100
0010
,
0000
0100
0010
1000
0002
0000
0000
0000
0000
0000
0000
0000
0000
0000
0000
0000
,
0000
0000
0000
0000
1003
0100
1000
0100
0010
0001
0010
0001
0100
0001
1000
0010
,
1000
0100
0010
0001
0100
0010
1000
0100
1000
0001
0010
0001
0100
0010
0100
0001
,
1000
0100
0010
0001
0010
0100
1000
0001
0100
0010
0100
0001
1000
0100
0010
0100
,
1000
0001
0010
0100
0010
0001
1000
0010
0100
0001
1000
0001
1000
0100
0010
0100
,
0010
0001
0010
0001
1000
0001
0010
0001
1000
0100
1000
0001
0100
0010
0100
0010
,
1000
0010
1000
0010
1000
0100
0010
0001
0010
0100
1000
0001
0100
0010
1000
0001
,
0100
0010
1000
0100
0010
0001
0010
0100
1000
0001
0100
0001
1000
0010
0100
0010
,
1000
0100
0010
0001
1000
0010
0100
0001
1000
0010
0100
0001
1000
0100
1000
0001
,
0100
0001
1000
0100
0010
0100
1000
0001
0010
0100
0010
0001
1000
0100
0010
0001
,
1000
0100
0010
0001
1000
0001
0100
0001
1000
0001
0010
0001
1000
0010
0100
0010
,
1000
0001
0010
0100
1000
0100
0010
0001
1000
0100
1000
0001
0010
0001
0100
0010
,
0100
0001
1000
0010
0100
0001
0100
0001
1000
0001
1000
0001
0010
0100
1000
0100
,
0010
0001
0010
0100
1000
0001
1000
0001
0100
0010
0100
0010
1000
0001
0010
0001
,
1000
0100
1000
0010
0100
0001
1000
0010
1000
0100
0010
0001
0100
0010
1000
0001
,
0010
0100
1000
0100
0010
0001
1000
0010
0100
0010
1000
0100
1000
0001
0100
0001
,
1000
0010
0100
0010
1000
0100
0010
0001
1000
0100
0010
0001
1000
0010
0100
0001
,
1000
0100
0010
0001
0100
0001
1000
0010
0100
0001
1000
0010
1000
0100
0010
0001
,
0010
0100
1000
0100
0010
0001
1000
0010
0100
0010
1000
0001
0010
0100
1000
0001
,
1000
0010
0100
0010
1000
0001
0010
0001
1000
0100
0010
0001
0100
0010
0100
0001
,
1000
0100
0010
0001
1000
0010
1000
0010
0100
0001
0100
0001
1000
0010
0100
0001
,
1000
0100
0010
0100
1000
0001
1000
0001
0010
0100
0010
0100
1000
0100
0010
0001
,
0100
0010
1000
0001
0100
0010
1000
0100
0010
0001
0100
0010
1000
0001
0010
0100
,
1000
0010
0100
0001
1000
0100
1000
0001
0100
0010
1000
0001
0010
0100
1000
0001
,
1000
0010
0100
0001
1000
0010
0100
0001
1000
0001
0010
0100
1000
0001
0100
0010
,
1000
0100
0010
0001
0100
0010
1000
0001
0100
0010
1000
0001
1000
0100
0010
0001
,
1000
0100
0010
0001
0100
0001
1000
0010
1000
0100
0010
0100
1000
0001
0010
0100
,
0010
0001
1000
0001
1000
0010
0100
0001
1000
0001
0100
0010
1000
0100
1000
0001
,
0010
0001
0100
0010
0100
0001
1000
0100
0010
0001
0010
0100
1000
0001
0010
0001
,
1000
0100
1000
0010
0100
0001
1000
0010
0100
0001
1000
0100
0010
0001
0010
0001
,
1000
0100
1000
0100
0010
0000
0000
0001
0000
0000
0100
0000
0000
0010
0000
0000
,
1000
0000
0000
0100
0000
0000
0010
0000
0000
0001
0000
0000
0100
0000
0000
0010
,
0000
0000
0000
0000
0000
0000
1000
0000
0000
0000
0000
0000
0001
0000
0000
0000
0000
0000
0001
0000
0000
0000
0000
0000
0010
0000
0000
0000
0000
0000
0010
0000
0000
0000
0000
0000
0100
0000
0000
1000
0000
0000
0100
0000
0010
0000
0001
0000
,
1000
0000
0001
0000
1000
0000
0010
0000
0000
0000
0000
0000
0100
0000
0000
0010
0000
0000
0100
0000
0000
0010
0000
0000
1000
0000
0000
0001
0000
0000
1000
0000
0000
0001
0000
0000
0010
0000
0000
0100
0000
0000
1000
0000
0000
0100
0000
0000
,
0010
0001
0010
0100
1000
0M00
00M0
000M
00M0
0M00
M000
000M
0M00
00M0
M000
00M0
,
0M00
000M
00M0
0M00
M000
0M00
00M0
000M
M000
00M0
0M00
000M
M000
0M00
00M0
000M
,
M000
00M0
0M00
000M
M000
0M00
00M0
000M
00M0
0M00
M000
000M
0M00
00M0
M000
00M0
,
0M00
000M
M000
0M00
00M0
000M
00M0
0M00
M000
000M
0M00
00M0
M000
00M0
0M00
000M
,
M000
00M0
0M00
000M
M020
0M00
000M
0M00
M000
0M00
000M
0M00
M230
00M0
000M
00M0
,
M000
00M0
000M
00M0
M302
0M00
00M0
0M00
M000
0M00
00M0
0M00
20M3
000M
00M0
0M00
,
00M0
000M
00M0
0M00
302M
0M00
M000
0M00
000M
0M00
M000
0M00
000M
0M00
M000
0M00
,
000M
0M00
203M
0M00
320M
00M0
M000
00M0
000M
00M0
M000
00M0
032M
0M00
M000
0M00
,
000M
0M00
M000
0M00
M032
0M00
00M0
0M00
M000
0M00
00M0
0M00
M203
00M0
000M
00M0
,
M000
00M0
000M
00M0
032M
0M00
M000
0M00
000M
0M00
M000
0M00
203M
00M0
0M00
00M0
,
000M
00M0
0M00
00M0
3M02
M000
0M00
00M0
0M00
M000
0M00
00M0
0M00
M000
0M00
00M0
,
0M00
M000
0M00
00M0
0M23
M000
0M00
000M
0M00
M000
0M00
000M
M230
00M0
000M
00M0
,
M000
0000
00M0
0000
000M
0000
0300
0000
MMMM
0000
M000
0000
MMMM
0000
M000
0000
MMMM
0010
0000
0000
0100
0000
0000
1000
0000
0010
0000
0000
0100
0000
0000
0010
,
0000
1000
0000
0000
0100
0000
0000
0010
0000
0001
0000
0000
1000
0000
0010
0100
0000
0001
0000
0000
0010
0000
0000
0100
0000
1000
0000
0000
0010
0000
0000
0100
,
0000
0001
0000
0000
0010
0000
0000
0100
0000
1000
0000
0000
0001
0000
1000
0010
0000
1000
0001
0000
1000
0001
0000
1000
0001
1000
0001
1000
0001
1000
0001
1000
,
0000
0010
0100
0000
0010
0100
0000
0010
0100
0010
0100
0010
0100
0010
0100
0010
0000
1000
0100
0000
1000
0100
0000
1000
0100
1000
0100
1000
0100
1000
0100
1000
,
0000
0001
0010
0000
0001
0010
0000
0001
0010
0001
0010
0001
0010
0001
0010
0001
1000
0000
0010
0000
1000
0000
0100
0010
0000
0001
0000
0000
1000
0000
0010
0100
,
0000
0001
0000
0000
1000
0000
0100
0010
0000
0001
0000
0000
1000
0000
0010
0100
0000
0010
0000
0000
1000
0000
0001
0010
0000
0100
0000
0000
1000
0000
0001
0100
,
0000
0010
0000
0000
1000
0000
0100
0010
0000
0001
0000
0000
0010
0000
0100
1000
0000
0001
1000
0000
0001
1000
0000
0001
1000
0001
1000
0001
1000
0001
1000
0001
,
0000
0100
0010
0000
0100
0010
0000
0100
0010
0100
0010
0100
0010
0100
0010
0100
0000
0010
1000
0000
0010
1000
0000
0010
1000
0010
1000
0010
1000
0010
1000
0010
,
0000
0100
0001
0000
0100
0001
0000
0100
0001
0100
0001
0100
0001
0100
0001
0100
0001
0000
1000
0000
0100
0000
0000
0010
0000
0100
0000
0000
1000
0000
0000
0001
,
0000
0100
0000
0000
0001
0000
0000
1000
0000
0100
0000
0000
0010
0000
0001
1000
0000
0001
0000
0000
1000
0000
0000
0100
0000
0010
0000
0000
0100
0000
0000
1000
,
0000
0001
0000
0000
0100
0000
0000
0001
0000
1000
0000
0000
0100
0000
0010
0001
0000
1000
0001
0000
1000
0001
0000
1000
0001
1000
0001
1000
0001
1000
0001
1000
,
0000
0010
0100
0000
0010
0100
0000
0010
0100
0010
0100
0010
0100
0010
0100
0010
0000
1000
0001
0000
1000
0001
0000
1000
0001
1000
0001
1000
0001
1000
0001
1000
,
0000
0100
0010
0000
0100
0010
0000
0100
0010
0100
0010
0100
0010
0100
0010
0100
1000
0000
0001
0000
0100
0000
0000
0010
0000
1000
0000
0000
0100
0000
0000
0010
,
0000
0001
0000
0000
0100
0000
0000
0010
0000
1000
0000
0000
0100
0000
0010
0001
0000
0100
0000
0000
0010
0000
0000
1000
0000
0001
0000
0000
0010
0000
0000
0100
,
0000
1000
0000
0000
0001
0000
0000
0100
0000
0010
0000
0000
1000
0000
0100
0010
0000
0001
0100
0000
0001
0100
0000
0001
0100
0001
0100
0001
0100
0001
0100
0001
,
0000
1000
0010
0000
1000
0010
0000
1000
0010
1000
0010
1000
0010
1000
0010
1000
0000
0100
1000
0000
0100
1000
0000
0100
1000
0100
1000
0100
1000
0100
1000
0100
,
0000
0010
0001
0000
0010
0001
0000
0010
0001
0010
0001
0010
0001
0010
0001
0010
0100
0000
1000
0000
0001
0000
0000
0100
0000
0001
0000
0000
1000
0000
0000
0100
,
0000
1000
0000
0000
0001
0000
0000
1000
0100
0010
0001
0010
0100
1000
0001
1000
0001
0000
0000
0000
1000
0000
0000
0000
0010
0000
1000
0000
0100
0000
0010
0000
,
0000
0010
0001
0000
0010
0100
1000
0010
0000
0010
0100
0000
0010
1000
0100
0010
,
0000
0010
0001
0000
1000
0010
0100
0010
0000
0100
0010
0000
1000
0001
0010
0001
,
0000
0010
0100
0000
1000
0001
0100
0001
0000
0100
0010
0000
1000
0001
0010
0001
,
0000
0010
0100
0000
1000
0001
0100
0010
0000
1000
0001
0000
0100
0010
0000
1000
,
0001
0010
0100
1000
0001
0100
0001
1000
0000
0001
1000
0000
0001
0010
0000
0001
,
1000
0100
0010
0001
1000
0010
0100
0010
0000
1000
0010
0000
0100
0001
0000
1000
,
0010
1000
0100
0010
0001
0010
0100
1000
0000
0001
0010
0000
0001
0100
0000
0001
,
0010
0001
0100
0010
0100
0001
1000
0100
1000
0000
0001
0000
0100
0001
0010
0100
,
0000
0100
1000
0000
0100
0010
0001
0100
0000
0100
0010
0000
0100
0001
0010
0100
,
0000
0100
1000
0000
0001
0100
0010
0100
0000
0010
0100
0000
0001
1000
0100
1000
,
0000
0100
0010
0000
0001
1000
0010
1000
0000
0010
0100
0000
0001
1000
0100
1000
,
0000
0100
0010
0000
0001
1000
0010
0100
0000
0001
1000
0000
0010
0100
0000
0001
,
1000
0100
0010
0001
1000
0010
1000
0001
0000
1000
0001
0000
1000
0100
0000
1000
,
0001
0010
0100
1000
0001
0100
0010
0100
0000
0001
0100
0000
0010
1000
0000
0001
,
0100
0001
0010
0100
1000
0100
0010
0001
0000
1000
0100
0000
1000
0010
0000
1000
,
0100
1000
0010
0100
0010
1000
0001
0010
0001
0000
1000
0000
0100
1000
0010
0100
,
0000
0100
0001
0000
0100
0010
1000
0100
0000
0100
0010
0000
0100
1000
0010
0100
,
0000
0100
0001
0000
1000
0100
0010
0100
0000
0010
0100
0000
1000
0001
0100
0001
,
0000
0100
0010
0000
1000
0001
0010
0001
0000
0010
0100
0000
1000
0001
0100
0001
,
0000
0100
0010
0000
1000
0001
0010
0100
0000
1000
0001
0000
0010
0100
0000
1000
,
0001
0100
0010
1000
0001
0010
0001
1000
0000
0001
1000
0000
0001
0100
0000
0001
,
1000
0010
0100
0001
1000
0100
0010
0100
0000
1000
0100
0000
0010
0001
0000
1000
,
0100
1000
0010
0100
0001
0100
0010
1000
0000
0001
0100
0000
0001
0010
0000
0001
,
0100
0001
0010
0100
0010
0001
1000
0001
0100
0010
0100
0010
1000
0010
0100
0001
,
1000
0100
1000
0010
0100
0001
0100
0010
1000
0100
0010
0001
1000
0100
0010
0001
,
1000
0100
1000
0001
1000
0010
1000
0100
0010
0001
0010
0100
1000
0001
0010
0001
,
1000
0010
0100
0010
1000
0001
0100
0001
1000
0100
0010
0100
1000
0001
0100
0010
,
1000
0100
0010
0001
0100
0010
1000
0001
1000
0010
1000
0010
0100
0010
0100
0010
,
0100
0001
1000
0001
0100
0001
1000
0001
0100
0010
0100
0010
1000
0010
1000
0010
,
1000
0001
0010
0001
1000
0001
0010
0001
1000
0100
1000
0100
0010
0100
0010
0100
,
1000
0001
0100
0001
1000
0001
0100
0001
1000
0001
1000
0001
1000
0001
1000
0001
,
1000
0010
0100
0001
0010
0100
1000
0001
0100
0010
1000
0010
0100
0001
1000
0001
,
0010
0100
0010
0001
1000
0010
1000
0010
0100
0001
0010
0001
1000
0100
0010
0100
,
1000
0001
0100
0001
1000
0100
1000
0100
0010
0001
1000
0001
0100
0010
0100
0010
,
1000
0100
0010
0001
0010
0100
0010
0100
1000
0100
1000
0001
0100
0010
0100
0001
,
1000
0100
1000
0010
0100
0001
0010
0100
1000
0001
1000
0001
0010
0001
0010
0001
,
0010
0100
1000
0100
0010
0100
1000
0100
0010
0001
0010
0001
1000
0001
1000
0001
,
1000
0010
0100
0010
1000
0010
0100
0010
1000
0001
1000
0001
0010
0100
0010
0100
,
0010
0001
1000
0001
0010
0001
1000
0001
0010
0100
0010
0100
1000
0100
1000
0100
,
0010
0001
0100
0010
1000
0100
0010
0001
1000
0010
0100
0010
1000
0001
0010
0001
,
1000
0100
0010
0100
1000
0001
1000
0001
1000
0010
0100
0010
1000
0001
0010
0001
,
1000
0010
0100
0001
1000
0010
0100
0010
1000
0100
1000
0100
0010
0001
0010
0001
,
1000
0100
1000
0010
0100
0001
0100
0010
1000
0010
1000
0010
0100
0010
0100
0010
,
1000
0100
0010
0001
0100
0010
1000
0001
1000
0100
1000
0100
0010
0100
0010
0100
,
1000
0001
0100
0001
1000
0001
0100
0001
1000
0010
1000
0010
0100
0010
0100
0010
,
1000
0001
0010
0001
1000
0001
0010
0001
1000
0100
1000
0100
0010
0001
0010
0001
,
1000
0010
0100
0010
1000
0010
0100
0010
1000
0001
1000
0001
0100
0001
0100
0001
,
0100
0010
1000
0100
0010
0001
0100
0010
1000
0100
1000
0100
0010
0100
0010
0001
,
0010
0001
1000
0001
1000
0010
1000
0010
0100
0010
1000
0100
1000
0001
0100
0001
,
1000
0010
1000
0001
0010
0001
0100
0001
1000
0001
1000
0100
0010
0100
0010
0001
,
0010
0100
1000
0100
1000
0001
1000
0010
0100
0010
1000
0010
1000
0001
0010
0001
,
1000
0100
1000
0001
0100
0001
0010
0001
1000
0100
1000
0100
0010
0100
0010
0001
,
0010
0100
1000
0100
0010
0001
0010
0001
1000
0001
0100
0010
0100
0001
1000
0001
,
0010
0001
0010
0100
1000
0010
1000
0001
1000
0001
0100
0001
0100
0010
0100
0010
,
1000
0010
1000
0001
1000
0100
1000
0100
0010
0001
0010
0100
1000
0010
0100
0001
,
1000
0100
1000
0010
0100
0001
0100
0010
1000
0010
1000
0010
0100
0010
0100
0001
,
0100
0001
1000
0001
1000
0100
1000
0100
0010
0100
1000
0010
1000
0001
0010
0001
,
1000
0100
1000
0001
0100
0001
0010
0001
1000
0001
1000
0010
0100
0010
0100
0001
,
0100
0010
1000
0010
1000
0001
1000
0100
0010
0100
1000
0100
1000
0001
0100
0001
,
1000
0010
1000
0001
0010
0001
0100
0001
1000
0000
0000
0100
0000
0000
0010
0000
,
0000
0001
0000
0000
0100
0000
0000
0010
1010
0000
1000
0000
0000
0100
0000
0000
,
0010
0000
0000
0100
0000
0000
1000
0000
1001
0000
0000
0000
0001
0000
0000
0010
,
0011
0000
0001
0000
0000
1000
0000
0000
0001
0100
0010
1000
0001
0010
0100
1000
,
0001
0100
0001
0010
0100
1000
0100
0010
0001
0010
0001
0010
0100
0010
0100
1000
,
0100
1000
0001
1000
0001
0100
0001
0100
0010
0100
0001
0010
0001
1000
0010
1000
,
0001
0100
0001
1000
0100
1000
0010
1000
0001
1000
0001
0010
0100
0010
0100
1000
,
0100
0010
0001
0010
0001
1000
0001
0100
0010
0100
0001
0100
0001
1000
0100
1000
,
0001
0010
0001
1000
0010
1000
0100
1000
0001
0010
0001
0010
0100
0010
0100
1000
,
0100
0010
0001
0010
0100
1000
0100
1000
0001
1000
0010
0100
0010
1000
0001
1000
,
0100
1000
0100
0010
0001
0100
0001
1000
0001
1000
0010
1000
0010
0100
0010
0100
,
0001
0100
0001
1000
0001
0010
0001
0010
0100
1000
0100
0010
0001
0100
0010
1000
,
0001
0010
0001
0100
0010
1000
0010
0100
0001
0100
0001
0100
0010
0100
0010
1000
,
0010
1000
0001
1000
0001
0010
0001
0010
0100
0010
0001
0100
0001
1000
0100
1000
,
0001
0010
0001
1000
0010
1000
0100
1000
0001
1000
0001
0100
0010
0100
0010
1000
,
0010
0100
0001
0100
0001
1000
0001
0010
0100
0010
0001
0010
0001
1000
0010
1000
,
0001
0100
0001
1000
0100
1000
0010
1000
0001
0100
0001
0100
0010
0100
0010
1000
,
0010
1000
0100
1000
0100
0010
0100
0010
0001
0010
0001
0100
0001
0100
0010
0100
,
0001
1000
0001
0010
0100
0010
0100
1000
0100
1000
0001
1000
0001
0100
0001
0100
,
0010
0100
0001
0100
0001
1000
0001
0010
0100
1000
0100
0010
0001
0100
0010
1000
,
0010
0100
0010
1000
0001
0010
0001
1000
0002
0000
0000
0000
0003
0000
0000
0000
;
