#TITLE:New Game Plus;
#SUBTITLE:;
#ARTIST:Kobaryo;
#TITLETRANSLIT:;
#SUBTITLETRANSLIT:;
#ARTISTTRANSLIT:;
#CREDIT:owenviau1;
#BANNER:;
#BACKGROUND:;
#LYRICSPATH:;
#CDTITLE:;
#MUSIC:Kobaryo - New Game Plus.mp3;
#OFFSET:-2.875;
#SAMPLESTART:109.655;
#SAMPLELENGTH:29.999;
#SELECTABLE:YES;
#BPMS:0.000=200.000,164.000=100.000,196.000=200.000;
#STOPS:;
#BGCHANGES:;
// cache tags:
#FIRSTBEAT:0.000;
#LASTBEAT:452.000;
#SONGFILENAME:Songs/owenviau1 Simfiles 7/New Game Plus - [Braeden47 & owenviau1]/New Game Plus.sm;
#HASMUSIC:1;
#HASBANNER:0;
#MUSICLENGTH:151.170;
// end cache tags

//---------------dance-single - 16.12 (16) (owenviau----------------
#NOTES:
     dance-single:
     16.12 (16) (owenviau:
     Hard:
     16:
     1.000,1.000,0.007,0.562,1.000,1640.000,1.000,85.000,15.000,0.000:
100M
0000
0010
0100
0001
1000
0100
1000
0010
0000
0100
0000
0001
1000
0100
0010
,
0001
0000
1000
0010
0100
0001
1000
0100
0010
0000
0001
0000
2000
0000
0000
0000
,
3010
0000
0100
0001
0100
0010
1000
0001
0000
0100
0010
0000
1000
0000
0001
0000
,
0010
0000
0100
1000
0001
0100
0010
1000
0000
0001
0100
0000
0010
0000
0100
0000
,
00M1
1000
0100
1000
0010
0100
0001
1000
0100
0010
0001
0100
0010
1000
0001
0100
,
00M1
1000
0010
0100
0010
1000
0001
0010
0100
1000
0001
0010
0001
1000
0010
0100
,
001M
1000
0001
0100
0001
1000
0010
0100
0001
1000
0100
0010
0001
1000
0010
1000
,
00M1
0100
0010
1000
0001
0010
0100
1000
001M
0100
0010
1000
0001
0100
0001
1000
,
0M20
0000
2030
0000
3002
0003
0020
0030
0002
0000
0000
0003
1000
0010
0100
0001
,
0010
0001
1000
0010
0100
0010
1000
0001
0100
0001
0010
0100
1000
0010
0100
0001
,
0100
0010
1000
0001
0010
0001
1000
0100
1000
0010
0100
0001
1000
0100
1000
0010
,
0100
0001
0100
0010
1000
0001
0010
0100
1000
0010
0100
0001
1000
0010
1000
0001
,
0100
0010
0100
0001
1000
0001
0010
0100
1000
0010
0100
0001
1000
0000
0010
0000
,
0100
0001
1000
0100
1000
0010
0100
0010
1000
0001
0010
0001
0100
0010
1000
0001
,
0010
0100
1000
0001
0100
0010
1000
0001
0100
0001
0010
0100
1000
0010
0100
0010
,
1000
0001
0100
0001
0010
0100
1000
0010
0100
0001
1000
0100
1000
0001
0100
0010
,
0100
0001
1000
0010
1000
0001
0100
0010
200M
0000
3100
0000
M020
0000
0031
0000
,
0100
0010
1000
0001
0010
0001
0100
0010
1000
0001
0100
0001
1000
0010
0100
0010
,
1000
0001
0010
0001
0100
0010
1000
0001
0010
0100
1000
0001
0010
0001
1000
0100
,
0010
0001
0100
0010
1000
0001
0100
0001
1000
0010
0100
0010
1000
0001
0010
0001
,
0100
0010
1000
0001
0010
0001
1000
0100
0010
0001
0100
0010
1000
0000
0001
0000
,
0010
0100
1000
0001
0100
0010
0100
0001
1000
0010
1000
0001
0100
0010
0100
0001
,
1000
0010
1000
0100
0010
0001
1000
0100
1000
0001
0010
0001
0100
0010
0100
0001
,
1000
0100
0010
0001
0100
0010
1000
0001
0100
0001
1000
0010
1000
0001
0010
0100
,
2000
0000
0000
0000
3020
0130
0002
1003
,
0100
1000
0010
0100
0001
1000
0100
1000
0010
0100
0010
1000
0001
0010
0001
0100
,
0010
1000
0001
0010
0100
1000
0001
0100
0001
1000
0010
0100
0002
0000
1003
0000
,
0100
0010
0001
1000
0010
0100
0010
1000
0001
0100
0001
1000
0100
0010
0001
0100
,
0010
1000
0001
0100
0001
1000
0010
0100
0002
0000
2003
0000
3020
0000
2030
0000
,
3100
0010
0001
1000
0001
0100
0010
0100
0001
1000
0010
1000
0001
0100
0001
1000
,
0010
0100
0001
1000
0100
0010
0001
1000
0010
0100
0001
1000
0200
0000
0310
0000
,
0001
1000
0010
0100
0001
1000
0100
1000
0010
0100
0001
1000
0100
1000
0001
0100
,
0010
0000
0000
0000
0000
0000
0000
0000
0000
0000
1000
0000
0000
0000
0000
0000
0000
0000
0000
0001
0000
0000
0000
0000
0000
0000
0000
0000
0000
0100
0000
0000
0000
0000
0000
0000
0000
0000
0001
0000
0000
0000
0000
0000
0000
0000
0000
0000
1000
0000
0000
0000
0000
0000
0000
0000
0000
0000
0100
0000
0000
0000
0000
0000
0000
0000
0000
0010
0000
0000
0000
0000
0000
0000
0000
0000
0000
0001
0000
0000
0000
0000
0000
0000
0000
0000
1000
0000
0000
0000
0000
0000
0000
0000
0000
0000
0020
0000
0000
0000
0000
0000
0000
0000
0000
0000
0000
0000
0000
0000
0000
0000
0000
0000
0000
0000
0000
0000
0000
0000
0130
0000
0000
0000
0000
0000
0000
0000
0000
0000
0000
0000
0000
0000
0000
0000
0000
0000
0000
0000
0000
0000
0000
0000
0002
0000
0000
0000
0000
0000
0000
0000
0000
0000
0000
0000
0000
0000
0000
0000
0000
0000
0000
0000
0000
0000
0000
0000
1003
0000
0000
0000
0000
0000
0000
0000
0000
0000
0000
0000
0000
0000
0000
0000
0000
0000
0000
0000
0000
0000
0000
0000
,
0100
0010
0001
1000
0010
0100
0010
1000
0001
0100
0001
1000
0100
0010
0001
1000
,
0010
0100
0010
1000
0001
0010
0100
1000
0001
0010
0100
1000
0010
0100
0001
1000
,
0010
1000
0001
0010
0100
1000
0001
0010
0001
1000
0010
0100
0010
1000
0001
0100
,
0001
1000
0100
0010
0001
1000
0010
0100
0001
1000
0010
0100
0001
0010
0100
1000
,
0010
0100
0001
1000
0100
1000
0001
0100
0010
0100
0001
1000
0010
1000
0001
0100
,
0010
1000
0001
0010
0001
1000
0100
1000
0001
0010
0100
1000
0001
0100
0001
1000
,
0010
0100
0010
1000
0001
0100
0001
1000
0100
1000
0010
0100
0001
1000
0100
0010
,
0002
0000
0000
0000
0003
0000
0200
0000
0000
0000
0000
0000
0302
0000
0000
0000
0000
0000
2003
0000
0000
3000
0000
0000
2000
0000
0000
0000
0000
0000
0000
0000
0000
0000
0000
0000
3040
0000
0000
0000
0000
0000
0000
0000
0000
0000
0000
0000
,
0130
0001
1000
0100
0010
0001
2000
0000
3010
0100
0020
0000
2030
0000
3001
0010
,
0100
1000
0010
1000
0001
0100
0010
2000
0000
3001
0010
0200
1300
0001
0100
0010
,
0100
0001
1000
0200
1300
0010
0200
0000
0301
1000
0020
0000
0230
0000
0301
2000
,
3001
0000
0010
0000
0100
0000
1000
0000
0020
0000
0130
0000
0001
0000
2000
0000
3100
0000
0M00
0000
0010
0000
0001
0000
1000
0000
0010
0100
0010
0000
1000
0000
,
0001
0010
0100
2000
3010
0100
0002
0000
0013
0100
2000
0000
3020
0000
0130
0001
,
1000
0100
1000
0001
0200
0310
1000
0002
0000
0013
0100
2000
3001
0010
0001
0100
,
0010
0000
1000
0000
0010
0000
0200
0000
0301
0000
1000
0000
0200
0000
0000
0000
0310
0000
0001
0000
2000
0000
0000
0000
3020
0000
0000
0000
0130
0001
1000
0001
,
0100
0000
0000
0000
0000
0000
0000
0000
0000
0000
0000
0000
0010
0000
0000
0000
0000
0000
0000
0000
0000
0000
0000
0000
1000
0000
0000
0000
0000
0000
0000
0000
0000
0000
0000
0000
0001
0000
0000
0000
0000
0000
0000
0000
0000
0000
0000
0000
0020
0000
0000
0000
0000
0000
0000
0000
0000
0000
0000
0000
0130
0000
0000
0000
0000
0000
0000
0000
0000
0000
0000
0000
1000
0000
0000
0000
0000
0000
0000
0000
0000
0000
0000
0000
0001
0000
0000
0000
0000
0000
0000
0000
0000
0000
0000
0000
1000
0000
0000
0000
0000
0000
0000
0000
0000
0000
0000
0000
0100
0000
0000
0000
0000
0000
0010
0000
0000
0000
0000
0000
0001
0000
0000
0000
0000
0000
0000
0000
0000
0000
0000
0000
1000
0000
0000
0000
0000
0000
0000
0000
0000
0000
0000
0000
0010
0000
0000
0000
0000
0000
0100
0000
0000
0000
0000
0000
0001
0000
0000
0000
1000
0000
0000
0000
0001
0000
0000
0000
0010
0000
0000
0000
0000
0000
0100
0000
0000
0000
0000
0000
1000
0000
0000
0000
0000
0000
0001
0000
0000
0000
0000
0000
,
0100
0000
0010
1000
0001
0010
0100
1000
0001
0000
0100
0000
0010
1000
0100
0010
,
0001
0000
1000
0010
0100
0001
1000
0100
0010
0000
0001
0000
2000
0000
0000
0000
,
3010
0000
0100
0001
0100
0010
1000
0001
0000
0100
0010
0000
1000
0000
0001
0000
,
0010
0000
0100
1000
0001
0100
0010
1000
0000
0001
0100
0000
0010
0000
0100
0000
,
0001
0000
1000
0100
1000
0010
0100
0001
1000
0000
0100
0000
0010
0001
0010
0100
,
1000
0000
0010
0100
0001
1000
0100
1000
0010
0000
0100
0000
0002
0000
0000
0000
,
1003
0000
0010
0100
0010
1000
0001
0020
0000
0130
2000
0000
3002
0000
0203
0000
,
0310
0000
1000
0100
1000
0001
0100
0020
0000
1030
0001
0000
0100
0000
0010
0000
,
1000
0100
0010
0001
1000
0010
0100
0001
0100
0010
1000
0001
0010
0001
1000
0100
,
0010
0001
0100
0010
0100
0001
1000
0001
0100
0010
0100
0001
1000
0100
1000
0001
,
0100
0010
0100
0001
1000
0100
0010
0001
1000
0010
1000
0100
0010
0001
0100
0001
,
1000
0010
0100
0001
1000
0100
1000
0010
0100
0001
0010
0001
1000
0010
1000
0100
,
0010
0001
0100
0010
0100
0001
1000
0010
1000
0001
0100
0010
0100
0001
1000
0100
,
0010
0001
1000
0010
0100
0001
1000
0100
1000
0001
0010
0001
0100
0010
1000
0001
,
0100
0001
1000
0010
0100
0001
0100
0010
1000
0001
0010
0100
1000
0001
0010
0001
,
0100
0010
0100
0001
1000
0010
1000
0001
0100
0010
1000
0001
0010
0100
1000
0001
,
20M0
0000
3100
0010
0001
1000
0010
0100
0010
0000
1000
0000
0001
0010
0100
1000
,
002M
0000
0130
0001
1000
0010
1000
0001
0100
0000
0010
0000
1000
0001
0010
0100
,
200M
0000
3010
0100
0001
1000
0001
0100
0010
0000
0100
0000
0001
0010
0100
1000
,
002M
0000
0130
0001
1000
0010
1000
0001
0010
0000
0100
0000
1000
0001
0100
0010
,
0100
0001
1000
0010
1000
0001
0100
0010
1000
0001
0010
0001
0100
0010
1000
0001
,
0100
0001
1000
0010
0100
0010
1000
0001
0010
0001
0100
0010
1000
0001
0010
0100
,
1000
0001
0010
0001
0100
0010
1000
0001
0100
0001
1000
0010
0100
0001
0100
0010
,
2000
3000
2000
3000
0002
0003
0002
0003
0200
0000
0000
0300
0010
1000
0001
0010
,
0100
1000
0010
0100
0001
1000
0010
1000
0001
0100
0010
0100
0001
1000
0100
1000
,
0010
0100
0010
1000
0001
0010
0001
0100
0010
1000
0001
0010
0100
1000
0001
0010
,
0001
1000
0010
0100
0010
1000
0001
0100
0001
1000
0010
0100
0001
1000
0100
1000
,
0001
0010
0100
1000
0010
0100
0010
1000
0001
0100
0001
1000
0010
0000
0100
0000
,
0001
1000
0100
1000
0010
0100
0001
1000
0010
1000
0001
0100
0010
0100
0001
1000
,
0100
1000
0010
0100
0010
1000
0001
0010
0100
1000
0010
0100
0001
1000
0100
0010
,
0001
1000
0010
1000
0001
0100
0010
0100
0001
1000
0010
1000
0001
0100
0010
1000
,
0001
0010
0100
1000
0010
0100
0001
1000
0200
0000
0310
0000
0002
0000
1003
0000
,
0010
0100
0010
1000
0001
0010
0001
0100
0010
0100
0001
1000
0010
0100
0001
1000
,
0100
1000
0010
0100
0001
1000
0100
0010
0001
1000
0010
1000
0100
0010
0001
1000
,
0010
0100
0010
1000
0001
0100
0001
1000
0010
0100
0001
1000
0100
1000
0001
0010
,
0100
1000
0010
0100
0010
1000
0001
0010
0001
1000
0010
0100
0001
0000
1000
0000
,
0100
0010
0001
1000
0010
0100
0010
1000
0001
0100
0001
1000
0100
0010
0001
1000
,
0010
0100
0001
1000
0010
1000
0001
0100
0001
1000
0010
0100
0001
1000
0100
1000
,
0001
0010
0001
1000
0010
0100
0010
1000
0001
0100
0001
1000
0100
0010
0001
1000
,
0020
0000
0000
0000
2030
3002
0023
0230
,
1300
0010
0100
0001
1000
0010
1000
0001
0100
0010
0100
0001
1000
0001
0100
0010
,
0100
0001
1000
0100
0010
0001
1000
0010
0100
0001
0100
0010
2000
0000
3001
0000
,
0010
0100
1000
0001
0010
0001
0100
0010
0100
0001
1000
0010
1000
0001
0100
0010
,
1000
0001
0010
0100
1000
0001
0010
0001
0200
0000
0320
0000
2030
0000
3002
0000
,
0013
0100
1000
0010
0100
0010
1000
0001
0100
0001
1000
0010
0100
0001
0010
0001
,
1000
0100
0010
0001
1000
0010
0100
0001
0100
0010
1000
0001
2000
0000
3010
0000
,
0100
0001
1000
0010
0100
0010
1000
0001
0010
0001
0100
0010
1000
0001
0010
0100
,
1000
0000
0000
0000
0000
0000
0000
0000
0000
0000
0010
0000
0000
0000
0000
0000
0000
0000
0000
0100
0000
0000
0000
0000
0000
0000
0000
0000
0000
0001
0000
0000
0000
0000
0000
0000
0000
0000
1000
0000
0000
0000
0000
0000
0000
0000
0000
0000
0100
0000
0000
0000
0000
0000
0000
0000
0000
0000
0010
0000
0000
0000
0000
0000
0000
0000
0000
0001
0000
0000
0000
0000
0000
0000
0000
0000
0000
0100
0000
0000
0000
0000
0000
0000
0000
0000
0001
0000
0000
0000
0000
0000
0000
0000
0000
0000
2000
0000
0000
0000
0000
0000
0000
0000
0000
0000
0000
0000
0000
0000
0000
0000
0000
0000
0000
0000
0000
0000
0000
0000
3020
0000
0000
0000
0000
0000
0000
0000
0000
0000
0000
0000
0000
0000
0000
0000
0000
0000
0000
0000
0000
0000
0000
0000
0230
0000
0000
0000
0000
0000
0000
0000
0000
0000
0000
0000
0000
0000
0000
0000
0000
0000
0000
0000
0000
0000
0000
0000
0302
0000
0000
0000
0000
0000
0000
0000
0000
0000
0000
0000
0000
0000
0000
0000
0000
0000
0000
0000
0000
0000
0000
0000
,
10M3
0100
0010
0001
1000
0010
0100
0001
0100
0010
1000
0001
0010
0001
1000
0100
,
0010
0001
0100
0010
0100
0001
1000
0001
0100
0010
0100
0001
1000
0100
1000
0001
,
0100
0010
0100
0001
1000
0100
0010
0001
1000
0010
1000
0100
0010
0001
0100
0001
,
1000
0010
0100
0001
1000
0100
1000
0010
0100
0001
0010
0001
1000
0010
1000
0100
,
0010
0001
0100
0010
0100
0001
1000
0010
1000
0001
0100
0010
0100
0001
1000
0100
,
0010
0001
1000
0010
0100
0001
1000
0100
1000
0010
0100
0001
1000
0010
0100
0001
,
0100
0010
1000
0001
0010
0001
1000
0100
0010
0001
0100
0010
0100
0001
1000
0001
,
0100
0010
0100
0001
1000
0100
1000
0001
0100
0010
0100
0001
1000
0100
0010
0001
,
1000
0010
1000
0100
0010
0001
0100
0001
1000
0010
0100
0001
1000
0100
1000
0010
,
0100
0001
0010
0001
1000
0010
1000
0100
0010
0001
0100
0010
0100
0001
1000
0010
,
1000
0001
0100
0010
0100
0001
1000
0100
0010
0001
1000
0010
0100
0001
1000
0100
,
1000
0001
0010
0001
0100
0010
1000
0001
0100
0001
1000
0010
0100
0001
0100
0010
,
1000
0001
0010
0100
1000
0001
0010
0001
0100
0010
0100
0001
1000
0010
1000
0001
,
0100
0010
1000
0001
0010
0100
1000
0001
0100
0010
0100
0001
1000
0100
1000
0010
,
0100
0010
1000
0001
0010
0001
0100
0010
1000
0001
0010
0100
1000
0001
0100
0010
,
1000
0200
0310
0002
2003
0000
3020
0000
,
0030
0000
0000
0000
;

//---------------dance-single - ----------------
#NOTES:
     dance-single:
     :
     Challenge:
     28:
     1.000,1.000,0.013,0.516,1.000,1798.000,2.000,78.000,1.000,0.000:
100M
0000
0010
0100
0001
1000
0100
1000
0010
0000
0100
0000
0001
1000
0100
0010
,
0001
0000
1000
0010
0100
0001
1000
0100
0010
0000
0001
0000
1000
0000
1000
0000
,
0010
0000
0100
0001
0100
0010
1000
0001
0000
0100
0010
0000
1000
0000
0001
0000
,
0010
0000
0100
1000
0001
0100
0010
1000
0000
0001
0100
0000
0010
0000
0100
0000
,
0001
1000
0100
1000
0010
0100
0001
1000
0100
0010
0001
0100
0010
1000
0001
0100
,
0001
1000
0010
0100
0010
1000
0001
0010
0100
1000
0001
0010
0001
1000
0010
0100
,
0010
1000
0001
0010
0100
1000
0100
0010
0001
0010
0100
1000
0001
0100
0010
0100
0001
0010
0100
1000
0100
0010
0001
0100
,
0010
1000
0001
0010
0100
1000
0100
0010
0001
0010
0100
1000
0001
0100
0010
1000
0001
0010
0100
1000
0100
0010
0001
0100
,
0020
0000
0000
0000
2030
0000
0000
0000
3002
0000
0003
0000
0020
0000
0030
0000
0002
0000
0000
0000
0000
0000
0003
0000
1000
0000
0010
0000
0100
0001
0100
0000
,
0010
0000
1000
0000
0100
0010
0001
0000
1000
0000
0001
0010
0100
0000
1000
0000
0100
0010
0001
0000
1000
0001
0100
0000
0010
0000
1000
0000
0010
0100
0001
0000
,
1000
0100
0010
0000
0001
0010
0100
0000
1000
0001
0100
0000
0010
0000
0100
0000
0001
1000
0010
0000
0100
0000
0001
0000
0200
0000
0000
0000
2300
0000
0000
0000
,
3001
0100
0010
0000
1000
0000
0001
0000
1000
0100
0010
0000
0001
0000
0010
0000
0100
1000
0001
0000
0100
0000
0010
0000
1000
0000
0100
0000
0010
0000
0001
0000
,
0100
0010
1000
0000
0001
0000
0100
0000
0010
1000
0001
0000
0100
0000
0010
0000
1000
0100
0010
0000
0001
0000
0100
0000
0010
0000
1000
0000
0001
0000
0000
0000
,
1000
0100
0010
0000
0001
0000
0010
0000
0100
1000
0001
0000
0100
0000
0010
0000
1000
0001
0100
0000
0010
0000
1000
0000
0001
0100
0010
0000
1000
0000
0010
0000
,
0100
0001
1000
0000
0010
0000
1000
0000
0001
0100
0010
0000
1000
0000
0100
0000
0010
0001
1000
0000
0001
0000
0100
0000
0020
0000
0000
0000
2030
0000
0000
0000
,
3001
0100
0010
0000
1000
0000
0001
0000
0100
0010
1000
0000
0001
0000
0100
0000
0010
0000
1000
0000
0001
0000
0100
0000
0010
1000
0010
0000
1000
0001
0100
0000
,
0010
1000
0010
0000
1000
0000
0010
0000
1000
0000
0001
0000
0100
0000
0010
0000
2000
0000
0000
0000
3100
0000
0000
0000
0020
0000
0000
0000
0031
0000
0000
0000
,
1000
0000
0001
0000
0100
0000
0010
0000
1000
0000
0001
0100
0010
0000
1000
0000
0001
0100
0010
0000
1000
0000
0001
0000
0010
0100
1000
0000
0001
0100
0010
0000
,
1000
0010
0100
0000
0001
0000
0100
0000
0010
1000
0001
0000
0100
0000
0010
0000
1000
0100
0010
0000
0001
0000
0010
0000
0100
1000
0001
0000
0100
0000
0010
0000
,
1000
0001
0100
0000
0010
0000
1000
0000
0100
0000
0010
0000
0001
0000
0100
0000
0010
1000
0001
0000
0100
0000
0010
0000
1000
0100
0010
0000
0001
0000
0100
0000
,
0010
1000
0001
0000
0100
0000
0010
0000
1000
0100
0010
0000
0001
0000
0010
0000
0100
0000
1000
0000
0001
0000
0100
0000
0010
0000
0010
0000
1000
0000
1000
0000
,
0001
0100
0001
0010
0100
1000
0100
0010
0001
0010
0100
1000
0001
0100
0010
1000
0100
0010
0001
0010
0100
1000
0001
0100
,
0010
1000
0001
0010
0100
1000
0100
0010
0001
0010
0100
1000
0001
0100
0010
1000
0001
0010
0100
1000
0100
0010
0001
0100
,
0010
1000
0001
0010
0001
1000
0010
0100
0001
0100
0010
1000
0100
0010
0001
0010
0100
1000
0001
0100
0010
1000
0001
0100
,
0040
0000
0000
0000
1030
0100
0010
0001
,
0100
1000
0010
0100
0001
1000
0100
1000
0010
0100
0010
1000
0001
0010
0001
0100
,
0010
1000
0001
0010
0100
1000
0001
0100
0001
1000
0010
0100
0002
0000
1003
0000
,
0100
0010
0001
1000
0010
0100
0010
1000
0001
0100
0001
1000
0100
0010
0001
0100
,
0010
1000
0001
0100
0001
1000
0010
0100
0002
0000
2003
0000
3020
0000
2030
0000
,
3100
0010
0001
1000
0001
0100
0010
0100
0001
1000
0010
1000
0001
0100
0001
1000
,
0010
0100
0001
1000
0100
0010
0001
1000
0010
0100
0001
1000
0200
0000
0310
0000
,
0001
1000
0010
0100
0001
1000
0100
1000
0010
0100
0001
1000
0100
1000
0001
0100
,
0010
1000
0001
0100
0010
1000
0100
0010
0001
0010
0100
1000
0020
0000
0000
0130
0000
0000
0002
0000
0000
1003
0000
0000
,
0100
0010
0001
1000
0010
0100
0010
1000
0001
0100
0001
1000
0100
0010
0001
1000
,
0010
0100
0010
1000
0001
0010
0100
1000
0001
0010
0100
1000
0010
0100
0001
1000
,
0010
1000
0001
0010
0100
1000
0001
0010
0001
1000
0010
0100
0010
1000
0001
0100
,
0001
1000
0100
0010
0001
1000
0010
0100
0001
1000
0010
0100
0001
0010
0100
1000
,
0010
0100
0001
1000
0100
1000
0001
0100
0010
0100
0001
1000
0010
1000
0001
0100
,
0010
1000
0001
0010
0001
1000
0100
1000
0001
0010
0100
1000
0001
0100
0001
1000
,
0010
0100
0010
1000
0001
0100
0001
1000
0100
1000
0010
0100
0001
1000
0100
0010
,
0002
0000
0000
0000
0003
0000
0200
0000
0000
0000
0000
0000
0302
0000
0000
0000
0000
0000
2003
0000
0000
3000
0000
0000
2000
0000
0000
0000
0000
0000
0000
0000
0000
0000
0000
0000
3040
0000
0000
0000
0000
0000
0000
0000
0000
0000
0000
0000
,
0130
0001
1000
0100
0010
0001
2000
0000
3010
0100
0020
0000
2030
0000
3001
0010
,
0100
1000
0010
1000
0001
0100
0010
2000
0000
3001
0010
0200
1300
0001
0100
0010
,
0100
0001
1000
0200
1300
0010
0200
0000
0301
1000
0020
0000
0230
0000
0301
2000
,
3001
0000
0010
0000
0100
0000
1000
0000
0020
0000
0130
0000
0001
0000
2000
0000
3100
0000
0000
0000
0010
0000
0001
0000
1000
0000
0010
0100
0010
0000
1000
0000
,
0001
0000
0001
0000
0001
0000
0001
0000
0000
0000
0100
0000
0100
0000
0000
0000
0010
0000
0010
0000
0010
0000
0000
0000
1000
0000
0000
0000
0001
1000
0001
1000
,
0100
0100
0010
0010
0001
0000
1000
1000
0000
0001
0001
0001
0000
1000
0100
0010
,
0001
0100
0010
1000
0000
0010
0100
0000
0001
0001
0001
0001
0000
1000
1000
0000
,
0100
0000
0000
0000
0000
0000
0000
0000
0000
0000
0000
0000
0010
0000
0000
0000
0000
0000
0000
0000
0000
0000
0000
0000
1000
0000
0000
0000
0000
0000
0000
0000
0000
0000
0000
0000
0001
0000
0000
0000
0000
0000
0000
0000
0000
0000
0000
0000
0020
0000
0000
0000
0000
0000
0000
0000
0000
0000
0000
0000
0130
0000
0000
0000
0000
0000
0000
0000
0000
0000
0000
0000
1000
0000
0000
0000
0000
0000
0000
0000
0000
0000
0000
0000
0001
0000
0000
0000
0000
0000
0000
0000
0000
0000
0000
0000
1000
0000
0000
0000
0000
0000
0000
0000
0000
0000
0000
0000
0100
0000
0000
0000
0000
0000
0010
0000
0000
0000
0000
0000
0001
0000
0000
0000
0000
0000
0000
0000
0000
0000
0000
0000
1000
0000
0000
0000
0000
0000
0000
0000
0000
0000
0000
0000
0010
0000
0000
0000
0000
0000
0100
0000
0000
0000
0000
0000
0001
0000
0000
0000
1000
0000
0000
0000
0001
0000
0000
0000
0010
0000
0000
0000
0000
0000
0100
0000
0000
0000
0000
0000
1000
0000
0000
0000
0000
0000
0001
0000
0000
0000
0000
0000
,
0100
0000
0010
1000
0001
0010
0100
1000
0001
0000
0100
0000
0010
1000
0100
0010
,
0001
0000
1000
0010
0100
0001
1000
0100
0010
0000
0001
0000
2000
0000
0000
0000
,
3010
0000
0100
0001
0100
0010
1000
0001
0000
0100
0010
0000
1000
0000
0001
0000
,
0010
0000
0100
1000
0001
0100
0010
1000
0000
0001
0100
0000
0010
0000
0100
0000
,
0001
0000
1000
0100
1000
0010
0100
0001
1000
0000
0100
0000
0010
0001
0010
0100
,
1000
0000
0010
0100
0001
1000
0100
1000
0010
0000
0100
0000
0002
0000
0000
0000
,
1003
0000
0010
0100
0010
1000
0001
0020
0000
0130
2000
0000
3002
0000
0203
0000
,
0310
0000
1000
0100
1000
0001
0100
0020
0000
1030
0001
0000
0100
0000
0010
0000
,
1000
0100
0010
0001
1000
0010
0100
0001
0100
0010
1000
0001
0010
0001
1000
0100
,
0010
0001
0100
0010
0100
0001
1000
0001
0100
0010
0100
0001
1000
0100
1000
0001
,
0100
0010
0100
0001
1000
0100
0010
0001
1000
0010
1000
0100
0010
0001
0100
0001
,
1000
0010
0100
0001
1000
0100
1000
0010
0100
0001
0010
0001
1000
0010
1000
0100
,
0010
0001
0100
0010
0100
0001
1000
0010
1000
0001
0100
0010
0100
0001
1000
0100
,
0010
0001
1000
0010
0100
0001
1000
0100
1000
0001
0010
0001
0100
0010
1000
0001
,
0100
0001
1000
0010
0100
0001
0100
0010
1000
0001
0010
0100
1000
0001
0010
0001
,
0100
0010
0100
0001
1000
0010
1000
0001
0100
0010
1000
0001
0010
0100
1000
0001
,
2000
0000
3100
0010
0001
1000
0010
0100
0010
0000
1000
0000
0001
0010
0100
1000
,
0020
0000
0130
0001
1000
0010
1000
0001
0100
0000
0010
0000
1000
0001
0010
0100
,
2000
0000
3010
0100
0001
1000
0001
0100
0010
0000
0100
0000
0001
0010
0100
1000
,
0020
0000
0130
0001
1000
0010
1000
0001
0010
0000
0100
0000
1000
0001
0100
0010
,
0100
0001
1000
0010
1000
0001
0100
0010
1000
0001
0010
0001
0100
0010
1000
0001
,
0100
0001
1000
0010
0100
0010
1000
0001
0010
0001
0100
0010
1000
0001
0010
0100
,
1000
0001
0010
0100
1000
0100
0010
0001
1000
0100
0010
0001
1000
0100
0010
0001
1000
0100
0010
0001
1000
0100
0010
0001
1000
0100
0010
0001
1000
0010
0100
0001
,
2000
0000
3000
0000
2000
0000
3000
0000
0002
0000
0003
0000
0002
0000
0003
0000
0002
0000
0000
0000
0000
0000
0003
0000
1000
0000
0010
0000
0100
0001
0100
0000
,
0010
0000
1000
0000
0100
0010
0001
0000
1000
0000
0001
0010
0100
0000
1000
0000
0100
0010
0001
0000
1000
0001
0100
0000
0010
0000
1000
0000
0010
0100
0001
0000
,
1000
0100
0010
0000
0001
0010
0100
0000
1000
0001
0100
0000
0010
0000
0100
0000
0001
1000
0010
0000
0100
0000
0001
0000
0200
0000
0000
0000
2300
0000
0000
0000
,
3001
0100
0010
0000
1000
0000
0001
0000
1000
0100
0010
0000
0001
0000
0010
0000
0100
1000
0001
0000
0100
0000
0010
0000
1000
0000
0100
0000
0010
0000
0001
0000
,
0100
0010
1000
0000
0001
0000
0100
0000
0010
1000
0001
0000
0100
0000
0010
0000
1000
0100
0010
0000
0001
0000
0100
0000
0010
0000
1000
0000
0001
0000
0000
0000
,
1000
0100
0010
0000
0001
0000
0010
0000
0100
1000
0001
0000
0100
0000
0010
0000
1000
0001
0100
0000
0010
0000
1000
0000
0001
0100
0010
0000
1000
0000
0010
0000
,
0100
0001
1000
0000
0010
0000
1000
0000
0001
0100
0010
0000
1000
0000
0100
0000
0010
0001
1000
0000
0001
0000
0100
0000
0020
0000
0000
0000
2030
0000
0000
0000
,
3001
0100
0010
0000
1000
0000
0001
0000
0100
0010
1000
0000
0001
0000
0100
0000
0010
0000
1000
0000
0001
0000
0100
0000
0010
1000
0010
0000
1000
0001
0100
0000
,
0010
1000
0010
0000
1000
0000
0010
0000
1000
0000
0001
0000
0100
0000
0010
0000
2000
0000
0000
0000
3100
0000
0000
0000
0020
0000
0000
0000
0031
0000
0000
0000
,
1000
0000
0001
0000
0100
0000
0010
0000
1000
0000
0001
0100
0010
0000
1000
0000
0001
0100
0010
0000
1000
0000
0001
0000
0010
0100
1000
0000
0001
0100
0010
0000
,
1000
0010
0100
0000
0001
0000
0100
0000
0010
1000
0001
0000
0100
0000
0010
0000
1000
0100
0010
0000
0001
0000
0010
0000
0100
1000
0001
0000
0100
0000
0010
0000
,
1000
0001
0100
0000
0010
0000
1000
0000
0100
0000
0010
0000
0001
0000
0100
0000
0010
1000
0001
0000
0100
0000
0010
0000
1000
0100
0010
0000
0001
0000
0100
0000
,
0010
1000
0001
0000
0100
0000
0010
0000
1000
0100
0010
0000
0001
0000
0010
0000
0001
0000
1000
0000
0010
0000
0100
0000
0001
0000
0000
0000
1000
0000
0000
0000
,
0001
0010
0100
1000
0100
0010
0001
1000
0010
0100
0001
0100
0010
1000
0001
0010
0100
1000
0100
0010
0001
1000
0010
0100
,
0001
0010
0100
1000
0001
0010
0100
1000
0100
0010
0001
1000
0010
0100
0001
0100
0010
0100
0001
0010
0100
1000
0100
0010
,
0001
0010
0100
1000
0001
0100
0010
1000
0001
0010
0100
1000
0100
0010
0001
0010
0100
1000
0001
0100
0010
1000
0001
1000
,
0020
0000
0000
0000
2030
3002
0023
0230
,
1300
0010
0100
0001
1000
0010
1000
0001
0100
0010
0100
0001
1000
0001
0100
0010
,
0100
0001
1000
0100
0010
0001
1000
0010
0100
0001
0100
0010
2000
0000
3001
0000
,
0010
0100
1000
0001
0010
0001
0100
0010
0100
0001
1000
0010
1000
0001
0100
0010
,
1000
0001
0010
0100
1000
0001
0010
0001
0200
0000
0320
0000
2030
0000
3002
0000
,
0013
0100
1000
0010
0100
0010
1000
0001
0100
0001
1000
0010
0100
0001
0010
0001
,
1000
0100
0010
0001
1000
0010
0100
0001
0100
0010
1000
0001
2000
0000
3010
0000
,
0100
0001
1000
0010
0100
0010
1000
0001
0010
0001
0100
0010
1000
0001
0010
0100
,
1000
0010
0100
0001
0100
0010
1000
0001
0100
0010
1000
0010
2000
0000
0000
3020
0000
0000
0230
0000
0000
0302
0000
0000
,
1003
0100
0010
0001
1000
0010
0100
0001
0100
0010
1000
0001
0010
0001
1000
0100
,
0010
0001
0100
0010
0100
0001
1000
0001
0100
0010
0100
0001
1000
0100
1000
0001
,
0100
0010
0100
0001
1000
0100
0010
0001
1000
0010
1000
0100
0010
0001
0100
0001
,
1000
0010
0100
0001
1000
0100
1000
0010
0100
0001
0010
0001
1000
0010
1000
0100
,
0010
0001
0100
0010
0100
0001
1000
0010
1000
0001
0100
0010
0100
0001
1000
0100
,
0010
0001
1000
0010
0100
0001
1000
0100
1000
0010
0100
0001
1000
0010
0100
0001
,
0100
0010
1000
0001
0010
0001
1000
0100
0010
0001
0100
0010
0100
0001
1000
0001
,
0100
0010
0100
0001
1000
0100
1000
0001
0100
0010
0100
0001
1000
0100
0010
0001
,
1000
0010
1000
0100
0010
0001
0100
0001
1000
0010
0100
0001
1000
0100
1000
0010
,
0100
0001
0010
0001
1000
0010
1000
0100
0010
0001
0100
0010
0100
0001
1000
0010
,
1000
0001
0100
0010
0100
0001
1000
0100
0010
0001
1000
0010
0100
0001
1000
0100
,
1000
0001
0010
0001
0100
0010
1000
0001
0100
0001
1000
0010
0100
0001
0100
0010
,
1000
0001
0010
0100
1000
0001
0010
0001
0100
0010
0100
0001
1000
0010
1000
0001
,
0100
0010
1000
0001
0010
0100
1000
0001
0100
0010
0100
0001
1000
0100
1000
0010
,
0100
0010
1000
0001
0010
0001
0100
0010
1000
0001
0010
0100
1000
0001
0100
0010
,
1000
0200
0310
0002
2003
0000
3020
0000
,
0030
0000
0000
0000
;

//---------------dance-single - ----------------
#NOTES:
     dance-single:
     :
     Medium:
     13:
     1.000,1.000,0.033,0.529,1.000,1258.000,5.000,80.000,2.000,0.000:
100M
0000
0010
0100
0001
1000
0100
1000
0010
0000
0100
0000
0001
1000
0100
0010
,
0001
0000
1000
0010
0100
0001
1000
0100
0010
0000
0001
0000
2000
0000
0000
0000
,
3010
0000
0100
0001
0100
0010
1000
0001
0000
0100
0010
0000
1000
0000
0001
0000
,
0010
0000
0100
1000
0001
0100
0010
1000
0000
0001
0100
0000
0010
0000
0100
0000
,
0001
1000
0100
1000
0010
0100
0001
1000
0100
0010
0001
0100
0010
1000
0001
0100
,
0001
1000
0010
0100
0010
1000
0001
0010
0100
1000
0001
0010
0001
1000
0010
0100
,
0010
1000
0001
0100
0001
1000
0010
0100
0001
1000
0100
0010
0001
1000
0010
1000
,
0001
0100
0010
1000
0001
0010
0100
1000
0010
0100
0010
1000
0001
0100
0001
1000
,
0020
0000
2030
0000
3002
0003
0020
0030
0002
0000
0000
0003
1000
0010
0100
0001
,
1000
0010
1000
0010
0100
0001
0100
0001
,
0010
0001
0010
0001
0010
0001
4000
3040
,
0130
0001
0100
0010
1000
0100
0010
0001
,
0100
0010
1000
0100
0010
0001
0100
0010
,
1000
0100
0010
0100
1000
0001
0100
0010
,
1000
0001
0010
0100
1000
0100
0010
0001
,
0100
0010
1000
0001
0100
0010
1000
0100
,
0010
0001
0100
0010
2000
3100
0020
0031
,
1000
0100
0010
0001
0010
0100
1000
0001
,
0100
0010
1000
0001
0010
0100
1000
0100
,
0010
0001
0100
0010
0100
0001
1000
0010
,
0100
0001
0100
0010
1000
0001
0010
0100
,
1000
0100
0010
0001
0100
0010
1000
0001
,
0010
0100
1000
0100
0010
0001
0100
0010
,
1000
0001
0100
0010
1000
0001
0100
0001
,
1000
0010
1000
0010
0100
0001
0100
0001
,
1000
0100
1000
0100
1000
0000
0001
0000
0100
0010
0100
0010
0100
0000
0001
0000
,
1000
0001
1000
0001
1000
0000
0010
0000
0100
0001
0100
0001
0100
0000
0010
0000
,
1000
0001
1000
0001
1000
0000
0010
0000
0100
0001
0100
0001
0100
0000
0010
0000
,
1000
0001
1000
0001
1000
0000
1000
0000
0002
0000
2003
0000
3020
0000
2030
0000
,
3001
0100
0001
0100
0010
1000
0010
1000
0001
0100
0001
0100
0010
1000
0010
1000
,
0001
0100
0001
0100
0010
1000
0010
1000
0001
0100
0001
0100
0020
0000
2030
0000
,
3001
0100
0001
0100
0001
0100
0001
0100
0001
0100
0001
0100
0001
0100
0001
0100
,
0004
0000
0000
0003
0020
0130
0002
1003
,
1000
0001
1000
0000
0001
0100
0001
0000
1000
0010
1000
0000
0001
0100
0001
0000
,
1000
0010
1000
0000
0001
0100
0001
0000
0100
0010
0100
0000
0010
1000
0010
0000
,
1000
0001
1000
0000
0001
0100
0001
0000
0100
0010
0100
0000
0010
1000
0010
0000
,
0100
0001
0100
0000
0010
1000
0010
0000
0100
0001
0100
0000
0010
1000
0010
0000
,
4000
0400
0000
0000
0000
0000
0000
0000
0000
0000
0000
0000
3300
0000
0000
0000
,
4000
0040
0000
0000
0000
0000
0000
0000
0000
0000
0000
0000
3030
0000
0000
0000
,
0004
4000
0000
0000
0000
0000
0000
0000
0000
0000
0000
0000
3003
0000
0000
0000
,
0002
0000
0000
0000
0003
0000
0200
0000
0000
0000
0000
0000
0302
0000
0000
0000
0000
0000
2003
0000
0000
3000
0000
0000
2000
0000
0000
0000
0000
0000
0000
0000
0000
0000
0000
0000
3040
0000
0000
0000
0000
0000
0000
0000
0000
0000
0000
0000
,
0130
0001
1000
0100
0010
0001
2000
0000
3010
0100
0020
0000
2030
0000
3001
0010
,
0100
1000
0010
1000
0001
0100
0010
2000
0000
3001
0010
0200
1300
0001
0100
0010
,
0100
0001
1000
0200
1300
0010
0200
0000
0301
1000
0020
0000
0230
0000
0301
2000
,
3001
0010
0100
1000
0020
0130
0001
2000
3100
0000
0010
0001
1000
0010
0100
1000
,
0001
0010
0100
1000
0010
0100
0002
0000
0013
0100
2000
0000
3020
0000
0130
0001
,
1000
0100
1000
0001
0100
0010
1000
0001
0000
0010
0100
1000
0001
0010
0001
0100
,
0010
1000
0010
0200
0301
1000
0200
0000
0310
0001
2000
0000
3020
0000
0130
0001
,
0100
0010
1000
0001
0020
0130
1000
0000
0001
0100
0010
1000
0001
0100
0010
0010
,
0100
0000
0010
1000
0001
0010
0100
1000
0001
0000
0100
0000
0010
1000
0100
0010
,
0001
0000
1000
0010
0100
0001
1000
0100
0010
0000
0001
0000
2000
0000
0000
0000
,
3010
0000
0100
0001
0100
0010
1000
0001
0000
0100
0010
0000
1000
0000
0001
0000
,
0010
0000
0100
1000
0001
0100
0010
1000
0000
0001
0100
0000
0010
0000
0100
0000
,
0001
0000
1000
0100
1000
0010
0100
0001
1000
0000
0100
0000
0010
0001
0010
0100
,
1000
0000
0010
0100
0001
1000
0100
1000
0010
0000
0100
0000
0002
0000
0000
0000
,
1003
0000
0010
0100
0010
1000
0001
0020
0000
0130
2000
0000
3002
0000
0203
0000
,
0310
0000
1000
0100
1000
0001
0100
0020
0000
1030
0001
0000
0100
0000
0010
0000
,
1000
0000
0001
0100
0010
1000
0001
0100
0010
0000
1000
0000
0010
0100
0010
0000
,
1000
0000
0001
0100
0010
1000
0100
0010
0001
0000
0100
0000
0020
0000
0000
0000
,
1030
0000
0001
0000
0100
0010
1000
0010
0000
0000
0100
0000
0001
0000
0100
0000
,
0010
0000
1000
0000
0100
1000
0100
0010
0000
0000
0001
0000
0100
0000
0010
0000
,
1000
0000
0001
0100
0010
1000
0100
0010
0001
0000
0100
0000
0010
1000
0010
0000
,
0100
0000
0001
0100
0010
1000
0001
0100
0010
0000
1000
0000
0002
0000
0000
0000
,
1003
0000
0010
0000
0100
0010
0100
0010
0000
0000
1000
0000
0001
0000
0100
0000
,
0010
0000
1000
0000
0001
0000
0000
0100
0000
0000
0010
0000
1000
0000
1000
0000
,
2000
0000
3100
0010
0001
1000
0010
0100
0010
0000
1000
0000
0001
0010
0100
1000
,
0020
0000
0130
0001
1000
0010
1000
0001
0100
0000
0010
0000
1000
0001
0010
0100
,
2000
0000
3010
0100
0001
1000
0001
0100
0010
0000
0100
0000
0001
0010
0100
1000
,
0020
0000
0130
0001
1000
0010
1000
0001
0010
0000
0100
0000
1000
0001
0100
0010
,
0100
0001
1000
0010
1000
0001
0100
0010
1000
0001
0010
0001
0100
0010
1000
0001
,
0100
0001
1000
0010
0100
0010
1000
0001
0010
0001
0100
0010
1000
0001
0010
0100
,
1000
0001
0010
0001
0100
0010
1000
0001
0100
0001
1000
0010
0100
0001
0100
0010
,
2000
3000
2000
3000
0002
0003
0002
0003
0200
0000
0000
0300
0010
0000
1000
0000
,
0010
1000
0001
0100
0001
0100
0010
1000
,
0010
1000
0001
0100
0010
1000
0100
0010
,
0100
1000
0001
0100
0010
1000
0001
0010
,
0100
1000
0100
0010
0001
0100
0010
1000
,
0001
0010
0100
1000
0100
0010
0001
0100
,
0010
1000
0001
0010
0100
1000
0100
0010
,
0001
0100
0010
1000
0001
0100
0010
1000
,
0001
0100
0010
1000
0200
0310
0002
1003
,
0001
0010
0100
1000
0100
0010
0001
0100
,
0010
0100
0001
0010
0100
1000
0100
0010
,
0100
0001
0100
0010
0100
1000
0001
0100
,
0010
0100
1000
0100
0001
0100
0001
1000
,
0001
0100
0001
0100
0010
1000
0010
1000
,
0001
0100
0001
0100
0010
1000
0010
1000
,
0001
0100
0010
1000
0100
0010
0001
0000
,
0020
0000
0000
0000
2030
3002
0023
0230
,
1300
0010
0100
0001
1000
0010
1000
0001
0100
0010
0100
0001
1000
0001
0100
0010
,
0100
0001
1000
0100
0010
0001
1000
0010
0100
0001
0100
0010
2000
0000
3001
0000
,
0010
0100
1000
0001
0010
0001
0100
0010
0100
0001
1000
0010
1000
0001
0100
0010
,
1000
0001
0010
0100
1000
0001
0010
0001
0200
0000
0320
0000
2030
0000
3002
0000
,
0013
0100
1000
0010
0100
0010
1000
0001
0100
0001
1000
0010
0100
0001
0010
0001
,
1000
0100
0010
0001
1000
0010
0100
0001
0100
0010
1000
0001
2000
0000
3010
0000
,
0100
0001
1000
0010
0100
0010
1000
0001
0010
0001
0100
0010
1000
0001
0010
0100
,
2000
0000
0000
0000
0000
3020
0230
0302
,
10M3
0100
0010
0001
1000
0010
0100
0001
0100
0010
1000
0001
0010
0001
1000
0100
,
0010
0001
0100
0010
0100
0001
1000
0001
0100
0010
0100
0001
1000
0100
1000
0001
,
0100
0010
0100
0001
1000
0100
0010
0001
1000
0010
1000
0100
0010
0001
0100
0001
,
1000
0010
0100
0001
1000
0100
1000
0010
0100
0001
0010
0001
1000
0010
1000
0100
,
0010
0001
0100
0010
0100
0001
1000
0010
1000
0001
0100
0010
0100
0001
1000
0100
,
0010
0001
1000
0010
0100
0001
1000
0100
1000
0010
0100
0001
1000
0010
0100
0001
,
0100
0010
1000
0001
0010
0001
1000
0100
0010
0001
0100
0010
0100
0001
1000
0001
,
0100
0010
0100
0001
1000
0100
1000
0001
0100
0010
0100
0001
1000
0100
0010
0001
,
1000
0010
1000
0100
0010
0001
0100
0001
1000
0010
0100
0001
1000
0100
1000
0010
,
0100
0001
0010
0001
1000
0010
1000
0100
0010
0001
0100
0010
0100
0001
1000
0010
,
1000
0001
0100
0010
0100
0001
1000
0100
0010
0001
1000
0010
0100
0001
1000
0100
,
1000
0001
0010
0001
0100
0010
1000
0001
0100
0001
1000
0010
0100
0001
0100
0010
,
1000
0001
0010
0100
1000
0001
0010
0001
0100
0010
0100
0001
1000
0010
1000
0001
,
0100
0010
1000
0001
0010
0100
1000
0001
0100
0010
0100
0001
1000
0100
1000
0010
,
0100
0010
1000
0001
0010
0001
0100
0010
1000
0001
0010
0100
1000
0001
0100
0010
,
1000
0200
0310
0002
2003
0000
3020
0000
,
0030
0000
0000
0000
;

//---------------dance-single - ----------------
#NOTES:
     dance-single:
     :
     Easy:
     9:
     0.568,0.815,0.106,0.053,0.079,577.000,16.000,8.000,0.000,0.000:
0000
0000
0000
0000
,
0000
0000
0000
0000
,
1000
0001
0100
0000
,
1000
0000
0000
0000
,
0001
0100
0010
1000
,
0002
0000
0000
0000
,
0203
0000
0000
0000
,
0320
0000
0000
0030
,
1000
0000
0000
0000
,
0001
0100
0001
0100
,
0010
1000
0010
0100
,
0001
0010
0100
1000
,
0010
0100
0001
0010
,
0100
1000
0010
0100
,
0001
0010
0100
1000
,
0001
0001
0100
0100
,
0010
1000
0010
0000
,
0100
0001
0010
0001
,
0100
0010
1000
0001
,
0100
0010
1000
0001
,
0010
0100
1000
0000
,
0001
0100
0010
1000
,
0010
0100
0001
0010
,
0100
1000
0100
0010
,
0200
0000
0000
0300
,
1000
0001
0100
0010
,
1000
0000
0100
0000
,
0010
1000
0010
0100
,
0010
1000
0010
0000
,
0010
1000
0010
0100
,
0001
0010
0100
1000
,
0001
0100
0010
1000
,
0010
0100
0001
0010
,
0100
1000
0100
0010
,
0100
1000
0100
0010
,
0001
0100
0010
1000
,
0010
0100
0001
0010
,
0100
1000
0100
1000
,
0100
0010
0001
1000
,
0001
0001
0001
0001
,
1001
0000
0000
0000
,
1001
0000
0001
0000
0100
0010
1000
0000
,
0001
0100
0110
0000
1000
0001
0101
0000
,
0010
1000
1010
0000
0100
0001
0101
0000
,
0010
1000
1010
0000
0001
0100
0010
0000
,
1000
0001
0100
0000
0010
1000
0010
0000
,
0100
0001
0010
0000
0100
1000
0100
0000
,
0010
0001
0010
0000
0001
0100
0001
0000
,
1000
0001
0100
0010
1000
0100
0010
0001
,
0010
0100
0001
0100
,
0010
0001
0010
0100
,
0010
0100
0010
0000
,
0002
0000
0000
0003
,
0010
0100
0010
0001
,
0100
0010
0100
0001
,
0100
0000
0000
0000
,
0010
0000
0000
0000
,
1000
0100
1000
0000
0010
0000
0100
0000
,
0000
0000
0000
0000
0010
1000
0010
0000
,
1000
0001
0100
0010
,
1000
0100
0010
0001
,
0100
0010
1000
0100
0010
0000
0001
0000
,
0100
0000
0010
1000
0001
0000
0100
0000
,
0010
1000
0001
0100
,
0010
1000
0100
0010
,
1001
0000
0001
0000
0100
0010
1000
0000
,
1001
0000
0001
0100
0010
0000
1000
0000
,
1001
0000
0001
0100
0010
0000
1000
0000
,
1001
0000
0001
0100
0010
0000
1000
0000
,
0001
1000
0001
0000
0100
0010
0100
0000
,
0101
0110
1010
1001
,
1001
0010
0100
0010
,
0000
0000
0000
0000
,
1000
0100
0001
0100
1000
0010
0001
0010
,
1000
0100
0001
0100
1000
0010
0100
0001
,
0100
1000
0100
0001
0100
1000
0100
0010
,
0001
0100
1000
0100
0001
0000
1000
0000
,
0001
0010
1000
0001
0100
1000
0001
0010
,
1000
0001
0100
1000
0100
0001
0100
0010
,
0001
0100
1000
0001
0010
1000
0001
0100
,
1000
0001
0010
1000
0010
0000
0100
0000
,
0001
1000
0001
0100
0010
1000
0100
0001
,
0100
1000
0001
0010
1000
0010
0001
0100
,
0010
1000
0100
0010
0100
1000
0001
0100
,
0010
1000
0100
0010
0001
0000
0100
0000
,
1000
0001
0010
0001
1000
0001
0010
0001
,
1000
0001
0010
0001
1000
0001
0010
0001
,
1000
0001
0010
0001
1000
0001
0010
0001
,
1000
0001
0010
0001
1000
0000
0001
0000
,
1000
0001
1000
0001
1000
0001
1000
0001
1000
0000
0000
0000
0000
0000
0000
0000
,
0001
0100
0001
0100
0001
0100
0001
0100
0001
0000
0000
0000
0000
0000
0000
0000
,
1000
0001
1000
0001
1000
0001
1000
0001
1000
0000
0000
0000
0000
0000
0000
0000
,
1000
0010
1000
0010
1000
0010
1000
0010
0100
0000
0000
0000
0000
0000
0000
0000
,
0001
0010
0001
0000
1000
0100
1000
0000
0001
0010
0001
0000
1000
0100
1000
0000
,
0001
0100
0001
0100
0010
1000
0010
1000
,
0001
1000
0001
1000
0001
1000
0001
1000
0020
0000
0000
0000
0000
0000
0000
0000
,
0230
0000
0302
0000
,
1003
0100
1000
0100
0010
0001
0010
0001
,
0100
0010
0100
0010
1000
0001
0100
0010
,
1000
0001
0010
0100
1000
0100
0010
0001
,
0100
0010
1000
0001
0010
0100
1000
0100
,
0001
0100
1000
0010
0001
0010
1000
0100
,
0001
0100
1000
0010
0001
0010
1000
0100
,
0001
0100
1000
0010
0001
0010
1000
0100
,
0001
0100
1000
0010
0001
0010
1000
0100
,
0001
0100
1000
0010
0001
0010
1000
0100
,
0001
0100
1000
0010
0001
0010
1000
0100
,
0001
0100
1000
0010
0001
0010
1000
0100
,
0001
0100
1000
0010
0001
0010
1000
0100
,
0001
0100
1000
0010
0001
0010
1000
0100
,
0001
0100
1000
0010
0001
0010
1000
0100
,
0001
0100
1000
0010
0001
0010
1000
0100
,
0001
0000
0000
0000
;

//---------------dance-single - ----------------
#NOTES:
     dance-single:
     :
     Beginner:
     3:
     0.261,0.333,0.073,0.000,0.000,265.000,11.000,0.000,0.000,0.000:

0000
0000
0000
0000
,
0000
0000
0000
0000
,
0000
0000
0000
0000
,
1000
0000
0000
0000
,
0001
0000
0000
0000
,
0100
0000
0000
0000
,
0010
0000
1000
0000
,
0001
0000
0100
0000
,
0010
0000
0000
0000
,
1000
0000
1000
0000
,
0001
0000
0100
0000
,
0010
0000
1000
0000
,
0001
0000
0100
0000
,
0010
0000
0010
0000
,
1000
0000
1000
0000
,
0001
0000
0100
0000
,
0010
0000
0010
0000
,
1001
0000
0010
0000
,
0100
0000
0001
0000
,
0010
0000
0100
0000
,
1000
0000
0001
0000
,
0100
0000
0100
0000
,
0010
0010
0010
0000
,
0100
0100
0100
0000
,
0001
0000
0000
0000
,
1000
0000
1000
0000
,
1000
0000
1000
0000
,
0010
0100
0010
0100
,
0010
0100
0010
0100
,
0000
0000
0100
1000
,
0100
1000
0100
0000
,
1000
0010
1000
0010
,
1000
0000
0001
0000
,
1001
0000
0010
0000
,
0100
0000
0001
0000
,
0010
0000
0100
0000
,
1000
0000
0001
0000
,
0100
0100
0100
0000
,
0010
0000
0010
0000
,
1000
1000
1000
0000
,
0001
0001
0001
0000
,
1001
1000
1000
1000
,
1000
1000
1000
1000
,
0000
0010
0000
0100
,
0000
0001
0000
0100
,
0000
1001
0000
1001
,
0000
0010
0000
0100
,
0000
0010
0000
1000
,
0000
0001
0000
1000
,
1000
0000
1000
0000
,
0010
0000
0010
0000
,
0100
0000
0100
0000
,
0001
0000
0001
0000
,
0001
0000
1000
0000
,
0010
0000
0100
0000
,
0001
0000
0010
0000
,
0100
0000
0000
0000
,
1001
0000
0001
0000
,
0100
0100
0100
0000
,
0010
0010
0010
0000
,
1000
1000
1000
0000
,
0010
0010
0010
0000
,
0100
0100
0100
0000
,
0001
0001
0001
0000
,
1000
1000
1000
0000
,
0001
0000
1000
0000
,
0001
0000
1000
0000
,
1001
0000
0001
0000
,
1001
0000
0001
0000
,
1001
0000
0001
0000
,
1001
0000
1001
0000
,
0001
1000
0001
1000
,
0001
0000
0000
0000
,
1000
0001
1000
0001
,
1000
0001
1000
0000
,
0010
1000
0010
1000
,
0010
1000
0010
0000
,
0100
0001
0100
0001
,
0100
0001
0100
0000
,
0001
1000
0001
1000
,
0001
0000
0000
0000
,
0001
1000
0001
1000
,
0001
1000
0001
0000
,
1000
0010
1000
0010
,
1000
0010
1000
0000
,
0010
0100
0010
0100
,
0010
0100
0010
0000
,
0100
0010
0100
0010
,
0100
0000
0000
0000
,
0001
0000
0001
0000
,
0001
0000
0001
0000
,
1000
0001
1000
0001
,
1000
0001
1000
0000
,
0010
0100
0010
0100
,
0010
0100
0010
0000
,
1000
0001
1000
0001
,
1000
0001
1000
0000
,
0010
0100
0010
0100
,
0010
0000
1000
0000
,
0001
0001
0001
0000
,
1000
0000
0010
0000
,
0100
0000
0100
0000
,
0100
0000
0010
0000
,
0010
0000
1000
0000
,
1000
0000
0001
0000
,
0001
0000
0001
0000
,
0010
0000
0100
0000
,
1000
0000
0000
0000
,
0001
0000
0000
0000
,
0100
0000
0000
0000
,
0010
0000
0000
0000
,
1000
0000
1000
0000
,
1000
0000
0000
0000
;
