#TITLE:For UltraPlayers;
#SUBTITLE:;
#ARTIST:cosMo@bousouP;
#TITLETRANSLIT:;
#SUBTITLETRANSLIT:;
#ARTISTTRANSLIT:;
#CREDIT:;
#BANNER:for ultraplayers bn.png;
#BACKGROUND:for ultraplayers bg.png;
#LYRICSPATH:;
#CDTITLE:;
#MUSIC:For UltraPlayers.ogg;
#OFFSET:1.813;
#SAMPLESTART:52.524;
#SAMPLELENGTH:19.104;
#SELECTABLE:YES;
#BPMS:0.000=201.000;
#STOPS:;
#BGCHANGES:;
// cache tags:
#FIRSTBEAT:8.000;
#LASTBEAT:399.000;
#SONGFILENAME:Songs/Index Tournament 1/For UltraPlayers/For UltraPlayers.sm;
#HASMUSIC:1;
#HASBANNER:1;
#MUSICLENGTH:118.789;
// end cache tags

//---------------dance-single - CondorTalon----------------
#NOTES:
     dance-single:
     CondorTalon:
     Challenge:
     15:
     1.000,1.000,0.076,0.101,1.000,1114.000,9.000,12.000,7.000,0.000:
0000
0000
0000
0000
,
0000
0000
0000
0000
,
0001
0000
0001
0000
1000
0010
0100
0001
1000
0000
1000
0000
0100
0010
0001
1000
,
0001
0000
0001
0000
0100
0010
1000
0001
0100
0000
0100
0000
0001
1000
0100
0010
,
0001
0000
0001
0000
0100
0010
0100
0001
1000
0000
1000
0000
0100
0010
0001
0010
,
0100
0000
0100
0000
1000
0001
0100
0001
0010
0000
0010
0000
0100
1000
0100
0010
,
0001
0000
1000
0001
0100
0000
0010
1000
0010
0000
1000
0001
0010
0000
0100
1000
,
0100
0000
1000
0001
0100
0000
0010
1000
0010
1000
0001
0010
0100
0000
1000
0000
,
0001
0000
1000
0010
0100
0000
0001
0010
0100
0000
0010
0001
1000
0000
0001
0100
,
0001
1000
0001
0000
1000
0000
0100
0000
0010
0000
0001
1000
0001
0100
0010
1000
,
0001
0000
0000
0000
0000
0000
0000
0000
0010
0000
0000
0000
0100
0000
0000
0000
1000
0000
0000
0000
0001
0000
0000
0000
1000
0000
0000
0010
0000
0000
0100
0000
0000
0001
0000
0000
1000
0000
0000
0100
0000
0000
0010
0000
0000
0001
0000
0000
,
0010
0100
1000
0001
0100
0010
1000
0001
0100
0001
1000
0001
0010
0100
1000
0100
,
1000
0001
0100
0010
1000
0001
0010
0100
,
1000
0010
0100
0001
0100
0010
1000
0001
,
1000
0000
0000
0000
0000
0000
0100
0000
0000
0010
0000
0000
0001
0000
0000
0000
0000
0000
1000
0000
0000
0000
0000
0000
0010
0000
0000
0000
0000
0000
0100
0000
0000
0010
0000
0000
1000
0000
0000
0000
0001
0000
0000
0000
1000
0000
0000
0000
,
0010
1000
0100
0010
0001
0010
0100
1000
0010
0100
0001
0100
,
0010
1000
0100
1000
0001
0100
0010
1000
,
0001
0000
0000
0000
0011
0000
0000
0000
0000
0000
0010
0100
1000
0000
0001
0000
,
0100
0010
1000
0010
0100
0001
0010
0100
,
1000
0000
0000
0001
0000
0000
0100
0000
0000
0001
0000
0000
1000
0000
0000
0010
0000
0000
0100
0000
0000
0001
0000
0000
0100
0000
0000
0000
0001
0000
0000
0000
1000
0000
0000
0000
0100
0000
0000
0000
0010
0000
0000
0000
0001
0000
0000
0000
,
1000
0000
0010
0000
0100
0000
0010
0000
1000
0000
0001
0010
0100
0000
0010
0001
,
1000
0000
0010
0000
0100
0000
0010
0000
1000
0000
0001
0010
0100
1000
0100
1000
,
0001
0000
0000
0000
0000
0000
0100
0000
0000
0010
0000
0000
1000
0000
0000
0000
0000
0000
0001
0000
0000
0000
0000
0000
1000
0000
0000
0000
0000
0000
0100
0000
0000
0010
0000
0000
0001
0000
0000
0000
1000
0000
0000
0000
0010
0000
0000
0000
,
1000
0000
0000
0000
0001
0000
0000
0000
0010
0000
0000
0000
0100
0000
0000
0000
1000
0000
0000
0000
0100
0000
0000
0000
1000
0000
0000
0000
0001
0000
0000
0000
0100
0000
0000
0000
0010
0000
0000
1000
0000
0000
0010
0000
0000
0000
0000
0000
,
0100
0000
0001
0000
0010
0000
0001
0000
1000
0000
0100
0010
0001
0000
1000
0010
,
1000
0000
0100
0000
1000
0000
0001
0000
0010
0000
0100
1000
0001
0100
0010
0000
,
0100
0000
0001
0010
0100
0000
1000
0000
0001
0000
1000
0000
0010
0000
1000
0000
,
0001
0010
0001
1000
0001
0100
0001
1000
0001
0010
0100
1000
0001
1000
0010
0100
,
0010
0000
1000
0100
0010
0001
1000
0001
1000
0000
0010
0100
0001
0100
0010
1000
,
0001
0000
1000
0100
0010
0001
0010
0001
1000
0000
0010
0100
0001
1000
0010
0100
,
0001
0000
0010
0100
0010
0001
1000
0001
0100
0000
0010
1000
0001
0010
0100
1000
,
0001
0000
0100
0010
1000
0001
1000
0001
0010
0000
0000
0000
0001
1000
0001
0100
,
0010
1000
0001
0010
0100
1000
0100
0010
0001
0010
0001
1000
0010
0100
0001
0100
,
0010
1000
0001
0010
0001
1000
0010
1000
0001
1000
0100
0010
0001
0010
0001
1000
,
0010
0100
0001
1000
0001
0100
0010
1000
0001
0010
0100
1000
0001
0100
0010
1000
,
0010
0000
0000
1010
0000
0000
1001
0000
0011
0000
0000
0000
0010
0100
1000
0001
,
1000
0010
0100
0001
1000
0100
0010
0001
,
1000
0000
0001
0000
0100
0000
0010
0000
0100
0000
0001
0000
1000
0000
0100
0010
,
0001
0000
1000
0000
0010
0000
0100
0000
0010
0000
1000
0000
0001
0000
0010
0100
,
1000
0000
0000
0000
0000
0000
0001
0000
0000
0100
0000
0000
0001
0000
0000
0000
0000
0000
1000
0000
0000
0010
0000
0000
0100
0000
0000
0001
0000
0000
1000
0000
0000
0001
0000
0000
0010
0000
0000
0000
0100
0000
0000
0000
1000
0000
0000
0000
,
0001
0000
0000
1000
0010
0100
0001
0000
1000
0001
0100
0001
,
1000
0000
0100
0000
0010
0000
0001
1000
0001
0000
1000
0000
0100
0000
0010
0000
0100
0000
1000
0000
0001
0000
0100
0000
,
0010
0000
0000
0000
1000
0100
0010
0001
1000
0000
0001
0000
0100
0000
0010
0000
,
1000
0000
0000
0000
0010
0100
0001
1000
0001
0000
0000
0000
0010
0000
0000
0000
,
0100
1000
0001
0100
0010
1000
0100
0010
0001
1000
0010
1000
,
0001
0000
0000
0000
0000
0000
1000
0010
0400
0000
0304
0000
4003
0000
3004
0000
,
1003
0100
0010
0100
1000
0001
0100
0010
1000
0001
1000
0010
0100
0001
1000
0001
,
1000
0100
0010
0001
0010
0100
1000
0001
0100
0010
1000
0010
0100
0010
1000
0001
,
0010
0001
1000
0001
1000
0010
0100
0001
1000
0100
1000
0001
1000
0100
0010
0001
,
1000
0001
0100
0010
1000
0010
0100
0001
1000
0100
1000
0001
0010
0100
1000
0001
,
1000
0010
0100
0001
1000
0001
0010
0001
1000
0100
0010
0001
1000
0001
0100
0010
,
1000
0001
0010
0001
1000
0010
1000
0001
0010
0100
1000
0100
1000
0001
0100
0010
,
1000
0010
0100
0001
1000
0001
1000
0100
0010
0001
0010
0100
0010
0001
1000
0010
,
0100
0001
1000
0001
0100
0010
0100
0001
1000
0100
0010
0001
0010
0001
4000
0100
,
0000
0001
0000
3010
0100
0001
0100
0010
1000
0001
0010
0100
0010
0001
1000
0010
,
1000
0001
0010
0100
1000
0100
1000
0001
0100
0010
1000
0001
1000
0100
0010
0001
,
1000
0100
1000
0001
0010
0001
1000
0010
0100
0001
0100
0010
1000
0001
1000
0100
,
0010
0100
1000
0001
0100
0001
1000
0010
0100
0001
1000
0001
0010
0100
0010
0001
,
1000
0010
0100
0010
1000
0001
0010
0001
1000
0100
0010
0001
1000
0010
0100
0001
,
1000
0001
0010
0100
0010
0001
1000
0001
0100
0010
0100
0001
1000
0100
1000
0001
,
0100
0010
1000
0001
1000
0001
0010
0100
1000
0100
1000
0001
0100
0010
1000
0001
,
1000
0100
0010
0001
0010
0100
1000
0001
1000
0010
0100
0001
1000
0001
0100
0010
,
2000
0000
0001
0000
,
0100
0000
0001
0000
,
0000
0000
0001
0000
,
0010
0000
0000
0000
0000
0000
0001
0000
0000
3100
0010
0001
,
2000
0000
0000
0000
0000
0000
0100
0000
0000
3010
0100
0001
,
2000
0000
0010
0000
,
3002
0000
1000
0000
,
0203
0000
0320
0000
,
1030
0100
0010
0001
1000
0001
0100
0010
1000
0001
0010
0100
,
1000
0001
1000
0010
0100
0001
1000
0100
1000
0010
0100
0001
,
0010
0001
1000
0100
0010
0001
1000
0010
0100
0010
1000
0001
,
1000
0000
0000
0000
0100
0000
0000
0000
0010
0000
0000
0000
0001
0000
0000
0000
1000
0000
0000
0000
0001
0000
0000
0000
1000
0000
0000
0010
0000
0000
0100
0000
0000
0010
0000
0000
1000
0000
0000
0001
0000
0000
0010
0000
0000
0100
0000
0000
,
2000
0000
0000
0000
3001
0100
0001
1000
0100
1000
0100
0010
0001
0010
0100
1000
,
0004
4003
3040
0430
0304
4003
3400
0340
0034
4003
3004
0043
0430
4300
3004
0403
,
0310
1000
0001
1000
0010
0100
0001
1000
0001
0010
0100
1000
0100
1000
0001
0100
,
0002
0000
0000
0000
0043
0430
4300
3004
,
2003
0000
0000
0000
0000
0000
0000
0000
3001
0010
0100
0010
0001
1000
0001
1000
,
0001
0100
0010
0100
0001
1000
0100
0010
0001
1000
0001
0010
0100
1000
0001
1000
,
0001
0100
0010
1000
0010
0100
0001
1000
0100
0010
0001
0010
0100
0010
0001
1000
,
0010
1000
0001
1000
0001
0010
0100
1000
0001
0100
0001
1000
0001
0100
0010
1000
,
0001
1000
0100
0010
0001
0010
0100
1000
0001
0100
0001
1000
0010
0100
0001
1000
,
0001
0010
0100
1000
0001
1000
0010
1000
0001
0100
0010
1000
0001
1000
0100
0010
,
0001
1000
0010
1000
0001
0010
0001
1000
0010
0100
0001
0100
0001
1000
0100
0010
,
0001
0010
0100
1000
0001
1000
0001
0100
0010
1000
0010
0100
0010
1000
0001
0010
,
0100
1000
0001
1000
0100
0010
0100
1000
0001
0100
0010
1000
0010
1000
0001
0100
,
0001
1000
0001
0010
0100
1000
0100
0010
0001
1000
0010
0100
0010
1000
0001
0010
,
0001
1000
0010
0100
0001
0100
0001
1000
0100
0010
0001
1000
0001
0100
0010
1000
,
0001
0100
0001
1000
0010
1000
0001
0010
0100
1000
0100
0010
0001
1000
0001
0100
,
0010
0100
0001
1000
0100
1000
0001
0010
0100
1000
0001
1000
0010
0100
0010
1000
,
0001
0010
0100
0010
0001
1000
0010
1000
0001
0100
0010
1000
0001
0010
0100
1000
,
0001
1000
0010
0100
0010
1000
0001
1000
0100
0010
0100
1000
0001
0100
0001
1000
,
0100
0010
0001
1000
0001
1000
0010
0100
0001
0100
0001
1000
0100
0010
0001
1000
,
0001
0010
0100
1000
0010
0100
0001
0100
0010
1000
0100
0010
,
0002
0000
0100
0000
,
0000
0000
0100
0000
,
2003
0000
0010
0000
,
0000
0000
0010
0000
,
3001
0000
2001
0000
0000
0000
0M00
00M0
000M
00M0
0M00
00M0
300M
0000
0000
0000
;
