#TITLE:Destiny -Eclipse Mix-;
#SUBTITLE:;
#ARTIST:e^2;
#TITLETRANSLIT:;
#SUBTITLETRANSLIT:;
#ARTISTTRANSLIT:;
#CREDIT:;
#BANNER:../Zeppelin_bn.png;
#BACKGROUND:../bg_Zeppelin.png;
#LYRICSPATH:;
#CDTITLE:../cdtitle_ZAiA.png;
#MUSIC:e^2 - Destiny -Eclipse Mix-.ogg;
#OFFSET:-1.480;
#SAMPLESTART:58.948;
#SAMPLELENGTH:23.100;
#SELECTABLE:YES;
#BPMS:0.000=167.000;
#STOPS:;
#BGCHANGES:;
// cache tags:
#FIRSTBEAT:0.000;
#LASTBEAT:327.000;
#SONGFILENAME:Songs/Cirque du Zeppelin/Destiny -Eclipse Mix- - [Zaia]/Destiny -Eclipse Mix-.sm;
#HASMUSIC:1;
#HASBANNER:1;
#MUSICLENGTH:121.873;
// end cache tags

//---------------dance-single - 18----------------
#NOTES:
     dance-single:
     18:
     Challenge:
     12:
     0.905,1.000,0.000,0.222,0.841,745.000,0.000,27.000,0.000,0.000:
0001
0000
0000
1000
0000
0000
0100
0000
,
0010
0000
0000
0001
0000
0000
1000
0000
,
0010
0000
0000
0100
0000
0000
0001
0000
,
0010
0000
0000
0001
0000
0000
1000
0000
,
0010
0000
0000
0100
0000
0000
0010
0000
,
1000
0000
0000
0001
0000
0000
0010
0000
,
0100
1000
0001
1000
,
0001
0000
0000
0000
1000
0000
0000
0000
0001
0100
0010
1000
0001
1000
0001
0010
,
0100
1000
0010
1000
0001
1000
0100
0010
,
0001
0000
0100
0000
0001
0000
1000
0000
0001
0000
0010
0000
0100
0000
1000
0010
,
0100
0001
0010
0001
1000
0100
1000
0001
,
0001
0000
0100
0000
0010
0000
1000
0000
0001
0000
0010
0000
0100
0000
0010
0001
,
1000
0000
0010
0000
0100
0000
0000
0000
0001
0000
0010
0000
0100
0000
1000
0010
,
0100
0001
1000
0001
0010
0001
1000
0010
,
0100
0000
0010
0100
0001
0000
1000
0100
0010
0000
0100
1000
0001
0000
0100
0001
,
0100
0010
1000
0001
1000
0100
1000
0001
0100
0001
0010
0100
1000
0001
0100
0010
,
1000
0001
0100
0001
0010
0100
1000
0010
,
1000
0000
0001
0000
0010
0000
0100
0000
1000
0000
0001
0000
0100
0000
0010
1000
,
0001
0010
0001
1000
0100
1000
0001
0100
,
0010
0000
0100
0000
0001
0000
1000
0000
0000
0100
0010
0000
0100
0000
1000
0000
,
0001
0100
0010
1000
0001
0010
0100
0010
,
0001
0100
0010
1000
0001
0010
0001
1000
,
0010
0100
0001
1000
0001
0010
0001
1000
,
0100
0000
1000
0000
0010
0000
1000
0000
0001
0100
0000
0001
1000
0000
0001
0000
,
0010
0100
1000
0000
0001
0000
0100
0000
0001
0000
1000
0000
0010
0000
1000
0000
,
0001
0010
0100
0000
1000
0000
0001
0000
0010
0000
0001
0000
0100
0000
0010
0100
,
0001
1000
0100
0000
1000
0000
0001
0000
0100
0000
0010
0000
1000
0000
0001
0000
,
1000
0001
0010
0000
0100
0000
0010
0000
0001
0100
0000
0010
1000
0000
0001
1000
,
0100
0000
0010
0000
0100
0000
1000
0000
0001
0000
1000
0000
0001
0000
1000
0001
,
0100
0010
0100
0001
1000
0100
0010
0001
,
1000
0000
0001
0100
0001
0000
1000
0100
0010
0000
0001
1000
0010
0000
1000
0100
,
1000
0001
0100
0010
0100
0001
1000
0100
0010
0001
0100
0010
1000
0001
1000
0010
,
0100
0001
2000
0000
3200
0000
0320
0000
0000
0000
0032
0000
2003
0000
0000
0000
,
3010
0100
0002
0000
0023
0000
0032
0000
0000
0000
0203
0000
0320
0000
0000
0000
,
0130
0000
0001
0000
2000
0000
0000
0000
3200
0000
0000
0000
0320
0000
0000
0000
0000
0000
0000
0000
0230
0000
0000
0000
2300
0000
0000
0000
0000
0000
0000
3000
,
0010
1000
0001
0000
0020
0000
0032
0000
0000
0000
2003
0000
3020
0000
0000
0000
,
0130
0000
0001
0000
1000
0000
0001
0000
0020
0000
0000
0000
0000
0000
0000
0000
0230
0000
0000
0000
0000
0000
0000
0000
2300
0000
0000
0000
0000
0000
0000
3000
,
0010
1000
0100
1000
0002
0000
0000
0000
0203
0000
0000
0000
0320
0000
0000
0000
,
2030
0000
0000
0000
,
0000
0000
0000
0000
,
3001
0000
0001
0100
0000
0010
1000
0000
,
0001
1000
0000
0100
1000
0010
1000
0001
,
0010
0000
0010
0100
0000
1000
0001
0000
,
0100
0001
0000
0010
0001
0100
0010
0100
,
0001
0000
0001
1000
0000
0001
0010
0000
,
0100
1000
0000
0001
1000
0010
1000
0100
,
0010
0000
0010
0100
0000
1000
0001
0000
,
1000
0010
0000
0100
0001
0010
0001
1000
,
0010
0000
0100
0010
0000
0100
0001
0000
,
1000
0001
0000
0010
0001
0100
0001
1000
,
0100
0000
0100
0010
0000
0001
1000
0000
,
0010
1000
0000
0100
1000
0010
0100
0010
,
1000
0000
1000
0001
0000
1000
0100
0000
,
0010
0001
0000
1000
0001
0100
0001
0010
,
0100
0000
0100
0010
0000
0001
1000
0000
,
0010
0000
0100
0000
0000
0000
0010
0000
1000
0000
0100
1000
0001
1000
0010
0100
,
0001
0010
0001
1000
0100
1000
0010
1000
,
0001
0000
0100
0000
0010
0000
1000
0000
0001
0010
0001
0000
1000
0010
1000
0000
,
0001
0010
0001
0100
0001
1000
0100
0010
,
0100
0000
1000
0000
0001
0000
1000
0000
0010
0100
0010
0000
1000
0001
1000
0000
,
0100
0010
0001
0010
0100
1000
0001
1000
,
0001
0000
0100
0000
0010
0000
0100
0000
0001
0010
0001
0000
1000
0010
1000
0000
,
0100
1000
0001
1000
0010
0100
0001
0010
0100
1000
0001
0010
0001
0100
0010
1000
,
0001
0100
0001
0010
0100
1000
0001
0010
0001
1000
0100
1000
0001
0100
0001
1000
,
0010
1000
0100
1000
0001
0100
0001
1000
0010
1000
0001
0100
0001
1000
0001
0010
,
0100
1000
0010
1000
0001
0010
0001
1000
0100
1000
0001
0010
0001
1000
0010
0100
,
0001
0010
0001
1000
0100
1000
0001
1000
0100
0010
0001
1000
0100
1000
0001
0010
,
0001
0100
0001
1000
0100
1000
0001
1000
0010
0100
0001
1000
0100
1000
0001
0100
,
0010
0100
0001
0010
0100
1000
0100
0010
0001
1000
0001
1000
0010
0100
0001
1000
,
0100
0010
0001
0100
0010
1000
0010
0100
0001
1000
0001
1000
0100
0010
0001
0100
,
0010
0100
0001
1000
0010
0100
0001
0010
0100
1000
0001
0010
0001
0100
0010
1000
,
0001
0100
0001
0010
0100
0010
0001
1000
0010
1000
0100
0010
0001
1000
0001
0100
,
0001
0010
0100
1000
0001
0010
0001
1000
0100
1000
0001
0010
0001
1000
0001
0100
,
0010
1000
0100
1000
0001
0100
0001
1000
0010
1000
0001
0100
0001
1000
0100
0010
,
0001
0100
0001
1000
0010
1000
0001
1000
0010
0100
0001
1000
0010
1000
0001
0100
,
0001
0010
0001
1000
0010
1000
0001
1000
0100
0010
0001
1000
0010
1000
0001
0010
,
0100
0010
0001
0100
0010
1000
0010
0100
0001
1000
0001
1000
0100
0010
0001
1000
,
0010
0100
0001
0010
0100
1000
0100
0010
0001
1000
0001
1000
0010
0100
0001
0010
,
0100
0010
0001
1000
0100
0010
0001
0100
0010
1000
0001
0100
0001
0010
0100
1000
,
0001
0010
0001
0100
0010
0100
0001
1000
0100
1000
0010
0100
0001
1000
0100
1000
,
0002
0000
0000
0000
,
0000
0000
0000
0003
;

//---------------dance-single - ----------------
#NOTES:
     dance-single:
     :
     Hard:
     11:
     0.802,1.000,0.000,0.222,0.484,657.000,0.000,27.000,0.000,0.000:
0001
0000
0000
1000
0000
0000
0100
0000
,
0010
0000
0000
0001
0000
0000
1000
0000
,
0010
0000
0000
0100
0000
0000
0001
0000
,
0010
0000
0000
0001
0000
0000
1000
0000
,
0010
0000
0000
0100
0000
0000
0010
0000
,
1000
0000
0000
0001
0000
0000
0010
0000
,
0100
1000
0001
1000
,
0001
0000
0000
0000
1000
0000
0000
0000
0001
0100
0010
1000
0001
1000
0001
0010
,
0100
1000
0010
1000
0001
1000
0100
0010
,
0001
0000
0100
0000
0001
0000
1000
0000
0001
0000
0010
0000
0100
0000
1000
0010
,
0100
0001
0010
0001
1000
0100
1000
0001
,
0001
0000
0100
0000
0010
0000
1000
0000
0001
0000
0010
0000
0100
0000
0010
0001
,
1000
0000
0010
0000
0100
0000
0000
0000
0001
0000
0010
0000
0100
0000
1000
0010
,
0100
0001
1000
0001
0010
0001
1000
0010
,
0100
0000
0010
0100
0001
0000
1000
0100
0010
0000
0100
1000
0001
0000
0100
0001
,
0100
0010
1000
0001
1000
0100
1000
0001
0100
0001
0010
0100
1000
0001
0100
0010
,
1000
0001
0100
0001
0010
0100
1000
0010
,
1000
0000
0001
0000
0010
0000
0100
0000
1000
0000
0001
0000
0100
0000
0010
1000
,
0001
0010
0001
1000
0100
1000
0001
0100
,
0010
0000
0100
0000
0001
0000
1000
0000
0000
0100
0010
0000
0100
0000
1000
0000
,
0001
0100
0010
1000
0001
0010
0100
0010
,
0001
0100
0010
1000
0001
0010
0001
1000
,
0010
0100
0001
1000
0001
0010
0001
1000
,
0100
0000
1000
0000
0010
0000
1000
0000
0001
0100
0000
0001
1000
0000
0001
0000
,
0010
0100
1000
0000
0001
0000
0100
0000
0001
0000
1000
0000
0010
0000
1000
0000
,
0001
0010
0100
0000
1000
0000
0001
0000
0010
0000
0001
0000
0100
0000
0010
0100
,
0001
1000
0100
0000
1000
0000
0001
0000
0100
0000
0010
0000
1000
0000
0001
0000
,
1000
0001
0010
0000
0100
0000
0010
0000
0001
0100
0000
0010
1000
0000
0001
1000
,
0100
0000
0010
0000
0100
0000
1000
0000
0001
0000
1000
0000
0001
0000
1000
0001
,
0100
0010
0100
0001
1000
0100
0010
0001
,
1000
0000
0001
0100
0001
0000
1000
0100
0010
0000
0001
1000
0010
0000
1000
0100
,
1000
0001
0100
0010
0100
0001
1000
0100
0010
0001
0100
0010
1000
0001
1000
0010
,
0100
0001
2000
0000
3200
0000
0320
0000
0000
0000
0032
0000
2003
0000
0000
0000
,
3010
0100
0002
0000
0023
0000
0032
0000
0000
0000
0203
0000
0320
0000
0000
0000
,
0130
0000
0001
0000
2000
0000
0000
0000
3200
0000
0000
0000
0320
0000
0000
0000
0000
0000
0000
0000
0230
0000
0000
0000
2300
0000
0000
0000
0000
0000
0000
3000
,
0010
1000
0001
0000
0020
0000
0032
0000
0000
0000
2003
0000
3020
0000
0000
0000
,
0130
0000
0001
0000
1000
0000
0001
0000
0020
0000
0000
0000
0000
0000
0000
0000
0230
0000
0000
0000
0000
0000
0000
0000
2300
0000
0000
0000
0000
0000
0000
3000
,
0010
1000
0100
1000
0002
0000
0000
0000
0203
0000
0000
0000
0320
0000
0000
0000
,
2030
0000
0000
0000
,
0000
0000
0000
0000
,
3001
0000
0001
0100
0000
0010
1000
0000
,
0001
1000
0000
0100
1000
0010
1000
0001
,
0010
0000
0010
0100
0000
1000
0001
0000
,
0100
0001
0000
0010
0001
0100
0010
0100
,
0001
0000
0001
1000
0000
0001
0010
0000
,
0100
1000
0000
0001
1000
0010
1000
0100
,
0010
0000
0010
0100
0000
1000
0001
0000
,
1000
0010
0000
0100
0001
0010
0001
1000
,
0010
0000
0100
0010
0000
0100
0001
0000
,
1000
0001
0000
0010
0001
0100
0001
1000
,
0100
0000
0100
0010
0000
0001
1000
0000
,
0010
1000
0000
0100
1000
0010
0100
0010
,
1000
0000
1000
0001
0000
1000
0100
0000
,
0010
0001
0000
1000
0001
0100
0001
0010
,
0100
0000
0100
0010
0000
0001
1000
0000
,
0010
0000
0100
0000
0000
0000
0010
0000
1000
0000
0100
1000
0001
1000
0010
0100
,
0001
0010
0001
1000
0100
1000
0010
1000
,
0001
0000
0100
0000
0010
0000
1000
0000
0001
0010
0001
0000
1000
0010
1000
0000
,
0001
0010
0001
0100
0001
1000
0100
0010
,
0100
0000
1000
0000
0001
0000
1000
0000
0010
0100
0010
0000
1000
0001
1000
0000
,
0100
0010
0001
0010
0100
1000
0001
1000
,
0001
0000
0100
0000
0010
0000
0100
0000
0001
0010
0001
0000
1000
0010
1000
0000
,
0100
1000
0001
1000
0010
0100
0001
0010
0100
1000
0001
0010
0001
0100
0010
1000
,
0001
0100
0001
0010
0100
1000
0001
0010
0001
1000
0100
1000
0001
0100
0001
1000
,
0010
0100
0001
0000
0010
0000
0001
0000
1000
0000
0100
0000
1000
0000
0010
0000
,
0100
0001
1000
0000
0100
0000
0010
0000
0100
0000
1000
0000
0010
0000
1000
0000
,
0001
0010
0100
0000
0010
0000
0001
0000
1000
0000
0100
0000
1000
0000
0010
0000
,
0100
0000
0001
1000
0100
0000
0010
0000
0100
0000
1000
0000
0001
0000
0100
0000
,
0010
1000
0001
1000
0100
0000
0010
0000
0100
0000
1000
0000
0001
0000
1000
0000
,
0001
0010
0100
0010
0001
0000
0100
0000
0010
0000
1000
0000
0001
0000
0010
0000
,
0001
0100
0010
1000
0100
0010
0100
1000
,
0010
0000
1000
0000
0001
0000
0010
0000
0001
0100
0000
0010
1000
0000
0001
0000
,
0010
0000
0100
1000
0001
0000
0100
0000
0010
0000
0100
0000
0001
0000
0010
0000
,
0100
1000
0001
1000
0010
0000
0100
0000
0001
0010
0001
0000
1000
0010
1000
0000
,
0001
0000
0100
0001
0100
0000
0010
1000
0010
0000
1000
0001
1000
0000
0001
0000
,
0010
0100
0010
0000
0100
0000
1000
0001
1000
0000
0010
0100
0001
0000
1000
0000
,
0100
0010
0001
1000
0010
0000
0100
0000
0001
0000
1000
0000
0100
0000
0010
0000
,
0100
1000
0001
1000
0010
0000
0100
0000
0001
0000
1000
0000
0100
0000
0010
0000
,
0001
1000
0010
1000
0100
0010
0001
0100
0010
1000
0001
0100
0001
0010
0100
1000
,
0001
0010
0001
0100
0010
0100
0001
1000
0100
1000
0010
0100
0001
1000
0100
1000
,
0002
0000
0000
0000
,
0000
0000
0000
0003
;

//---------------dance-single - ----------------
#NOTES:
     dance-single:
     :
     Medium:
     9:
     0.740,0.805,0.000,0.254,0.267,600.000,0.000,31.000,0.000,0.000:
0001
0000
0000
1000
0000
0000
0100
0000
,
0010
0000
0000
0001
0000
0000
1000
0000
,
0010
0000
0000
0100
0000
0000
0001
0000
,
0010
0000
0000
0001
0000
0000
1000
0000
,
0010
0000
0000
0100
0000
0000
0010
0000
,
1000
0000
0000
0001
0000
0000
0010
0000
,
0100
1000
0001
1000
,
0001
0000
1000
0000
0001
0100
0001
0010
,
0100
1000
0010
1000
0001
1000
0100
0010
,
0001
0000
0100
0000
0001
0000
1000
0000
0001
0000
0010
0000
0100
0000
1000
0010
,
0100
0001
0010
0001
1000
0100
1000
0001
,
0001
0000
0100
0000
0010
0000
1000
0000
0001
0000
0010
0000
0100
0000
0010
0001
,
1000
0000
0010
0000
0100
0000
0000
0000
0001
0000
0010
0000
0100
0000
1000
0010
,
0100
0001
1000
0001
0010
0001
1000
0010
,
0100
0000
0010
0100
0001
0000
1000
0100
0010
0000
0100
1000
0001
0000
0100
0001
,
0200
0320
2030
3200
,
1300
0001
0100
0001
0010
0100
1000
0010
,
1000
0000
0001
0000
0010
0000
0100
0000
1000
0000
0001
0000
0100
0000
0010
1000
,
0001
0010
0001
1000
0100
1000
0001
0100
,
0010
0000
0100
0000
0001
0000
1000
0000
0000
0100
0010
0000
0100
0000
1000
0000
,
0001
0100
0010
1000
0001
0010
0100
0010
,
0001
0100
0010
1000
0001
0010
0001
1000
,
0010
0100
0001
1000
0001
0010
0001
1000
,
0100
0000
1000
0000
0010
0000
1000
0000
0001
0100
0000
0001
1000
0000
0001
0000
,
0010
0100
1000
0000
0001
0000
0100
0000
0001
0000
1000
0000
0010
0000
1000
0000
,
0001
0010
0100
0000
1000
0000
0001
0000
0010
0000
0001
0000
0100
0000
0010
0100
,
0001
1000
0100
0000
1000
0000
0001
0000
0100
0000
0010
0000
1000
0000
0001
0000
,
1000
0001
0010
0000
0100
0000
0010
0000
0001
0100
0000
0010
1000
0000
0001
1000
,
0100
0000
0010
0000
0100
0000
1000
0000
0001
0000
1000
0000
0001
0000
1000
0001
,
0100
0010
0100
0001
1000
0100
0010
0001
,
1000
0000
0001
0100
0001
0000
1000
0100
0010
0000
0001
1000
0010
0000
1000
0100
,
1000
0010
1000
0001
0100
0001
0010
0100
,
1000
0002
0023
0230
0000
2300
3002
0000
,
0103
0010
2000
0000
3200
0000
2300
0000
0000
0000
3020
0000
0230
0000
0000
0000
,
0310
0000
1000
0000
0002
0000
0000
0000
0023
0000
0000
0000
0230
0000
0000
0000
0000
0000
0000
0000
0320
0000
0000
0000
0032
0000
0000
0000
0000
0000
0000
0003
,
0100
0001
1000
0000
0200
0000
2300
0000
0000
0000
3002
0000
0203
0000
0000
0000
,
0310
0000
1000
0000
0001
0000
1000
0000
0200
0000
0000
0000
0000
0000
0000
0000
0320
0000
0000
0000
0000
0000
0000
0000
0032
0000
0000
0000
0000
0000
0000
0003
,
0100
0001
0010
0001
2000
0000
0000
0000
3020
0000
0000
0000
0230
0000
0000
0000
,
0302
0000
0000
0000
,
0000
0000
0000
0000
,
1003
0000
1000
0010
0000
0100
0001
0000
,
1000
0001
0000
0010
0001
0100
0001
1000
,
0100
0000
0100
0010
0000
0001
1000
0000
,
0010
1000
0000
0100
1000
0010
0100
0010
,
1000
0000
1000
0001
0000
1000
0100
0000
,
0010
0001
0000
1000
0001
0100
0001
0010
,
0100
0000
0100
0010
0000
0001
1000
0000
,
0001
0100
0000
0010
1000
0100
1000
0001
,
0100
0000
0010
0100
0000
0010
1000
0000
,
0001
1000
0000
0100
1000
0010
1000
0001
,
0010
0000
0010
0100
0000
1000
0001
0000
,
0100
0001
0000
0010
0001
0100
0010
0100
,
0001
0000
0001
1000
0000
0001
0010
0000
,
0100
1000
0000
0001
1000
0010
1000
0100
,
0010
0000
0010
0100
0000
1000
0001
0000
,
0100
0000
0010
0000
0000
0000
0100
0000
0001
0000
0010
0001
1000
0001
0100
0010
,
1000
0100
1000
0001
0010
0001
0100
0001
,
1000
0000
0010
0000
0100
0000
0001
0000
1000
0100
1000
0000
0001
0100
0001
0000
,
1000
0100
1000
0010
1000
0001
0010
0100
,
0010
0000
0001
0000
1000
0000
0001
0000
0100
0010
0100
0000
0001
1000
0001
0000
,
0010
0100
1000
0100
0010
0001
1000
0001
,
1000
0000
0010
0000
0100
0000
0010
0000
1000
0100
1000
0000
0001
0100
0001
0000
,
0010
0100
1000
0001
0010
0001
0100
0010
,
1000
0100
0010
0100
1000
0001
0100
0010
,
0100
0010
1000
0000
0100
0000
1000
0000
0001
0000
0010
0000
0001
0000
0100
0000
,
0010
1000
0001
0000
0010
0000
0100
0000
0010
0000
0001
0000
0100
0000
0001
0000
,
1000
0100
0010
0000
0100
0000
1000
0000
0001
0000
0010
0000
0001
0000
0100
0000
,
0010
0000
1000
0001
0010
0000
0100
0000
0010
0000
0001
0000
1000
0000
0010
0000
,
0100
0001
1000
0001
0010
0000
0100
0000
0010
0000
0001
0000
1000
0000
0001
0000
,
1000
0100
0010
0100
1000
0000
0010
0000
0100
0000
0001
0000
1000
0000
0100
0000
,
1000
0010
0100
0001
0010
0100
0010
0001
,
0100
0000
0001
0000
1000
0000
0100
0000
1000
0010
0000
0100
0001
0000
1000
0000
,
0100
0000
0010
0001
1000
0000
0010
0000
0100
0000
0010
0000
1000
0000
0100
0000
,
0010
0001
1000
0001
0100
0000
0010
0000
1000
0100
1000
0000
0001
0100
0001
0000
,
1000
0000
0010
1000
0010
0000
0100
0001
0100
0000
0001
1000
0001
0000
1000
0000
,
0100
0010
0100
0000
0010
0000
0001
1000
0001
0000
0100
0010
1000
0000
0001
0000
,
0010
0100
1000
0001
0100
0000
0010
0000
1000
0000
0001
0000
0010
0000
0100
0000
,
0010
0001
1000
0001
0100
0000
0010
0000
1000
0000
0001
0000
0010
0000
0100
0000
,
1000
0010
0100
0001
0010
0100
0010
0001
,
1000
0010
0100
0010
1000
0100
0010
0001
,
2000
0000
0000
0000
,
0000
0000
0000
3000
;
