#TITLE:Don't Be Afraid (Orchestral Version);
#SUBTITLE:Final Fantasy VIII;
#ARTIST:植松伸夫;
#TITLETRANSLIT:;
#SUBTITLETRANSLIT:;
#ARTISTTRANSLIT:Nobuo Uematsu;
#CREDIT:;
#BANNER:Don't Be Afraid.png;
#BACKGROUND:Don't Be Afraid-bg.png;
#LYRICSPATH:;
#CDTITLE:CDTitle-ADd.png;
#MUSIC:Don't Be Afraid.mp3;
#OFFSET:0.811;
#SAMPLESTART:86.432;
#SAMPLELENGTH:15.534;
#SELECTABLE:YES;
#BPMS:0.000=158.000;
#STOPS:;
#BGCHANGES:;
// cache tags:
#FIRSTBEAT:4.000;
#LASTBEAT:300.000;
#SONGFILENAME:Songs/VGMP 2/Don't Be Afraid (Agent Distracted)/Don't Be Afraid.sm;
#HASMUSIC:1;
#HASBANNER:1;
#MUSICLENGTH:120.633;
// end cache tags

//---------------dance-single - Agent DiStRaCtEd----------------
#NOTES:
     dance-single:
     Agent DiStRaCtEd:
     Hard:
     11:
     1.000,1.000,1.000,0.721,0.605,634.000,222.000,87.000,0.000,3.000:



0000
0000
0000
0000
,
1000
0100
1000
0100
1001
0000
0100
0000
0100
0000
1001
0000
0100
0000
0100
0000
,
1100
0100
0011
0001
0110
0010
0010
0110
,
0010
0010
1001
0001
1001
1000
0101
0001
,
0001
0101
0001
0001
1010
0100
0011
0100
,
1010
0000
1000
0000
1000
0000
1010
0000
0010
0000
0010
0000
1000
0010
0100
0001
,
0010
0100
1000
0010
0101
0000
1000
0000
1000
0000
0011
0000
0001
0000
0001
0000
,
1001
0000
0010
0000
0001
0100
0010
1000
0110
0000
1000
0000
1000
0000
0110
0000
,
0010
0010
0011
1000
1010
0001
0101
0010
,
0010
0000
1100
0000
0100
0000
0100
0000
0011
0000
0001
0000
0001
0100
0010
1000
,
0010
0100
0010
1000
0100
1000
0010
0100
0001
0010
0001
0100
0010
1000
0100
1000
,
0010
0100
0001
0010
0011
0000
0001
0010
0100
0000
1000
0100
0010
0100
1000
0000
,
0010
0100
0001
0010
0100
0010
0001
1000
0010
0100
0010
1000
0100
0000
1000
0100
,
0010
0001
0010
0000
0001
0010
0100
1000
0001
0100
0010
1000
2200
0000
3300
0000
,
0000
0202
0000
0303
2020
3030
2002
3003
,
1001
0001
1000
0110
0100
0010
1100
1000
,
0011
0000
2020
3030
0000
0220
0330
1010
,
0101
0000
0000
0000
0220
0000
0330
0000
2002
0000
3003
0000
2001
0000
0000
3000
,
1002
0000
0000
0003
2001
0000
0000
3000
0001
0010
0100
1000
1001
0000
0000
0000
,
0011
1100
0000
0101
1010
0000
1001
0110
,
0000
0000
0110
0000
2001
0000
3001
0000
2100
0000
0100
3000
0021
0000
0001
0030
,
2001
0000
0001
3000
0101
0000
0000
0000
0000
0000
0110
0000
0000
0000
0000
0000
,
1001
0000
1100
0000
0011
0000
0000
0101
,
0000
0000
1010
0000
1001
0000
0220
0330
,
0000
2002
3003
0000
0022
0033
2002
3003
,
1010
1000
0100
0101
0001
0100
1001
1001
,
0110
0000
0220
0330
0000
0220
0330
1100
,
0011
0000
0000
0000
2200
0000
0000
3300
2002
0000
0000
3003
0022
0000
0000
0033
,
2200
0000
0000
3300
2002
0000
0000
3003
0010
0100
0001
1000
1100
0000
0110
0000
,
1010
0011
1001
0110
1100
1001
1010
0110
,
1010
0110
1001
1010
1100
0011
0110
1100
,
0011
1100
1001
0000
0000
1100
0000
0000
,
0101
0000
0011
0000
1010
0000
0000
1001
,
0000
0000
0110
0000
1001
0000
1001
0110
,
0110
0000
1001
0000
0110
0000
0110
0000
1000
0001
0100
0000
0001
0100
0010
0000
,
1100
0000
0011
0000
0011
0000
1100
0000
0011
0000
0011
0000
0001
0010
0100
0000
,
1000
0000
0000
0100
0000
0000
0010
0000
0000
0000
0000
0000
0201
0000
0000
0000
0000
0000
0001
0000
0000
0000
0000
0000
0001
0000
0000
0000
0000
0000
0010
0000
0000
0000
0000
0000
0001
0000
0000
0000
0000
0000
0001
0000
0000
0000
0300
0000
,
0012
0103
1020
1030
0102
0010
0010
0100
,
0010
0010
0100
0013
2001
3010
1002
0010
,
0010
1000
0010
0010
1000
0010
1000
0013
,
2100
0001
0001
0100
0001
3001
0201
0301
,
2010
3010
0210
0010
0010
0001
0010
0010
,
0001
0000
0000
0310
0000
0000
1000
0100
0010
0001
1000
0100
0010
0001
1000
0100
0010
0001
1000
0010
0100
0001
1000
0010
,
0100
0001
1000
0010
0100
0001
2000
0000
0000
3001
0000
0000
2001
0000
0000
0010
0000
3000
0120
0000
0000
1000
0000
0000
,
1000
0100
1000
1030
2100
3001
0012
0100
,
0213
0001
0001
0010
0001
0001
0010
0001
,
0010
0301
1001
0110
1001
1100
1001
1010
,
1001
0011
1001
0101
2001
0100
0100
0001
,
0100
0000
0000
0100
0000
0000
3201
0000
0000
0010
0300
0000
1020
0000
0000
1000
0030
0000
2001
0000
0000
0010
0000
0000
,
0010
0000
0001
0000
0010
0000
0010
0000
0001
0000
0010
0000
3012
0000
0100
0003
,
0210
1000
1000
0010
1000
1000
0010
1000
,
0010
1300
1020
0100
0100
1000
0100
0100
,
0032
1000
1003
0000
1001
0000
0000
0110
,
1000
0100
0010
0001
0100
0010
1000
0100
0010
0001
0100
0010
1000
0010
0100
0001
1000
0010
0100
0001
1000
0100
0010
0001
,
0100
0010
1000
0001
0100
0010
1000
0100
0010
0001
0100
0010
1000
0010
0100
0001
0010
0100
1000
0000
0000
0000
0000
0000
,
1100
0000
0000
0000
0000
0000
0000
0000
0000
0011
0000
0000
1000
0010
0100
0001
1000
0010
0100
0001
0010
0100
1000
0010
,
0100
0001
0010
0100
1000
0100
0010
0001
1000
0010
0100
0001
1000
0100
0010
0001
0100
0010
1000
0010
0100
0001
0010
0100
,
2000
0000
0000
3000
0110
0000
0000
0000
0022
0000
0000
0000
0000
0000
0000
0000
,
0033
0101
1010
0202
,
0303
0000
0000
0000
0000
0000
0001
0010
0100
1000
0010
0100
0010
1000
0100
0010
0001
0100
0010
0100
0001
0010
0100
1000
,
0010
0010
0000
0000
0000
0000
0010
0000
1000
0100
1000
0010
1000
0001
1000
0100
,
1000
0000
0000
0010
0000
0000
1000
0000
0000
0001
0000
0000
1000
0000
0000
0000
0000
0000
1000
0000
0100
0000
0010
0000
0001
0000
0100
0000
0010
0000
0100
0000
0001
0000
0010
0000
0100
0000
1000
0000
0010
0000
0100
0000
0010
0000
1000
0000
,
0100
0000
0010
0000
0001
0000
0100
0000
0010
0000
0100
0000
0001
0000
0000
0000
0000
0000
0000
0000
0000
0000
0000
0000
2002
0000
0000
3003
0000
0000
0110
0000
0000
0000
0000
0000
1010
0000
0000
0000
0000
0000
0110
0000
0000
0000
0000
0000
,
0011
0000
0110
0000
1100
0000
0110
0000
1100
0000
0110
0000
2002
3003
0011
0000
,
1100
0101
1010
0110
1001
0101
1001
0101
,
0022
0033
0110
0000
1001
0000
0011
0000
1100
0000
0110
0000
1001
0000
1010
0000
,
0110
0000
0101
0000
2020
3030
0101
0000
0011
0000
1100
0000
1001
0000
0110
0000
,
0022
0033
0110
0000
2000
3001
0100
0010
1002
0000
0000
0000
0000
0000
1000
0000
,
0000
1000
1000
1000
,
0000
0000
1000
0000
0000
0000
0000
0000
1000
0000
0000
0000
1000
0000
0000
0003
,
1010
0110
0011
0101
1100
1001
0110
0101
,
0011
1100
0110
1001
0110
1010
0101
0011
,
1100
1001
0110
1100
0201
0000
0000
0010
,
0000
1000
0001
0010
,
0000
0000
1000
0000
0000
0000
0000
0000
0010
0000
0000
0000
0001
0000
0000
0300
,
1010
0000
0000
0000
;
