#TITLE:Shining Catastrophe;
#SUBTITLE:;
#ARTIST:Storz;
#TITLETRANSLIT:;
#SUBTITLETRANSLIT:;
#ARTISTTRANSLIT:;
#CREDIT:Rynker;
#BANNER:Bn-Shining.png;
#BACKGROUND:Bg-Shining.png;
#LYRICSPATH:;
#CDTITLE:;
#MUSIC:22-Storz_-_Shining_Catastrophe.ogg;
#OFFSET:-0.025;
#SAMPLESTART:60.951;
#SAMPLELENGTH:12.000;
#SELECTABLE:YES;
#BPMS:0.000=222.000;
#STOPS:;
#BGCHANGES:;
// cache tags:
#FIRSTBEAT:2.000;
#LASTBEAT:394.000;
#SONGFILENAME:Songs/SPEEEDCOOOORE 2/Shining Catastrophe - [Rynker]/shining catastrophe.sm;
#HASMUSIC:1;
#HASBANNER:1;
#MUSICLENGTH:108.669;
// end cache tags

//---------------dance-single - Rynker----------------
#NOTES:
     dance-single:
     Rynker:
     Challenge:
     15:
     1.000,1.000,0.156,0.046,1.000,939.000,17.000,5.000,0.000,0.000:

0000
0000
0000
0000
0000
0000
0000
0000
0001
0000
0100
0001
0100
0000
0001
0000
,
0000
0000
1000
0000
0000
0000
0000
0000
0100
0000
0010
0001
0010
0000
0001
0000
,
0000
0000
1000
0000
0010
0000
0000
0000
0100
0000
0001
1000
0001
0000
1000
0000
,
0000
0000
0100
0000
0010
0000
0000
0000
0001
0000
1000
0010
1000
0000
0001
0000
,
0000
0000
0010
0000
0100
0000
1000
0100
1000
0000
0001
0100
0001
0000
1000
0000
,
0000
0000
0010
0000
0000
0000
0000
0000
0100
0000
0001
1000
0001
0000
0010
0000
,
0000
0000
0100
0000
1000
0000
0000
0000
0001
0000
0010
0001
0010
0000
0100
0000
,
0000
0000
1000
0000
0001
0000
0000
0000
0100
0000
0010
1000
0010
0000
0100
0000
,
0000
0000
0001
0000
1000
0001
0010
0100
0010
0000
0001
1000
0001
0000
0100
0000
,
0000
0000
0010
0000
0000
0000
0000
0000
1000
0000
0010
0100
0010
0000
1000
0000
,
0000
0000
0001
0000
0010
0000
0000
0000
0100
0000
1000
0100
1000
0000
0001
0000
,
0000
0000
0100
0000
0010
0000
0000
0000
1000
0000
0001
0100
0001
0000
1000
0000
,
0000
0000
0010
0000
0100
0000
0001
1000
0001
0000
1000
0100
1000
0000
0100
0000
,
0000
0000
0010
0000
0000
0000
0000
0000
0001
0000
0100
0010
0100
0000
0001
0000
,
0000
0000
1000
0000
0100
0000
0000
0000
0010
0000
0001
0010
0001
0000
1000
0000
,
0000
0000
0010
0000
0100
0000
0000
0000
0001
0000
1000
0010
1000
0000
0001
0000
,
0000
0000
0100
0000
0010
0100
0001
1000
0001
0000
1000
0001
0010
0000
0100
0000
,
0010
0000
0001
0000
1000
0000
0001
0000
0100
0000
0010
0100
0001
0000
1000
0000
,
0100
0000
0010
0000
0100
0000
1000
0000
0001
0000
1000
0100
0010
0000
0001
0000
,
1000
0000
0010
0000
0010
0000
1000
0000
0100
0000
0010
0001
1000
0000
0100
0000
,
0010
0000
0001
0000
1000
0000
0010
1000
0001
0000
0100
0001
1000
0000
0010
0000
,
1000
0000
0100
0000
1000
0000
0001
0000
0100
0000
0010
1000
0001
0000
0010
0000
,
0100
0000
0010
0000
0010
0000
0001
0000
1000
0000
0010
0100
0001
0000
1000
0000
,
0100
0000
0010
0000
0010
0000
0001
0000
1000
0000
0100
0010
0001
0000
0010
0000
,
0100
0000
1000
0000
0001
0100
0001
1000
0001
0000
0100
0001
1000
0000
0010
0000
,
1000
0000
0100
0000
1000
0000
0001
0000
0100
0000
0010
1000
0001
0000
0010
0000
,
0100
0000
0010
0000
0010
0000
0001
0000
1000
0000
0010
0100
0001
0000
1000
0000
,
0100
0000
0010
0000
0010
0000
0001
0000
1000
0000
0100
0010
0001
0000
0010
0000
,
0100
0000
1000
0000
0001
0000
1000
0001
1000
0000
0010
1000
0001
0000
0100
0000
,
0001
0000
0010
0000
0001
0000
1000
0000
0010
0000
0100
0001
1000
0000
0100
0000
,
0010
0000
0100
0000
0100
0000
1000
0000
0001
0000
0100
0010
1000
0000
0001
0000
,
0010
0000
0100
0000
0100
0000
1000
0000
0001
0000
0010
0100
1000
0000
0100
0000
,
0010
0000
0001
0000
1000
0010
1000
0001
0100
0000
0001
0100
0010
0000
0010
0000
,
1000
0000
0001
0010
0100
0000
0100
0000
1000
0000
0001
0100
0010
0000
0010
0000
,
1000
0000
0001
0010
0100
0000
0100
0000
1000
0000
0001
0100
0010
0000
0010
0000
,
1000
0000
0100
0010
0100
0000
0100
0000
1000
0000
0001
0100
0001
0000
0001
0000
,
2000
0000
0000
0000
3000
0000
1001
0000
1001
0000
1000
0100
0010
0000
0010
0000
,
0001
0000
1000
0010
0100
0000
0100
0000
0001
0000
1000
0100
0010
0000
0010
0000
,
0001
0000
0100
0010
1000
0000
1000
0000
0010
0000
1000
0001
0010
0000
0010
0000
,
0100
0000
0010
0001
0010
0000
0010
0000
0001
0000
1000
0010
1000
0000
1000
0000
,
0001
0000
0100
0001
0100
0000
0100
0000
0020
0000
0000
0000
0030
0000
0000
0000
,
1000
0000
0001
0010
0100
0010
0001
0000
,
1000
0000
0001
0100
0010
0000
0100
0000
,
0001
0000
1000
0100
0010
0100
1000
0000
,
0001
0000
0000
0000
1000
0100
1000
0100
1000
0000
0000
0000
0001
0000
0000
0000
,
0100
0100
0010
0100
0001
1000
0001
0010
,
0001
0100
0001
0100
0001
0000
1000
0000
0010
0000
0100
0000
0001
0000
0010
0000
,
0100
0010
0001
1000
0001
0100
0001
1000
,
0001
1000
0001
1000
0001
0000
1000
0000
0100
0000
0010
0000
0001
0000
1000
0001
,
0000
1000
0001
0000
0100
0000
0010
0000
0100
0000
0001
0000
0010
0000
0001
0010
,
0000
0100
1000
0000
0001
0010
0001
1000
0001
0000
0100
0000
0010
0000
1000
0001
,
0000
0100
0001
0000
0100
0000
0010
1000
0010
0000
0100
0000
0010
0000
0100
0000
,
0001
0000
1000
0000
0001
0010
0001
0010
0001
0000
0010
0000
0100
0000
1000
0100
,
0000
0010
0100
0000
1000
0000
0001
0100
0001
0000
1000
0000
0001
1000
0001
1000
,
0001
1000
0100
0000
0010
0001
0010
0000
0001
0000
0100
0000
0010
0000
0100
0001
,
0000
0100
0001
0000
1000
0000
0010
0000
0100
0000
0001
0000
1000
0100
1000
0000
,
0001
0000
0000
0100
0010
0000
0000
0000
1001
0000
1000
0100
1000
0000
0001
0000
,
0100
0000
0010
0000
0100
0000
0001
0000
0010
0000
0100
1000
0100
0000
0010
0000
,
0001
0000
0100
0000
0010
0000
1000
0000
1001
0000
0001
0010
0001
0000
0010
0000
,
0100
0000
1000
0000
0010
0000
0100
0000
0001
0000
1000
0010
1000
0000
0000
0001
,
0000
0000
0010
0000
0001
0100
0010
0100
0001
0000
0100
0010
0100
0000
0001
0000
,
0010
0000
0100
0000
1000
0000
0010
0000
0100
0000
0001
0010
0001
0000
0100
0000
,
0010
0000
1000
0000
0100
0000
0010
0000
0110
0000
0100
1000
0100
0000
1000
0000
,
0001
0100
0010
0100
0101
0001
1000
0001
,
1001
0000
0000
0000
0110
0000
0000
0000
1001
0000
1000
0100
0010
0000
0001
0000
,
0100
0000
0010
0000
0100
0000
0001
0000
0010
0000
0100
1000
0001
0000
0010
0000
,
0001
0000
0100
0000
0100
0000
0010
1000
0001
0000
0100
0001
0100
0000
0001
0000
,
0010
0000
0100
0000
0100
0000
1000
0000
0001
1000
0010
1000
0010
0000
0000
0100
,
0000
0000
0001
0000
1000
0001
0010
0001
0100
0000
0010
1000
0001
0000
0010
0000
,
0100
0000
1000
0000
0001
0000
0100
0000
0010
0000
1000
0010
0100
0000
0001
0000
,
0010
0000
0100
0000
1000
0000
0001
0100
0010
0000
1000
0010
0100
0000
0001
0000
,
1000
0000
0100
0000
0100
0000
0010
0000
0001
0000
0010
0100
0000
1000
0001
0000
,
1000
0010
0000
0100
0010
0100
0001
1000
0001
0000
1000
0100
0010
0000
0001
0000
,
0100
0000
0010
0000
0100
0000
0001
0000
0010
0000
0100
1000
0001
0000
0010
0000
,
0001
0000
0100
0000
0100
0000
0010
1000
0001
0000
0100
0001
0100
0000
0001
0000
,
0010
0000
0100
0000
0100
0000
1000
0000
0001
1000
0010
1000
0010
0000
0000
0100
,
0000
0000
0001
0000
1000
0001
0010
0001
1000
0000
0001
0010
0100
0000
1000
0000
,
0010
0000
0100
0000
0010
0000
1000
0000
0100
0000
0010
0001
1000
0000
0100
0000
,
1000
0000
0010
0000
0010
0000
0100
0001
1000
0000
0010
1000
0010
0000
1000
0000
,
0100
0000
0010
0000
0010
0000
0001
0000
1000
0000
0001
1000
0000
1000
0001
0000
,
0010
0001
0000
0010
0100
0010
0100
1000
0001
1000
0001
0010
0100
0010
0001
1000
,
0001
0100
0010
0100
0001
1000
0010
0100
0001
1000
0100
0010
0001
0010
0100
1000
,
0001
1000
0001
0100
0010
1000
0010
0100
0001
1000
0100
0010
0100
1000
0001
0010
,
0100
0010
0001
1000
0001
1000
0001
0100
0010
0100
0001
1000
0100
0010
0001
1000
,
0001
0100
0001
0100
0010
1000
0001
0010
0100
0010
0001
1000
0001
0100
0010
0100
,
0001
1000
0100
0010
0100
1000
0001
0010
0100
1000
0001
0100
0010
0100
0001
1000
,
0010
0100
0001
1000
0100
0010
0100
1000
0001
0010
0100
1000
0001
0100
0010
0100
,
0001
1000
0010
0100
0010
1000
0001
0100
0010
1000
0001
0010
0100
0010
0001
1000
,
0001
0010
0100
1000
0100
0010
0001
1000
0001
0100
0010
1000
0010
0100
0001
1000
,
0001
0100
0010
1000
0001
0010
0400
0000
1300
0001
0010
0100
1000
0001
0100
0010
,
0100
0001
1000
0010
4000
0000
3001
0010
0100
1000
0001
0100
0010
0100
0001
1000
,
0100
0000
0010
0000
0200
0000
0300
0000
0040
0031
0100
0010
0100
0001
1000
0001
,
0400
0310
1000
0010
0400
0000
0301
1000
0100
0010
0001
1000
0001
0100
0010
0100
,
0001
1000
0010
0100
0001
1000
0100
0010
0400
1300
0001
0010
0100
1000
0001
0100
,
0010
0100
0001
1000
0040
0000
0130
0001
1000
0010
0100
0010
1000
0001
0100
0010
,
1000
0000
0001
0000
2000
0000
3001
0000
0004
0000
0013
0100
0000
1000
0001
0000
,
0100
0010
0000
1000
0001
0000
0010
0000
0020
0000
0000
0000
0000
0000
0000
0000
,
0000
0000
0000
0000
,
0000
0000
0030
0000
;

//---------------dance-single - R. Konkul vs B. Abea----------------
#NOTES:
     dance-single:
     R. Konkul vs B. Abea:
     Hard:
     14:
     1.000,1.000,0.101,0.074,1.000,909.000,11.000,8.000,89.000,0.000:






0000
0000
0000
0000
0000
0000
0000
0000
0001
0000
1000
0010
1000
0000
0001
0000
,
0000
0000
1000
0000
0000
0000
0000
0000
0001
0000
1000
0100
1000
0000
0001
0000
,
0000
0000
1000
0000
0010
0000
0000
0000
0100
0000
0010
1000
0010
0000
0100
0000
,
0000
0000
0010
0000
0010
0000
0000
0000
1000
0000
0001
0010
0001
0000
1000
0000
,
0000
0000
0001
0000
1000
0100
0010
0001
1000
0000
0001
0100
0001
0000
1000
0000
,
0000
0000
0001
0000
0000
0000
0000
0000
1000
0000
0001
0010
0001
0000
1000
0000
,
0000
0000
0001
0000
0100
0000
0000
0000
0001
0000
1000
0010
1000
0000
0001
0000
,
0000
0000
1000
0000
1000
0000
0000
0000
0001
0000
1000
0100
1000
0000
0001
0000
,
0000
0000
1000
0000
0001
1000
0100
0010
0001
0000
1000
0001
1000
0000
0010
0000
,
0000
0000
1000
0000
0000
0000
0000
0000
0001
0000
1000
0010
1000
0000
0001
0000
,
0000
0000
1000
0000
0100
0000
0000
0000
0010
0000
0100
1000
0100
0000
0010
0000
,
0000
0000
0100
0000
0100
0000
0000
0000
1000
0000
0001
0100
0001
0000
1000
0000
,
0000
0000
0001
0000
1000
0010
0100
0001
1000
0000
0001
0100
0001
0000
1000
0000
,
0000
0000
0001
0000
0000
0000
0000
0000
0010
0000
0100
0010
0100
0000
1000
0000
,
0000
0000
0100
0000
0010
0000
0000
0000
0001
0000
1000
0001
1000
0000
0010
0000
,
0000
0000
1000
0000
1000
0000
0000
0000
0001
0000
1000
0010
1000
0000
0001
0000
,
0000
0000
0010
0000
0001
0010
0100
1000
0001
0000
1000
0000
0010
0000
0100
0000
,
0001
1000
0001
1000
0010
0100
0001
1000
,
0100
0000
0010
0000
0001
0000
1000
0001
0010
0000
0100
0000
1000
0000
0001
0000
,
0100
0000
0010
0000
0100
0000
0001
0000
0010
0100
1000
0000
0001
0000
0010
0001
,
1000
0000
0010
0000
0100
0001
1000
0100
1000
0000
0010
0000
0100
0000
0001
0000
,
1000
0001
0010
0100
0010
0001
1000
0010
,
0100
0000
0001
0000
0100
0000
0001
1000
0100
0000
0010
0000
0001
0000
1000
0000
,
0010
0000
0100
0000
0001
0000
0010
0000
0100
1000
0001
0000
0100
0001
1000
0000
,
0001
0000
0000
0000
0M00
00M0
0M00
00M0
1000
0000
0001
0000
0010
0000
0100
0000
,
1000
0010
0100
0010
1000
0001
1000
0100
,
0010
0000
0100
0000
1000
0000
0001
0100
0010
0000
0100
0000
0010
0000
1000
0000
,
0001
0000
0010
0000
0100
0000
1000
0000
0001
1000
0100
0000
0010
0000
0001
1000
,
0010
0000
0100
0000
0010
1000
0001
1000
0001
0000
0100
0000
0010
0000
1000
0000
,
0001
1000
0100
0010
0001
1000
0001
0010
,
0100
0000
0010
0000
0100
0000
1000
0010
0100
0000
0010
0000
1000
0000
0001
0000
,
0100
0000
0010
0000
1000
0000
0001
0000
0010
0100
1000
0000
0010
0100
0001
0000
,
1000
0000
0000
0000
00M0
0M00
00M0
0M00
0001
0000
1000
0010
0100
0000
0100
0000
,
0001
0000
1000
0100
0010
0000
0010
0000
0001
0000
1000
0010
1000
0000
1000
0000
,
0001
0000
1000
0100
0040
0000
0031
0000
1000
0000
0001
0100
0010
0000
0010
0000
,
1000
0000
0001
1000
0100
0000
0100
0000
0010
0000
0001
1000
0001
0000
0001
0000
,
2000
0000
0000
0000
0000
0000
3004
0000
1003
0000
0001
1000
0010
0000
0010
0000
,
1000
0000
0100
0010
0001
0000
0001
0000
1000
0000
0001
0100
0010
0000
0010
0000
,
1000
0000
0100
0000
0010
0000
0001
0000
1000
0000
0010
0100
0001
0000
0001
0000
,
10M0
00M0
01M0
10M0
00M1
00M0
00M1
00M0
01M0
00M0
00M1
10M0
01M0
00M0
01M0
00M0
,
20M0
00M0
00M0
00M0
30M1
01M0
00M1
10M0
00M2
0000
0003
0000
0100
0000
0000
0000
,
0001
0000
1000
0100
0010
0100
1000
0000
,
0001
0000
1000
0010
0100
0000
0010
0000
,
1000
0000
0001
0010
0100
0010
0001
0000
,
1000
0000
0000
0000
0001
0010
0001
0010
0001
0000
0000
0000
1000
0000
0000
0000
,
0010
0010
0100
0010
1000
0001
1000
0100
,
1000
0010
1000
0010
1000
0000
0001
0000
0100
0000
0010
0000
1000
0000
0100
0000
,
0010
0100
1000
0001
1000
0010
1000
0001
,
1000
0001
1000
0001
1000
0000
0001
0000
0010
0000
0100
0000
1000
0000
0001
1000
,
0000
0001
1000
0000
0010
0000
0100
0000
0010
0000
1000
0000
0100
0000
1000
0100
,
0000
0010
0001
0000
1000
0100
1000
0001
1000
0000
0010
0000
0100
0000
0001
1000
,
0000
0010
1000
0000
0010
0000
0100
0001
0100
0000
0010
0000
0100
0000
0010
0000
,
1000
0000
0001
0000
1000
0100
1000
0100
1000
0000
0100
0000
0010
0000
0001
0010
,
0000
0100
0010
0000
0001
0000
1000
0010
1000
0000
0001
0000
1000
0001
1000
0001
,
1000
0001
0010
0000
0100
1000
0100
0000
1000
0000
0010
0000
0100
0000
0010
1000
,
0000
0010
1000
0000
0001
0000
0100
0000
0010
0000
1000
0000
0001
0010
0000
0100
,
0000
1000
0000
0010
0100
0000
0000
0000
0002
0000
1003
0010
1000
0000
0001
0000
,
0010
0000
0100
0000
0010
0000
0001
0000
0100
0000
0010
1000
0010
0000
0100
0000
,
0001
0000
0010
0000
0100
1000
0001
0100
0020
0000
1030
0100
1000
0000
0100
0000
,
0010
0000
0010
0000
0010
0000
0001
0000
1000
0000
0001
1000
0001
0000
0000
0100
,
0000
0010
0000
0000
1000
0010
0100
0001
1000
0000
0001
0010
0001
0000
1000
0000
,
0100
0000
1000
0000
0010
0000
0100
0000
0001
0000
1000
0100
1000
0000
0100
0000
,
1000
0000
0001
0000
0100
0010
1000
0001
1000
0000
0001
0010
0001
0000
1000
0000
,
00M1
00M0
00M1
00M0
00M1
00M0
10M0
00M0
01M0
00M0
01M0
00M0
01M0
00M0
10M0
00M0
,
00M2
00M0
00M0
00M0
10M3
01M0
10M0
00M1
10M0
0000
0001
0000
0010
0000
0100
0000
,
1000
0010
0100
0001
0100
0010
0100
0001
,
1000
0000
0100
0000
0010
0000
0001
1000
0010
0000
0100
0000
0010
0000
1000
0000
,
0001
0000
0001
0000
0001
0000
1000
0000
0001
1000
0100
0000
0010
0000
0001
1000
,
0100
0000
0010
0000
0001
0100
0010
1000
0001
0000
1000
0000
0100
0000
0010
0000
,
0100
1000
0001
0100
0010
0100
0001
1000
,
0010
0000
1000
0000
0001
0000
1000
0100
0010
0000
0001
0000
0010
0000
0100
0000
,
1000
0000
1000
0000
1000
0000
0010
0000
0100
0001
1000
0000
0010
1000
0001
0000
,
1000
0010
0000
1000
0100
0010
0001
1000
0001
0000
1000
0000
0001
0000
0010
0000
,
0100
1000
0010
0100
0010
0100
0001
1000
,
0001
0000
0010
0000
0001
0000
1000
0001
0010
0000
0100
0000
1000
0000
0001
0000
,
0010
0000
0010
0000
0010
0000
0001
0000
1000
0010
0100
0000
0010
0000
1000
0001
,
0010
0000
0001
0000
1000
0100
0010
0001
1000
0000
0001
0000
0100
0000
0010
0000
,
0100
0001
1000
0001
1000
0100
0010
0100
,
1000
0000
0010
0000
0100
0000
0001
1000
0100
0000
0010
0000
0001
0000
1000
0000
,
0100
0100
0100
1000
0002
0003
0000
0000
,
0000
0000
0000
0000
0000
0000
0000
0000
0001
1000
0001
0010
0100
0010
0001
1000
,
0001
0100
0010
0100
0001
1000
0010
0100
0001
1000
0100
0010
0001
0010
0100
1000
,
0001
1000
0001
0100
0010
1000
0010
0100
0001
1000
0100
0010
0100
1000
0001
0010
,
0100
0010
0001
1000
0001
1000
0001
0100
0010
0100
0001
1000
0100
0010
0001
1000
,
0001
0100
0001
0100
0010
1000
0001
0010
0100
0010
0001
1000
0001
0100
0010
0100
,
0001
1000
0100
0010
0100
1000
0001
0010
0100
1000
0001
0100
0010
0100
0001
1000
,
0010
0100
0001
1000
0100
0010
0100
1000
0001
0010
0100
1000
0001
0100
0010
0100
,
0001
1000
0010
0100
0010
1000
0001
0100
0010
1000
0001
0010
0100
0010
0001
1000
,
0001
0010
0100
1000
0100
0010
0001
1000
0001
0100
0010
1000
0010
0100
0001
1000
,
0001
0100
0010
1000
0001
0010
0400
0000
1300
0001
0010
0100
1000
0001
1000
0010
,
0100
0001
1000
0010
4000
0000
3001
0010
0100
1000
0001
0100
0001
1000
0001
1000
,
0100
0000
0100
0000
0100
0000
0010
0000
0004
0000
1003
0010
0100
0000
0004
0000
,
1003
0100
1000
0001
0400
0000
0000
0000
0301
1000
0001
1000
0001
0100
0010
0100
,
0001
1000
0010
0100
0001
1000
0400
0000
1300
0001
0010
0001
1000
0010
0100
0001
,
1000
0001
1000
0100
0040
0000
0031
1000
0001
0010
0100
0010
0001
1000
0010
0100
,
0001
0000
0001
0000
0001
0000
1000
0000
0004
0000
1003
0010
0100
0001
4000
0000
,
3001
0010
0000
0001
0100
0000
0010
0000
2M00
0M00
0M00
0M00
0M00
0M00
0M00
0M00
,
0M00
0M00
0M00
0M00
0M00
0M00
0M00
0M00
0M00
0M00
0M00
0M00
0M00
0M00
0M00
0M00
,
0M00
0M00
0M00
0M00
0M00
0M00
3M00
0000
0000
0000
0000
0000
0000
0000
0000
0000
;
