#TITLE:ROAR;
#SUBTITLE:(Rage Mix);
#ARTIST:Dr1010;
#TITLETRANSLIT:;
#SUBTITLETRANSLIT:;
#ARTISTTRANSLIT:;
#CREDIT:;
#BANNER:roar bn.png;
#BACKGROUND:roar bg.png;
#LYRICSPATH:;
#CDTITLE:cdtitle.png;
#MUSIC:dr1010+enochstyleroarragemix.ogg;
#OFFSET:-0.024;
#SAMPLESTART:48.082;
#SAMPLELENGTH:12.000;
#SELECTABLE:YES;
#DISPLAYBPM:80.000:180.000;
#BPMS:0.000=80.000,34.000=160.000,34.375=180.000,34.500=180.000,35.000=180.000,35.250=180.000,35.500=180.000,48.000=360.000,52.000=180.000,64.000=360.000,68.000=180.000,132.000=90.000,164.000=180.000;
#STOPS:34.000=0.093
,34.250=0.094
,34.500=0.060
,34.667=0.060
,34.833=0.060
,35.000=0.034
,35.125=0.034
,35.250=0.034
,35.375=0.034
,48.000=0.084
,48.500=0.083
,49.000=0.083
,49.500=0.084
,50.000=0.083
,50.500=0.083
,51.000=0.084
,51.500=0.083
,64.000=0.084
,64.500=0.084
,65.000=0.084
,65.500=0.084
,66.000=0.084
,66.500=0.084
,67.000=0.084
,67.500=0.084
;
#BGCHANGES:;
// cache tags:
#FIRSTBEAT:0.000;
#LASTBEAT:230.000;
#SONGFILENAME:Songs/SSSC Pack 2/Roar - [Psychotic]/dr1010+enochstyleroarragemix.sm;
#HASMUSIC:1;
#HASBANNER:1;
#MUSICLENGTH:105.000;
// end cache tags

//---------------dance-single - R. Cardenas----------------
#NOTES:
     dance-single:
     R. Cardenas:
     Challenge:
     12:
     0.951,1.000,0.286,0.924,1.000,571.000,30.000,97.000,124.000,0.000:



0M00
0000
0000
0000
0000
0000
0000
0000
0000
0000
0000
0000
M000
0000
0M00
00M0
000M
0000
0000
0000
0000
0000
0000
0000
0000
0000
0M00
0000
000M
0000
0000
0000
,
000M
0000
0000
0000
0000
0000
M000
0000
0000
0000
0000
00M0
0000
0000
0000
0000
0000
000M
0000
0000
0000
0000
0000
0000
00M0
0000
0000
0000
0M00
0000
0000
0000
,
M000
0000
0000
0000
0000
0000
0000
0000
0000
0000
0000
0000
0000
0000
0000
0000
0000
0000
0000
0000
0000
0000
0000
0000
M000
0000
0000
0000
0M00
0000
00M0
000M
00MM
0000
0000
0000
0000
0000
0000
0000
0000
0000
0000
0000
0000
0000
0000
0000
0000
0000
0000
0000
M000
0000
0000
0000
000M
0000
0000
0000
0000
0000
0000
0000
,
0M00
000M
000M
M000
000M
000M
0M00
0M00
000M
000M
00M0
0M00
M000
M000
00M0
00M0
,
0001
0100
0001
0000
1000
0010
1000
0000
0001
0000
0010
0000
0100
1000
0100
0000
0010
0001
0010
0000
0001
1000
0001
0000
0100
0000
0010
0000
1000
0001
1000
0000
,
0010
1000
0010
0000
0100
0001
0100
0000
0010
0000
1000
0000
0100
0010
0100
0000
1000
0100
1000
0000
0001
0010
0001
0000
0100
0000
0001
0000
1000
0010
1000
0000
,
0010
0100
0010
0000
0100
0001
0100
0000
0010
0000
1000
0000
0001
0010
0001
0000
0010
0100
0010
0000
0100
1000
0100
0000
0010
0000
0001
0000
0100
0010
0100
0000
,
0001
1000
0001
0000
1000
0100
1000
0000
0010
0000
1000
0000
0001
0010
0001
0000
1000
0010
1000
0000
0010
0100
0010
0000
0100
0000
0001
0000
1000
0010
1000
0000
,
0004
0000
0000
0000
0000
0000
4000
0000
0000
0000
0000
0000
0000
0000
0000
0000
0000
0000
0000
0000
0000
0000
0000
0000
0000
0000
0000
0000
0000
0000
0000
0000
0000
0000
0000
0000
0000
0000
0000
0000
0000
0000
0000
0000
0000
0000
0000
0000
0000
0000
0000
0000
0000
0000
0000
0000
0000
0000
0000
0000
0000
0000
0000
0000
0000
0000
0000
0000
0000
0000
0000
0000
0000
0000
0000
0000
0000
0000
0000
0000
0000
0000
0000
0000
0000
0000
0000
0000
0000
0000
0000
0000
0000
0000
0000
0000
0M00
0000
0000
0000
0000
0000
0000
0000
0000
0000
0000
0000
00M0
0000
0000
0000
0000
0000
0000
0000
0000
0000
0000
0000
0M00
0000
0000
0000
0000
0000
0000
0000
00M0
0000
0000
0000
0000
0000
0000
0000
0M00
0000
0000
0000
0000
0000
0000
0000
00M0
0000
0000
0000
0000
0000
0M00
0000
0000
0000
0000
0000
00M0
0000
0000
0000
0000
0000
0M00
0000
0000
0000
0000
0000
30M3
0000
0000
0000
0000
0000
0000
0000
0000
0000
0000
0000
0000
0000
0000
0000
0000
0000
0000
0000
0000
0000
0000
0000
,
2000
3100
0010
0001
0100
0010
1000
0200
,
0320
0130
1000
0001
0010
0200
2300
3001
,
0200
0310
0100
0001
2000
3100
0010
0001
,
2000
3000
2000
3000
2000
3000
2000
3000
2000
3000
2000
3000
2000
3000
2000
3000
,
2000
3010
0100
0001
1000
0001
0010
0200
,
2300
3010
0100
0010
1000
0002
0023
0130
,
2000
3010
0100
0001
2000
3001
0010
0100
,
2000
3000
2000
3000
2000
3000
2000
3000
2000
3000
2000
3000
2000
3000
2000
3000
,
2000
3100
1000
0001
1000
0100
1000
0000
0001
0010
0001
1000
0001
0010
0001
0000
,
1000
0010
0100
0001
0100
0010
1000
0000
0001
0100
0010
1000
0010
0100
0001
0000
,
1000
0100
0010
0001
0010
0100
1000
0000
0001
0010
0100
1000
0100
0010
0001
0000
,
2000
3000
2000
3000
2000
3000
2000
3000
1000
0000
1000
0000
1000
0000
2000
3000
,
2000
3001
0100
0010
0100
0001
1000
0000
0001
1000
0010
0100
0010
1000
0001
0000
,
1000
0001
0010
0100
0010
0001
1000
0000
0001
1000
0100
0010
0100
1000
0001
0000
,
1000
0100
0010
0001
1000
0100
0010
0000
0010
0100
1000
0001
0010
0100
1000
0000
,
0002
0003
0002
0003
0002
0003
0002
0003
0001
0000
0001
0000
0001
0000
0002
0003
,
0002
0203
0320
2030
3002
2003
3100
0010
,
0001
0000
1000
0000
0010
0000
0100
0000
0001
0000
2000
0000
3002
0000
0013
0001
,
0010
0001
0010
0000
0001
0000
0001
1000
0100
0000
0100
0000
1000
0000
1000
0000
,
0001
0000
0001
1000
0001
0000
0001
1000
0010
0000
0010
0100
0001
1000
0100
0010
,
0002
0000
0023
0000
0230
0000
2300
0000
3001
0000
1000
0000
0010
0000
0100
0001
,
1000
0000
0001
0000
0010
0000
0100
0000
1000
0000
0100
0000
0010
0000
0001
1000
,
0100
1000
0001
0000
0010
0000
0010
0001
1000
0000
1000
0000
0010
0000
0010
0000
,
0100
0000
0100
0010
0100
0000
0100
0001
0100
0000
0100
0010
1000
0001
0010
0100
,
200M
0000
0000
3000
00M0
0000
0000
0000
0M00
0000
0000
0000
M000
0000
0000
0000
00M0
0000
1100
0000
000M
0110
0000
0000
M011
0000
0000
0000
00M0
0000
0000
0000
0M00
0000
0000
0000
000M
0000
0000
1001
00M0
0000
0101
0000
M000
0000
0000
0000
,
011M
0000
0000
0000
0M00
0000
0000
0000
000M
1010
0000
0000
M000
0000
0000
0000
00M0
0000
0101
0000
M000
0000
0000
0000
00M0
0000
0000
1001
0M00
0000
0000
0000
000M
0000
0000
0000
11M0
0000
0000
0000
0M00
0000
0011
0000
M000
0000
0000
0000
,
10M1
0000
0000
0000
000M
0000
0000
0000
M000
0000
0000
0000
00M0
0000
0000
0000
0M00
0000
0101
0000
000M
1010
0000
0000
M110
0000
0000
0000
00M0
0000
0000
0000
0M00
0000
0000
0000
000M
0000
0000
0011
0M00
0000
1001
0000
00M0
0000
0000
0000
,
110M
0000
0000
0000
0000
0000
0000
0000
0000
0000
0000
0000
0000
0000
0000
0000
M000
0000
0000
0000
0000
0000
0000
0000
0000
0000
0000
0000
0000
0000
0000
0000
000M
0000
0000
0000
0110
0000
0000
0000
0000
0000
0000
0000
0000
0000
0000
0000
00M0
0000
0000
0000
0000
0000
0000
0000
0000
0000
0000
0000
0000
0000
0000
0000
0M00
0000
0000
0000
0000
0000
0000
0000
0011
0000
0000
0000
0000
0000
0000
0000
M000
0000
0000
0000
0000
0000
0000
0000
0000
0000
0000
0000
0000
0000
0000
0000
00M2
0000
0000
0000
0000
0000
0003
0000
0000
0000
0000
0000
2001
0000
0000
0000
0M00
0000
3000
0000
0000
0000
0000
0000
2000
0000
0000
0000
0000
0000
3000
0000
000M
0000
0000
0000
0020
0000
0000
0000
0000
0000
0030
0000
0000
0000
0000
0000
M120
0000
0000
0000
0000
0000
0030
0000
0000
0000
0000
0000
0200
0000
0000
0000
00M0
0000
0300
0000
0000
0000
0000
0000
0201
0000
0000
0000
0000
0000
0300
0000
M000
0000
0000
0000
0002
0000
0000
0000
0000
0000
0003
0000
0000
0000
0000
0000
,
2M10
0000
0000
0000
0000
0000
3000
0000
0000
0000
0000
0000
0000
0000
0000
0000
0000
0000
0000
0000
0000
0000
0000
0000
0000
0000
0000
0000
0000
0000
0000
0000
00M0
0000
0000
0000
0000
0000
0000
0000
0000
0000
0000
0000
0000
0000
0000
0000
0000
0000
0000
0000
0000
0000
0000
0000
0000
0000
0000
0000
0000
0000
0000
0000
M000
0000
0000
0000
0000
0000
0000
0000
0001
0000
0000
0000
0000
0000
0000
0000
0000
0000
0000
0000
0001
0000
0000
0000
0000
0000
0010
0000
0000
0000
0000
0000
0M01
0000
0000
0000
0000
0000
0000
0000
0000
0000
0000
0000
0000
0000
0000
0000
0000
0000
0000
0000
0000
0000
0000
0000
0000
0000
0000
0000
0000
0000
0000
0000
000M
0000
0000
0000
0000
0000
0000
0000
0000
0000
0000
0000
0000
0000
0000
0000
0000
0000
0000
0000
0000
0000
0000
0000
0000
0000
0000
0000
0100
0000
0000
0000
M000
0000
0000
0000
0000
0000
0000
0000
0001
0000
0000
0000
0000
0000
0000
0000
0000
0000
0000
0000
0000
0000
0000
0000
0000
0000
0000
0000
0000
0000
0000
0000
,
0M11
0000
0000
0000
0000
0000
0000
0000
000M
0110
0000
0000
0000
0000
0000
0000
00M0
0000
1100
0000
0000
0000
0000
0000
0M00
0000
0000
1001
0000
0000
0000
0000
M000
0000
0000
0000
0101
0000
0000
0000
00M0
0000
0001
0000
0000
0000
0000
0000
,
1M00
0000
0000
0000
0000
0000
0000
0000
0000
0000
0000
0000
0000
0000
0000
0000
0000
0000
0000
0000
0000
0000
0000
0000
0000
0000
0000
0000
0000
0000
0000
0000
000M
0000
0000
0000
0000
0000
0000
0000
0000
0000
0000
0000
0000
0000
0000
0000
0000
0000
0000
0000
0000
0000
0000
0000
0000
0000
0000
0000
0000
0000
0000
0000
0M00
0000
0000
0000
0000
0000
0000
0000
0010
0000
0000
0000
0000
0000
0000
0000
0000
0000
0000
0000
0010
0000
0000
0000
0000
0000
0100
0000
0000
0000
0000
0000
M010
0000
0000
0000
0000
0000
0000
0000
0000
0000
0000
0000
0000
0000
0000
0000
0000
0000
0000
0000
0000
0000
0000
0000
0000
0000
0000
0000
0000
0000
0000
0000
00M0
0000
0000
0000
0000
0000
0000
0000
0000
0000
0000
0000
0000
0000
0000
0000
0000
0000
0000
0000
0000
0000
0000
0000
0000
0000
0000
0000
1000
0000
0000
0000
000M
0000
0000
0000
0000
0000
0000
0000
0100
0000
0000
0000
0000
0000
0000
0000
0000
0000
0000
0000
0000
0000
0000
0000
0000
0000
0000
0000
0000
0000
0000
0000
,
0M10
0000
0000
0000
0000
0000
0000
0000
0000
0000
0000
0000
0001
0000
0000
0000
0000
0000
0000
0000
0000
0000
0000
0000
0001
0000
0000
0000
0000
0000
0000
0000
00M0
0000
0000
0000
0100
0000
0000
0000
0000
0000
0000
0000
0000
0000
0000
0000
0010
0000
0000
0000
0000
0000
0000
0000
0000
0000
0000
0000
0010
0000
0000
0000
M000
0000
0000
0000
0000
0000
0000
0000
1000
0000
0000
0000
0000
0000
0000
0000
0000
0000
0000
0000
1000
0000
0000
0000
0000
0000
0000
0000
0000
0000
0000
0000
010M
0000
0000
0000
0000
0000
0000
0000
0000
0000
0000
0000
0010
0000
0000
0000
0000
0000
0000
0000
0000
0000
0000
0000
0001
0000
0000
0000
0000
0000
0000
0000
00M0
0000
0000
0000
0001
0000
0000
0000
0000
0000
0000
0000
0000
0000
0000
0000
1000
0000
0000
0000
0000
0000
0100
0000
0000
0000
0000
0000
1000
0000
0000
0000
000M
0000
0100
0000
0000
0000
0000
0000
1000
0000
0000
0000
0000
0000
0100
0000
0000
0000
0000
0000
1000
0000
0000
0000
0000
0000
0100
0000
0000
0000
0000
0000
,
10M0
0000
0001
0000
0010
0000
0100
0000
1000
0000
0010
0000
0100
0000
0001
1000
,
0100
0000
0010
0000
0100
0000
1000
0000
0001
0000
0100
0000
0010
0000
1000
0001
,
1000
0001
1000
0000
0010
0000
0010
0100
0010
0000
0100
0000
0100
0000
0001
0000
,
0001
0000
0001
0100
0001
0000
0001
1000
0001
0100
0010
1000
0001
0010
0100
1000
,
0001
0000
0100
0000
0010
0000
1000
0000
0010
0000
0001
0000
0010
0000
1000
0001
,
0010
0000
0001
0000
1000
0000
0010
0000
0100
0000
0010
0000
1000
0000
0001
0100
,
0001
0100
0001
0000
1000
0000
1000
0100
1000
0000
0001
0000
0001
0000
0010
0000
,
0010
0000
0001
0010
0001
0000
1000
0100
1000
0010
0100
0001
1000
0001
0010
0100
,
1000
0000
0002
0003
0100
0000
0020
0030
1000
0000
0200
0300
0010
0000
0002
0013
,
0100
0000
2000
3000
0001
0000
0200
0300
0010
0000
0200
0300
0001
0000
2000
3100
,
1000
0100
2000
3000
0001
0000
0020
0130
0010
0000
0200
0300
0100
0000
2000
3000
,
1000
0000
0020
0130
0010
0000
2000
3001
0010
0100
2000
3100
0010
0001
0020
0130
,
1000
0000
0020
0030
0100
0000
0002
0003
1000
0000
0200
0300
0010
0000
0200
1300
,
0001
0000
2000
3000
0010
0000
0200
0300
0001
0000
0200
0300
0010
0000
2000
3001
,
1000
0001
2000
3000
0100
0000
0020
0031
0010
0000
0200
0300
0100
0000
2000
3000
,
1000
0000
0002
0103
0001
0000
2000
3010
1000
0100
0020
0031
0100
0010
2000
3001
,
M020
0M00
000M
0000
0000
0000
0000
0000
0030
0000
0000
0000
0000
0000
0000
0000
;
