#TITLE:Questing;
#SUBTITLE:(Zelda - A Link to the Past);
#ARTIST:近藤浩治;
#TITLETRANSLIT:;
#SUBTITLETRANSLIT:;
#ARTISTTRANSLIT:Koji Kondo;
#CREDIT:Arch0wl;
#BANNER:questing-bn.png;
#BACKGROUND:questing-bg.png;
#LYRICSPATH:;
#CDTITLE:!Arch0wlTitle.png;
#MUSIC:questing.ogg;
#OFFSET:-0.113;
#SAMPLESTART:7.170;
#SAMPLELENGTH:12.000;
#SELECTABLE:YES;
#BPMS:0.000=136.000;
#STOPS:;
#BGCHANGES:0.000=questing-bg.png=1.000=0=0=1,
99999=-nosongbg-=1.000=0=0=0 // don't automatically add -songbackground-
;
// cache tags:
#FIRSTBEAT:0.000;
#LASTBEAT:175.750;
#SONGFILENAME:Songs/Archmage and Dark0wl Hammer of Thor UltraHyperMegaPack/Questing/questing.sm;
#HASMUSIC:1;
#HASBANNER:1;
#MUSICLENGTH:105.000;
// end cache tags

//---------------dance-single - Arch0wl----------------
#NOTES:
     dance-single:
     Arch0wl:
     Hard:
     9:
     0.393,0.481,0.371,0.019,0.362,248.000,39.000,2.000,0.000,2.000:
1000
0000
0000
0000
0000
0000
0000
0000
0001
0001
0001
0001
,
0010
0000
0100
0010
0000
0000
0000
0000
0001
0001
0001
0001
,
0010
0000
0100
0010
0000
0000
0000
0000
0001
0001
0001
0001
,
0011
0000
0100
1000
0100
0000
0100
1000
0100
0000
0100
1000
1100
0000
1010
0000
,
1001
0000
0000
0000
0100
0000
0000
0000
0000
0000
0010
0000
1000
0100
0010
0001
,
1000
0000
0000
0000
0000
0000
0000
0000
0000
0000
0000
0000
0000
0000
0000
0001
0000
0000
0001
0000
0100
0000
0010
0000
,
1000
0000
0000
0000
0000
0000
0000
0000
1000
1000
0100
0010
,
0001
0000
0100
0001
0000
0000
0000
0000
0000
1000
0000
0000
,
1010
0000
1000
0001
0100
0000
0000
0000
0000
0000
0000
0000
0100
0000
0001
0000
,
0011
0000
0001
1000
0100
0000
0000
0000
0000
0000
0000
0000
1000
0000
0010
0000
,
0110
0000
0010
1000
0001
0000
0000
0000
0000
0000
0000
0000
1000
0000
0000
0000
,
0010
0000
0100
0001
0100
0000
0100
0001
0100
0000
0100
0001
0100
0000
0010
0000
,
1100
0000
0000
0000
0000
0000
0000
0000
0000
0000
0000
0000
1000
0000
0000
0000
0000
0000
0000
0000
0000
0000
0000
0000
0000
0000
0000
0000
0000
0000
0000
0000
0001
0000
0000
0000
0001
0000
0000
0100
0000
0000
0010
0000
0000
1000
0000
0000
,
0100
0000
0000
0000
0000
0000
0000
0000
0000
0000
0000
0000
0000
0000
0000
0010
0000
0000
0010
0000
0001
0000
1000
0000
,
0010
0000
0000
1010
,
0110
0101
0000
0001
,
0001
0010
0100
1000
0100
0010
0001
0000
0000
0011
0000
0000
,
1001
1100
0000
1000
,
1000
0100
0010
0001
0010
0100
1000
0000
0000
1010
0000
0000
,
0110
0101
0000
0001
,
2000
0000
0000
3011
,
1001
1100
0000
0010
,
0100
0000
0100
0010
0001
0000
0000
0000
0000
0000
0000
0000
1000
0000
0000
0000
,
0100
0000
0010
0001
0010
0000
0010
0001
0010
0000
0010
0001
0011
0000
0101
0000
,
0110
0000
0000
0000
0010
0000
0000
0000
0000
0000
0100
0000
0001
0010
0100
1000
,
0001
0000
0000
0000
0000
0000
0000
0000
0000
0000
0000
0000
0000
0000
0000
1000
0000
0000
1000
0000
0010
0000
0100
0000
,
0001
0000
0000
0000
0000
0000
0000
0000
0001
0001
0010
0100
,
1000
0000
0010
1000
0000
0000
0000
0000
0000
0001
0000
0000
,
0101
0000
0001
1000
0010
0000
0000
0000
0000
0000
0000
0000
0010
0000
1000
0000
,
1100
0000
1000
0001
0010
0000
0000
0000
0000
0000
0000
0000
0001
0000
0100
0000
,
0110
0000
0100
0001
1000
0000
0000
0000
0000
0000
0000
0000
0001
0000
0000
0000
,
0100
0000
0010
1000
0010
0000
0010
1000
0010
0000
0010
1000
0010
0000
0100
0000
,
0011
0000
0000
0000
0000
0000
0000
0000
0000
0000
0000
0000
0001
0000
0000
0000
0000
0000
0000
0000
0000
0000
0000
0000
0000
0000
0000
0000
0000
0000
0000
0000
1000
0000
0000
0000
1000
0000
0000
0010
0000
0000
0100
0000
0000
0001
0000
0000
,
0010
0000
0000
0000
0000
0000
0000
0000
0000
0000
0000
0000
0000
0000
0000
0100
0000
0000
0100
0000
1000
0000
0001
0000
,
0100
0000
0000
0101
,
0110
1010
0000
1000
,
1000
0100
0010
0001
0010
0100
1000
0000
0000
1100
0000
0000
,
1001
0011
0000
0001
,
0001
0010
0100
1000
0100
0010
0001
0000
0000
0101
0000
0000
,
0110
1010
0000
1000
,
0002
0000
0000
1103
,
1001
0011
0000
0100
,
0010
0000
0010
0100
1000
0000
0000
0000
0000
0000
0000
0000
0001
0000
0000
0000
,
0010
0000
0100
1000
0100
0000
0100
1000
0100
0000
0100
1000
0100
0000
1000
0000
;

//---------------dance-single - Arch0wl----------------
#NOTES:
     dance-single:
     Arch0wl:
     Challenge:
     14:
     0.995,1.000,1.000,0.752,0.881,447.000,205.000,79.000,0.000,2.000:
1200
0000
0000
0000
0000
0000
0000
0000
0000
0000
0000
0000
0000
0000
0000
0000
0000
0000
0000
0000
0000
0000
0000
0000
0310
0000
0000
0000
0000
0000
0001
0000
0000
0000
0000
0000
0010
0000
0000
0000
0000
0000
0001
0000
0000
0000
0000
0000
0010
0000
0000
0000
0000
0000
0001
0000
0000
0000
0000
0000
0010
0000
0000
0000
0000
0000
0001
0000
0000
0000
0000
0000
0010
0000
0000
0000
0000
0000
0001
0000
0000
0000
0000
0000
0010
0000
0000
0000
0000
0000
0001
0000
0000
0000
0000
0000
0010
0000
0000
0000
0000
0000
0000
0000
0000
0000
0000
0000
0000
0000
0000
0000
0000
0000
0000
0000
0000
0000
0000
0000
0000
0000
0000
0000
0000
0000
0000
0000
0001
0000
0000
0000
0000
0000
0000
0000
0000
0000
0000
0000
0000
0000
0000
0000
0101
0000
0000
0000
0000
0000
0000
0000
0000
0000
0000
0000
0000
0000
0000
0000
0101
0000
0000
0000
0000
0000
0000
0000
0000
0000
0000
0000
0000
0000
0000
0000
0101
0000
0000
0000
0000
0000
0000
0000
0000
0000
0000
0000
0000
0000
0000
0000
,
0210
0000
0000
0000
0000
0000
0000
0000
0000
0000
0000
0000
0000
0000
0000
0000
0000
0000
0000
0000
0000
0000
0000
0000
0310
0000
0000
0000
0000
0000
1000
0000
0000
0000
0000
0000
0010
0000
0000
0000
0000
0000
1000
0000
0000
0000
0000
0000
0010
0000
0000
0000
0000
0000
1000
0000
0000
0000
0000
0000
0010
0000
0000
0000
0000
0000
1000
0000
0000
0000
0000
0000
0010
0000
0000
0000
0000
0000
1000
0000
0000
0000
0000
0000
0010
0000
0000
0000
0000
0000
1000
0000
0000
0000
0000
0000
0010
0000
0000
0000
0000
0000
0000
0000
0000
0000
0000
0000
0000
0000
0000
0000
0000
0000
0000
0000
0000
0000
0000
0000
0000
0000
0000
0000
0000
0000
0000
0000
1000
0000
0000
0000
0000
0000
0000
0000
0000
0000
0000
0000
0000
0000
0000
0000
1100
0000
0000
0000
0000
0000
0000
0000
0000
0000
0000
0000
0000
0000
0000
0000
1100
0000
0000
0000
0000
0000
0000
0000
0000
0000
0000
0000
0000
0000
0000
0000
1100
0000
0000
0000
0000
0000
0000
0000
0000
0000
0000
0000
0000
0000
0000
0000
,
0210
0000
0000
0000
0000
0000
0000
0000
0000
0000
0000
0000
0000
0000
0000
0000
0000
0000
0000
0000
0000
0000
0000
0000
1300
0000
0000
0000
0000
0000
0100
0000
0000
0000
0000
0000
1000
0000
0000
0000
0000
0000
0100
0000
0000
0000
0000
0000
1000
0000
0000
0000
0000
0000
0100
0000
0000
0000
0000
0000
1000
0000
0000
0000
0000
0000
0100
0000
0000
0000
0000
0000
1000
0000
0000
0000
0000
0000
0100
0000
0000
0000
0000
0000
1000
0000
0000
0000
0000
0000
0100
0000
0000
0000
0000
0000
1000
0000
0000
0000
0000
0000
0000
0000
0000
0000
0000
0000
0000
0000
0000
0000
0000
0000
0000
0000
0000
0000
0000
0000
0000
0000
0000
0000
0000
0000
0000
0000
0001
0000
0000
0000
0000
0000
0000
0000
0000
0000
0000
0000
0000
0000
0000
0000
0101
0000
0000
0000
0000
0000
0000
0000
0000
0000
0000
0000
0000
0000
0000
0000
0101
0000
0000
0000
0000
0000
0000
0000
0000
0000
0000
0000
0000
0000
0000
0000
0101
0000
0000
0000
0000
0000
0000
0000
0000
0000
0000
0000
0000
0000
0000
0000
,
1001
0000
0100
1000
1100
0000
0100
1000
1100
0000
0100
1000
1100
0000
1010
0000
,
2002
0000
0000
0000
0000
0000
3003
0000
0000
0000
0000
0000
0012
0000
0000
0000
0010
0000
0000
0000
0010
0000
0000
0000
0013
0000
0000
0000
0000
0000
0010
0000
0000
0000
0000
0000
1100
0000
0000
0110
0000
0000
1100
0000
0000
0110
0000
0000
,
0012
0000
0000
0000
0000
0000
0010
0000
0010
0000
0010
0000
0013
0000
0000
0001
0000
0000
0101
0000
0110
0000
1010
0000
,
2100
0000
0000
0000
0000
0000
0100
0000
0100
0000
0100
0000
3100
0000
0000
0100
1000
0000
1100
0000
0110
0000
0011
0000
,
1002
0000
0000
0003
0100
0000
0201
0000
0001
0000
0001
0000
0001
0000
0000
0301
0000
0000
2001
0000
0000
3001
0000
0000
,
1010
0000
0000
0000
0000
0000
1000
0000
0000
0001
0000
0000
0201
0000
0000
0000
0001
0000
0000
0000
0001
0000
0000
0000
0001
0000
0000
0000
0000
0000
0301
0000
0000
0000
0000
0000
0201
0000
0000
0300
0000
0000
0021
0000
0000
0030
0000
0000
,
1001
0000
0000
0000
0000
0000
0001
0000
0000
1000
0000
0000
1200
0000
0000
0000
1000
0000
0000
0000
1000
0000
0000
0000
1000
0000
0000
0000
0000
0000
1300
0000
0000
0000
0000
0000
2100
0000
0000
3000
0000
0000
1020
0000
0000
0030
0000
0000
,
0210
0000
0000
0300
0000
0000
0010
0000
0000
1000
0000
0000
2001
0000
0000
0000
0001
0000
0000
0000
0001
0000
0000
0000
0001
0000
0000
0000
0000
0000
3001
0000
0000
0000
0000
0000
2001
0000
0000
0000
0000
0000
3001
0000
0000
0000
0000
0000
,
0011
0000
0101
1001
0101
0000
0101
1001
0101
0000
0101
1001
0101
0010
1010
1000
,
2200
0000
0000
0000
0000
0000
3300
0000
0000
0000
0000
0000
1002
0000
0000
0000
1000
0000
0000
0000
1000
0000
0000
0000
1003
0000
0000
0000
0000
0000
0001
0000
0100
0000
0000
0000
0101
0000
0000
0110
0000
0000
0101
0000
0000
0110
0000
0000
,
1020
0000
0000
0000
0000
0000
1000
0000
1000
0000
1000
0000
1030
0000
0000
0110
0000
0000
0011
0000
0101
0000
1001
0000
,
1020
0000
0000
0000
0000
0000
1000
0000
1000
0000
1000
0000
1030
0000
0000
1000
0000
0000
2010
0000
0010
3000
0010
0000
,
0210
0000
0000
0300
0000
0000
0102
0000
0100
0000
0100
0000
0100
0000
0000
0103
0000
0000
0102
0000
0000
0103
0000
0000
,
0101
0000
0110
0000
1010
0000
1100
0000
0110
0000
0011
0000
1001
0000
0000
0000
0000
0000
0012
0000
0000
0003
0000
0000
,
2001
0000
0000
3000
0000
0000
2100
0000
0100
0000
0100
0000
0100
0000
0000
3100
0000
0000
2100
0000
0100
3000
0100
0000
,
1100
0000
0100
0000
0010
0000
0011
0000
0011
0000
0101
0000
1001
0000
0000
0000
0000
0000
1020
0000
0000
0030
0000
0000
,
0210
0000
0000
0300
0000
0000
0102
0000
0100
0000
0100
0000
0100
0000
0000
0103
0000
0000
0101
0000
0001
0000
0001
0000
,
2001
0000
0000
0000
0000
0000
0100
0000
0100
0000
0100
0000
0100
0000
0000
0100
0000
0000
3120
0000
0000
0130
0000
0000
,
2001
0000
0000
3000
0000
0000
1200
0000
1000
0000
1000
0000
1000
0000
0000
1300
0000
0000
1010
0000
0000
1000
0000
0000
,
1100
0000
0000
0000
0000
0000
0100
0000
0000
0010
0000
0000
0021
0000
0000
0000
0001
0000
0000
0000
0001
0000
0000
0000
0001
0000
0000
0000
0000
0000
0031
0000
0000
0000
0000
0000
2001
0000
0000
0000
0000
0000
3001
0000
0000
0000
0000
0000
,
0101
0000
0110
0101
0110
0000
0110
0101
0110
0000
0110
0101
0110
1000
1100
0100
,
0110
0000
0000
0000
0000
0000
0000
0000
0000
0000
0000
0000
2100
0000
0000
0000
0100
0000
0000
0000
0100
0000
0000
0000
3100
0000
0000
0000
0000
0000
0100
0000
0000
0000
0000
0000
0011
0000
0000
0110
0000
0000
0011
0000
0000
0110
0000
0000
,
2100
0000
0000
0000
0000
0000
0100
0000
0100
0000
0100
0000
3100
0000
0000
1000
0000
0000
1010
0000
0110
0000
0101
0000
,
0012
0000
0000
0000
0000
0000
0010
0000
0010
0000
0010
0000
0013
0000
0000
0010
0001
0000
0011
0000
0110
0000
1100
0000
,
2001
0000
0000
3000
0010
0000
1020
0000
1000
0000
1000
0000
1000
0000
0000
1030
0000
0000
1002
0000
0000
1003
0000
0000
,
0101
0000
0000
0000
0000
0000
0001
0000
0000
1000
0000
0000
1020
0000
0000
0000
1000
0000
0000
0000
1000
0000
0000
0000
1000
0000
0000
0000
0000
0000
1030
0000
0000
0000
0000
0000
1020
0000
0000
0030
0000
0000
1200
0000
0000
0300
0000
0000
,
1001
0000
0000
0000
0000
0000
1000
0000
0000
0001
0000
0000
0021
0000
0000
0000
0001
0000
0000
0000
0001
0000
0000
0000
0001
0000
0000
0000
0000
0000
0031
0000
0000
0000
0000
0000
0012
0000
0000
0003
0000
0000
0201
0000
0000
0300
0000
0000
,
0120
0000
0000
0030
0000
0000
0100
0000
0000
0001
0000
0000
1002
0000
0000
0000
1000
0000
0000
0000
1000
0000
0000
0000
1000
0000
0000
0000
0000
0000
1003
0000
0000
0000
0000
0000
1002
0000
0000
0000
0000
0000
1003
0000
0000
0000
0000
0000
,
1100
0000
1010
1001
1010
0000
1010
1001
1010
0000
1010
1001
1010
0100
0101
0001
,
0022
0000
0000
0000
0000
0000
0033
0000
0000
0000
0000
0000
2001
0000
0000
0000
0001
0000
0000
0000
0001
0000
0000
0000
3001
0000
0000
0000
0000
0000
1000
0000
0010
0000
0000
0000
1010
0000
0000
0110
0000
0000
1010
0000
0000
0110
0000
0000
,
0201
0000
0000
0000
0000
0000
0001
0000
0001
0000
0001
0000
0301
0000
0000
0110
0000
0000
1100
0000
1010
0000
1001
0000
,
0201
0000
0000
0000
0000
0000
0001
0000
0001
0000
0001
0000
0301
0000
0000
0001
0000
0000
0102
0000
0100
0003
0100
0000
,
0120
0000
0000
0030
0000
0000
2010
0000
0010
0000
0010
0000
0010
0000
0000
3010
0000
0000
2010
0000
0000
3010
0000
0000
,
1010
0000
0110
0000
0101
0000
0011
0000
0110
0000
1100
0000
1001
0000
0000
0000
0000
0000
2100
0000
0000
3000
0000
0000
,
1002
0000
0000
0003
0000
0000
0012
0000
0010
0000
0010
0000
0010
0000
0000
0013
0000
0000
0012
0000
0010
0003
0010
0000
,
0011
0000
0010
0000
0100
0000
1100
0000
1100
0000
1010
0000
1001
0000
0000
0000
0000
0000
0201
0000
0000
0300
0000
0000
,
0120
0000
0000
0030
0000
0000
2010
0000
0010
0000
0010
0000
0010
0000
0000
3010
0000
0000
1010
0000
1000
0000
1000
0000
,
1002
0000
0000
0000
0000
0000
0010
0000
0010
0000
0010
0000
0010
0000
0000
0010
0000
0000
0213
0000
0000
0310
0000
0000
,
1002
0000
0000
0003
0000
0000
0021
0000
0001
0000
0001
0000
0001
0000
0000
0031
0000
0000
0101
0000
0000
0001
0000
0000
,
0011
0000
0000
0000
0000
0000
0010
0000
0000
0100
0000
0000
1200
0000
0000
0000
1000
0000
0000
0000
1000
0000
0000
0000
1000
0000
0000
0000
0000
0000
1300
0000
0000
0000
0000
0000
1002
0000
0000
0000
0000
0000
1003
0000
0000
0000
0000
0000
,
1010
0000
0110
1010
0110
0000
0110
1010
0110
0000
0110
1010
0110
0001
0011
0010
;
