#TITLE:Death Reveals;
#SUBTITLE:;
#ARTIST:The Berzerker;
#TITLETRANSLIT:;
#SUBTITLETRANSLIT:;
#ARTISTTRANSLIT:;
#CREDIT:;
#BANNER:../fthescorept1bn.png;
#BACKGROUND:../fthescorept1bg.png;
#LYRICSPATH:;
#CDTITLE:;
#MUSIC:Death Reveals.ogg;
#OFFSET:-0.049;
#SAMPLESTART:2.500;
#SAMPLELENGTH:12.880;
#SELECTABLE:YES;
#BPMS:0.000=296.000;
#STOPS:;
#BGCHANGES:;
// cache tags:
#FIRSTBEAT:0.000;
#LASTBEAT:111.500;
#SONGFILENAME:Songs/Fuck The Score Part I/Death Reveals [Dossar]/Death Reveals.sm;
#HASMUSIC:1;
#HASBANNER:1;
#MUSICLENGTH:22.726;
// end cache tags

//---------------dance-single - ----------------
#NOTES:
     dance-single:
     :
     Challenge:
     18:
     1.000,1.000,0.000,0.308,1.000,282.000,0.000,7.000,0.000,0.000:
2000
0000
0000
0000
0000
0000
0000
0000
3002
0000
0000
0000
1003
0100
0010
0001
,
2000
0000
3200
0300
,
0000
2000
3020
0230
,
0301
1000
0001
0100
0010
1000
0001
0010
,
0100
0010
0001
1000
0010
0100
0001
1000
,
0100
0010
0100
1000
0001
0100
0010
1000
,
0001
0010
0100
0010
0001
1000
0010
0100
,
0001
1000
0100
0010
0100
1000
0001
0100
,
0010
1000
0001
0010
0100
0010
0001
1000
,
0010
0100
0001
1000
0100
0010
0100
1000
,
0001
0010
0100
1000
0001
0100
0010
1000
,
0001
0100
0001
1000
0010
1000
0001
0100
0010
1000
0001
0100
0001
1000
0010
0100
,
0001
1000
0010
1000
0001
0100
0010
1000
0001
0000
0000
0000
0000
0000
0000
0000
,
1000
0100
0010
0001
1000
0100
1000
0001
0010
0100
1000
0001
0010
0001
1000
0100
,
1000
0001
0100
0010
1000
0000
0000
0000
,
0001
1000
0010
1000
0001
0100
0001
1000
0010
0100
0001
1000
0010
1000
0001
0100
,
0010
1000
0001
0100
0001
1000
0010
0100
0001
0000
0000
0000
0000
0000
0000
0000
,
1000
0100
0010
0001
1000
0100
1000
0001
0010
0100
1000
0001
0010
0001
1000
0100
,
1000
0001
0100
0010
1000
0001
0100
0010
,
1000
0001
0100
0001
1000
0010
1000
0001
0100
0010
1000
0001
0100
0001
1000
0010
,
0100
0001
1000
0010
1000
0001
0100
0001
1000
0000
0000
0000
0000
0000
0000
0000
,
0000
0000
0001
1000
0100
0010
0001
1000
0100
1000
0001
0010
0100
1000
0001
0010
,
0001
1000
0100
0010
0001
1000
0100
1000
0001
0000
0000
0000
0000
0000
0000
0000
,
0000
0000
1000
0010
0100
0001
1000
0001
1000
0010
0100
0001
1000
0010
1000
0001
,
0100
0001
1000
0010
0100
0001
1000
0001
0100
0010
1000
0000
0000
0000
0000
0000
,
0000
0000
0001
0010
0100
1000
0001
0010
0001
1000
0100
0010
0001
1000
0100
1000
,
0001
0000
0000
0000
0000
0000
0000
1000
0010
1000
0001
0100
0001
1000
0010
0100
,
0001
1000
0010
1000
0001
0100
0010
1000
0001
0100
0001
1000
0010
0100
0001
0000
;
