#TITLE:Bass Rulls Tecno;
#SUBTITLE:;
#ARTIST:Techno music;
#TITLETRANSLIT:;
#SUBTITLETRANSLIT:;
#ARTISTTRANSLIT:;
#CREDIT:;
#BANNER:B.R.T-ban.png;
#BACKGROUND:Background-bg.png;
#LYRICSPATH:;
#CDTITLE:KOMBO.png;
#MUSIC:Bass rulls tecno.mp3;
#OFFSET:-2.180;
#SAMPLESTART:130.160;
#SAMPLELENGTH:12.000;
#SELECTABLE:YES;
#BPMS:0.000=170.100;
#STOPS:;
#BGCHANGES:;
// cache tags:
#FIRSTBEAT:4.000;
#LASTBEAT:690.500;
#SONGFILENAME:Songs/Definitive Keyboard Megapack/Bass rulls tecno [KOMBO]/Bass rulls tecno.sm;
#HASMUSIC:1;
#HASBANNER:1;
#MUSICLENGTH:248.715;
// end cache tags

//---------------dance-single - Kombo creation----------------
#NOTES:
     dance-single:
     Kombo creation:
     Hard:
     13:
     1.000,1.000,1.000,0.764,0.521,1308.000,639.000,190.000,0.000,95.000:

0000
0000
0000
0000
,
1001
0100
0110
0100
1001
0010
0110
1000
,
0011
0001
1100
0001
0110
1000
0011
0100
,
1001
0100
0110
0001
1010
0100
0101
0010
,
1010
0100
0101
0001
1010
0100
0101
0010
,
1000
0010
0110
0100
1001
0010
0110
0100
,
1001
1000
0011
1000
0110
0100
1001
0010
,
0110
0010
1001
0001
0110
1000
1001
0100
,
0110
0000
0000
0000
0000
0000
0000
0000
0001
0110
0000
0110
1000
0000
0011
0000
,
1100
0020
0131
0200
1310
0200
1310
0020
,
0131
0200
1310
0020
0131
0200
1310
0202
,
1313
0200
1301
0002
0113
0200
1301
0002
,
0113
0020
1031
0200
1310
2002
3113
2002
,
3103
0020
1031
0200
1310
0002
1103
0020
,
1130
0020
0131
0002
0113
2000
3210
0320
,
1130
2000
3011
0020
1031
0200
0311
1010
,
0101
0000
0000
0000
0000
0000
0000
0000
0000
0000
0000
0000
0000
0000
0000
0000
0000
0000
0000
0001
1000
0001
1000
0001
,
0110
0100
0110
0010
1001
0100
1001
0010
,
1001
0100
0110
0010
1001
0100
0110
0010
,
0110
0010
1001
0010
0101
0010
1001
0010
,
0101
0010
1001
0010
1001
0110
1001
0100
,
1001
0010
0101
0010
1001
0010
0101
0010
,
0011
0001
1100
0010
1010
0100
1010
0001
,
0110
0001
1010
0010
0101
0100
1010
0010
,
0101
0100
1010
0001
0110
1000
1010
0001
,
0100
0000
0011
0110
0000
0110
1100
0000
0001
0000
1100
0110
0000
0110
0011
0000
,
0100
0000
1001
1001
0000
0110
0110
0000
1000
0000
1100
1100
0000
0011
0011
0000
,
0100
0000
1100
1100
0000
0101
0101
0000
0010
0000
0110
0110
0000
1001
1001
0000
,
0100
0000
0011
0011
0000
1100
1100
0000
0010
0000
0101
0101
0000
1010
1010
0000
,
0001
0000
1100
1100
0000
0110
0110
0000
0001
0000
0101
0101
0000
1001
1001
0000
,
1000
0000
0110
0110
0000
1010
1010
0000
1000
0000
1001
1001
0000
0101
0101
0000
,
0100
0000
0011
0011
0000
1100
1100
0000
0001
0000
1100
1100
0000
0101
0101
0000
,
0001
0000
0110
0110
0000
1100
1100
0000
0010
0000
0110
0110
0000
1010
1010
0000
,
0010
0000
0001
0001
0000
0100
0100
0000
0010
0000
1000
1000
0000
0010
0010
0000
,
0001
0000
0100
0100
0000
0001
0001
0000
0100
0000
0010
0010
0000
1000
1000
0000
,
0100
0000
0010
0010
0000
1000
1000
0000
0010
0000
0100
0100
0000
0010
0010
0000
,
0100
0000
0001
0001
0000
0100
0100
0000
0001
0000
0010
0010
0000
0001
0001
0000
,
0010
0000
0100
0100
0000
1000
1000
0000
0010
0000
0001
0001
0000
1000
1000
0000
,
0100
0000
0010
0010
0000
0100
0100
0000
1000
0000
0100
0100
0000
0001
0001
0000
,
1000
0000
0010
0010
0000
1000
1000
0000
0010
0000
0100
0100
0000
0010
0010
0000
,
0010
0000
1000
1000
0000
0001
0001
0000
0110
0000
1100
0011
0000
0011
1100
0000
,
2002
0000
0000
0000
,
0000
0000
0000
0000
0000
0000
0000
0000
0000
0000
0000
0000
0000
0000
0000
0000
0000
0000
0000
0000
0000
0000
0000
0000
0000
0000
0000
0000
0000
0000
0000
0000
0000
3003
0000
0000
1000
0000
0001
0000
1000
0000
0001
0000
1000
0000
0000
0000
,
1111
0000
0110
0110
0000
1001
1001
0000
0011
0000
0110
0110
0000
1100
1100
0000
,
0011
0000
1100
1100
0000
0110
0110
0000
0011
0000
1010
1010
0000
0110
0110
0000
,
1010
0000
0011
0011
0000
1001
1001
0000
0110
0000
1100
1100
0000
0011
0011
0000
,
1001
0000
0000
0000
0000
0000
0011
0000
0000
0011
0000
0000
0000
0000
0000
0101
0000
0000
0101
0000
0000
0000
0000
0000
0110
0000
0000
0000
0000
0000
1100
0000
0000
1100
0000
0000
0000
0000
0000
0011
0000
0000
0001
0000
0010
0000
0100
0000
,
1000
0000
1010
1010
0000
1001
1001
0000
0110
0000
1001
1001
0000
0101
0101
0000
,
1010
0000
0101
0101
0000
0110
0110
0000
1010
0000
0011
0011
0000
0110
0110
0000
,
1001
0000
1100
1100
0000
0110
0110
0000
0011
0000
1100
1100
0000
0110
0110
0000
,
0011
0000
0110
0110
0000
1001
1001
0000
1100
0000
0101
0101
0000
1010
1010
0000
,
1111
0000
1010
0101
0000
0011
1100
0000
0110
0000
1100
1001
0000
0110
0011
0000
,
0011
0000
0101
1100
0000
1001
0110
0000
0011
0000
1010
0110
0000
1100
0011
0000
,
0110
0000
1010
0110
0000
0101
1001
0000
0101
0000
1010
0101
0000
0011
1100
0000
,
0110
0000
0000
0000
0000
0000
1100
0000
0000
1001
0000
0000
0000
0000
0000
0110
0000
0000
0011
0000
0000
0000
0000
0000
1100
0000
0000
0000
0000
0000
0110
0000
0000
1100
0000
0000
0000
0000
0000
0011
0000
0000
0001
0000
0010
0000
0100
0000
,
1100
0000
0011
1100
0000
0101
1010
0000
1001
0000
1010
0110
0000
1001
0101
0000
,
1010
0000
0110
0101
0000
1010
1001
0000
0101
0000
1010
0101
0000
0011
1100
0000
,
0110
0000
1100
1001
0000
0110
0011
0000
1100
0000
0110
0011
0000
1001
0110
0000
,
0110
0000
0011
1010
0000
1100
1010
0000
0110
0110
0000
0110
0110
0000
0011
0000
,
0200
0320
0032
2003
3200
0320
0032
0003
,
1001
1001
1001
1001
,
0002
0023
0230
2300
3200
2300
3200
0320
,
2030
3200
2300
3020
0032
2003
3200
2300
,
3020
0032
0203
0302
2003
3002
2003
3002
,
0003
0110
0110
0110
,
0200
0302
2003
3020
0230
2300
3002
0023
,
0230
2300
3020
0230
0302
0023
2030
3200
,
0320
0230
2300
3020
2030
3200
0320
2030
,
3200
0320
2030
3020
2030
3020
0032
2003
,
3200
2300
3200
2300
3020
2030
3020
0230
,
2300
3200
0302
0023
2030
3200
0302
0023
,
2030
3200
0320
0032
2003
3200
0320
0032
,
2003
3200
0320
2030
3002
0023
0230
2300
,
3200
0320
2030
3200
0320
2030
3002
2003
,
3200
0000
0000
0320
0000
0000
0230
0000
0000
0320
0000
0000
2030
0000
0000
3200
0000
0000
0320
0000
0000
1030
0001
1000
,
0001
0000
0001
0001
0000
0001
0001
0000
0010
0000
1000
1000
0000
1000
1000
0000
,
0100
0000
0010
0010
0000
0010
0010
0000
0001
0000
1000
1000
0000
1000
1000
0000
,
0010
0000
0100
0100
0000
0100
0100
0000
0001
0000
1000
1000
0000
1000
1000
0000
,
0100
0000
0010
0010
0000
0010
0010
0000
1000
0000
0100
0100
0000
0100
0100
0000
,
0001
0000
0010
0010
0000
0010
0010
0000
1000
0000
0100
0100
0000
0100
0100
0000
,
0001
0000
1000
1000
0000
1000
1000
0000
0100
0000
0010
0010
0000
0010
0010
0000
,
1000
0000
0100
0100
0000
0100
0100
0000
0010
0000
0001
0001
0000
0001
0001
0000
,
0100
0000
0010
0010
0000
0010
0010
0000
1000
0000
0010
0010
0000
0010
0010
0000
,
0200
1000
0001
1000
,
0001
0000
0001
0000
,
0301
0000
0001
0000
,
0001
0000
0001
0010
,
1000
0000
0001
0000
,
0010
0000
1000
0000
,
0100
0000
0010
0000
,
0001
0000
1010
0101
,
0200
0000
1000
0000
,
1302
0000
1000
0000
,
0123
0000
1000
0000
,
0231
0000
0001
0010
,
1320
0000
0100
0000
,
1032
0000
0010
0000
,
0213
0000
0001
0000
,
2310
0000
0001
0100
,
3220
0000
0001
0000
,
1000
0000
0001
0000
,
1000
0000
0001
0000
,
1330
0000
0011
0110
,
2100
0000
0010
0000
,
3102
0000
1000
0000
,
2013
0000
0010
0000
,
3021
0000
1000
0100
,
0031
0110
1000
0110
0001
0110
1000
0110
,
0001
0110
1000
0110
0001
0110
1000
0110
,
0010
1001
0100
1001
0010
1001
0100
1001
,
0010
1001
0100
1001
0010
1001
0100
1100
,
0001
1100
0010
1100
0001
1100
0010
1100
,
0001
1100
0010
1100
0001
1100
0010
1100
,
0001
1010
0100
1010
0001
1010
0100
1010
,
0001
1010
0100
1010
0001
1010
0100
1010
,
1000
0101
0010
0101
1000
0101
0010
0101
,
1000
0101
0010
0101
1000
0101
0010
0101
,
0001
1010
0100
1010
0001
1010
0100
1010
,
0001
1010
0100
1010
0001
1010
0100
1010
,
0100
0011
1000
0011
0100
0011
1000
0011
,
0100
0011
1000
0011
0100
0011
1000
0011
,
0010
0101
1000
0101
0010
0101
1000
0101
,
0010
0101
1000
0101
0010
0101
1000
0101
,
1010
0101
1100
0110
,
1100
0110
1100
0101
,
0101
0011
1100
0110
,
0011
1100
1001
0101
,
1110
1010
0101
1010
,
0101
0110
0101
1100
,
0110
0101
1100
0110
,
1001
0011
0101
1100
,
0111
1001
0011
1010
,
0110
0000
1001
0000
1010
0000
0110
0101
,
1010
1001
1010
0101
,
0110
1001
1010
1100
,
1001
0010
0100
1000
0100
0010
0001
0010
0100
1000
0100
0010
0001
0010
0100
1000
,
0110
0001
1000
0010
0100
0010
0001
0010
0100
0010
1000
0100
0010
0001
0010
1000
,
0110
0001
0010
1000
0100
0010
1000
0100
0001
0010
0100
1000
0100
0010
1001
0100
,
0010
0100
1001
0010
1000
0010
0101
1000
0011
1000
0101
0010
0101
1010
1010
0101
,
0102
1010
2103
0101
3021
1001
0132
0110
,
1203
1001
0312
1010
2013
0101
3021
1001
,
1032
0110
0213
1001
2310
0101
3201
1010
,
1320
0000
0000
1001
0000
0000
0231
0000
0000
1001
0000
0000
2301
0000
0000
0101
0000
0000
3110
0000
0001
1000
0001
1000
,
0120
2130
3021
1032
,
0123
0231
2310
3201
,
0312
2013
3120
1032
,
1023
0000
0000
0000
0000
0000
2130
0000
0000
0000
0000
0000
3120
0000
0000
0000
0000
0000
1031
0000
0100
0010
0100
0010
,
1001
0001
0010
1000
0010
1000
0010
1000
,
0010
0001
1000
0010
0001
1000
0100
0010
,
0100
1000
0100
0010
0001
0010
0001
1000
,
0100
0000
0000
0010
0000
0000
0001
0000
0000
0100
0000
0000
0010
0000
0000
1000
0000
0000
0100
0000
0001
0010
0100
1000
,
0110
1000
0100
0010
0001
1000
0100
0010
,
1000
0100
0010
0100
0010
1000
0100
0010
,
0001
0010
0001
0010
0001
0010
0001
1000
,
0100
0000
0000
0010
0000
0000
0100
0000
0000
0010
0000
0000
1000
0000
0000
0100
0000
0000
0010
0000
1000
0100
0010
0001
,
1001
0100
0100
0000
0110
0001
0001
0000
0011
0100
0100
0000
1010
0100
0100
0000
,
1001
0010
0010
0000
0011
1000
1000
0000
0110
0001
0001
0000
1010
0001
0001
0000
,
1010
0100
0100
0000
0101
0010
0010
0000
1010
0100
0100
0000
0011
0100
0100
0000
,
1100
0000
0000
0001
0000
0000
0001
0000
0000
0000
0000
0000
1001
0000
0000
0010
0000
0000
0010
0000
0000
0000
0000
0000
0110
0000
0000
1000
0000
0000
1000
0000
0000
0000
0000
0000
0110
0000
0000
0000
0001
0000
0010
0000
0100
0000
1000
0000
,
0110
1100
0110
0011
0110
1100
0110
1100
,
0110
0011
0011
0110
1100
1010
0101
1010
,
0101
0110
1001
0110
1001
0101
1100
0110
,
1001
0101
1010
0101
1010
0110
1001
0101
,
1011
0110
0101
1010
0101
1010
0101
1010
,
0101
0110
0101
1010
0110
0011
1100
0101
,
1100
0011
1010
0110
1001
0110
0011
1010
,
0110
0000
0000
1100
0000
0000
0011
0000
0000
0110
0000
0000
1100
0000
0000
0011
0000
0000
1001
0000
0010
0100
0010
0100
,
1001
0000
0110
0110
0000
0000
0011
0011
0011
0000
1100
1100
1100
0000
0110
0110
,
0110
0000
1010
1010
1010
0000
0011
0011
0011
0000
0100
0100
0100
0100
0100
0100
,
0100
0000
1001
1001
1001
0000
0011
1100
0011
0000
1100
0011
1100
0000
0101
1010
,
0101
0000
0000
0000
0000
0000
1010
0000
0000
0101
0000
0000
1010
0000
0000
0000
0000
0000
0110
0000
0000
1001
0000
0000
0110
0000
0000
0000
0000
0000
1001
0000
0000
0110
0000
0000
1001
0000
0000
0000
0001
0000
0010
0000
0100
0000
1000
0000
,
0122
0000
0000
0000
,
0000
0000
0000
0000
0000
0033
0000
0000
;
