#TITLE:Rain of a Thousand Flames;
#SUBTITLE:;
#ARTIST:Rhapsody;
#TITLETRANSLIT:;
#SUBTITLETRANSLIT:;
#ARTISTTRANSLIT:;
#CREDIT:DukAmok;
#BANNER:../bn.png;
#BACKGROUND:../bg.png;
#LYRICSPATH:;
#CDTITLE:;
#MUSIC:Rhapsody - Rain Of A Thousand Flames.ogg;
#OFFSET:-0.069;
#SAMPLESTART:48.860;
#SAMPLELENGTH:18.460;
#SELECTABLE:YES;
#DISPLAYBPM:215.000;
#BPMS:0.000=215.000;
#STOPS:;
#BGCHANGES:;
// cache tags:
#FIRSTBEAT:0.000;
#LASTBEAT:780.000;
#SONGFILENAME:Songs/Cirque du Zonda/Zaia - Rain of a Thousand Flames/Rain_Of_A_Thousand_Flames.sm;
#HASMUSIC:1;
#HASBANNER:1;
#MUSICLENGTH:221.490;
// end cache tags

//---------------dance-single - Zaia - 15.9----------------
#NOTES:
     dance-single:
     Zaia - 15.9:
     Challenge:
     15:
     1.000,1.000,0.280,0.402,1.000,1825.000,62.000,89.000,16.000,1.000:
1010
1010
0000
0000
,
0101
0101
0000
0000
,
0011
0011
0000
0000
,
2001
0000
0000
0000
,
0200
3000
0000
0000
,
0020
0300
0000
0000
,
0002
0000
0000
0000
0030
0000
0000
0000
0000
0000
0000
0000
1003
0100
1000
0001
,
1000
0010
0100
0001
1000
0100
0010
0100
1000
0001
0100
0010
1000
0100
0010
0001
,
2000
0000
0000
0000
3001
0000
0000
0000
0100
0010
1000
0001
0010
0100
1000
0010
,
0100
0001
0010
0001
1000
0100
1000
0001
1000
0000
0001
0000
0100
0000
0101
0000
,
0001
0000
1000
0000
1001
0000
0001
0000
1000
0010
0100
0001
1000
0100
1000
0010
,
1000
0001
0010
0100
1000
0001
0100
0010
2000
0000
0000
0000
3010
0000
0000
0000
,
1000
0001
0010
0100
0010
0001
1000
0010
0100
0001
0010
0001
1000
0010
1000
0001
,
0010
0001
0100
0101
0001
1000
1001
0001
,
1000
0100
1000
0000
0001
0000
0101
0000
0100
0000
0001
0000
0110
0000
1000
0000
,
0020
0000
0130
0002
0000
1003
0200
0000
,
0000
0000
0000
0000
0000
0000
0000
0000
1300
0001
0010
0100
1000
0001
0100
0001
,
0010
0100
1000
0001
0100
0010
0100
0001
0010
0100
1000
0010
0100
0001
1000
0010
,
0100
0001
1000
0100
1000
0010
0100
0001
1000
0100
0010
0100
1000
0000
0010
0000
,
1000
0100
1000
0010
1000
0001
0010
0001
,
0100
0000
0001
0000
0010
0000
0100
0000
1000
0000
0001
0000
0100
0010
1000
0010
,
0100
0001
1000
0100
0010
0001
0100
0010
0100
0001
0010
0100
1000
0001
0100
0001
,
1000
0100
1000
0001
1000
0001
0010
0100
1000
0001
0100
0010
2000
0000
0000
0000
,
3010
0210
0301
2002
,
3003
0000
0000
0000
1100
0000
0000
0000
0000
0000
0000
0000
1000
0100
1000
0010
,
0100
0001
0010
0001
1000
0001
0100
0010
1000
0100
0010
0001
1000
0010
1000
0001
,
0100
0001
1000
0100
0010
0100
1000
0010
1000
0001
0010
0001
1000
0000
0010
0000
,
1000
0100
1000
0010
0100
0001
0010
0100
,
1000
0000
0010
0000
0100
0000
0001
0000
0100
0000
0010
0000
1000
0001
0010
0001
,
1000
0100
1000
0001
0100
0010
1000
0001
0010
0100
0010
0001
1000
0010
0100
0001
,
0010
0100
1000
0001
0100
0001
1000
0010
0100
0001
1000
0100
0020
0000
0000
0000
,
0130
2100
3001
0202
,
0303
0001
0000
1000
,
0010
0000
0100
0001
0101
0000
0001
0010
,
0100
1000
0100
0010
0001
1000
0001
1000
,
0100
0000
1000
0000
0010
0000
1000
0000
0001
0000
0100
0000
0001
0100
0010
0000
,
0000
0000
1000
0100
0010
0000
0000
0000
0001
0000
1000
0000
0100
0000
0000
0000
,
1000
0000
0001
1000
1010
0000
0001
0100
,
0010
1000
0100
0010
0001
1000
0001
0100
,
0001
0000
0010
0000
0100
0000
1000
0000
0010
0000
0100
0000
0001
0100
0010
0000
,
0000
0000
1000
0100
0010
0000
0000
0000
0001
1000
0010
0100
0001
1000
0100
0010
,
0001
1000
0010
0100
0001
0100
0010
1000
0100
0010
0001
0100
0010
1000
0010
0100
,
0001
1000
0100
1000
0001
0100
0001
0010
0001
1000
0100
0010
0001
1000
0001
1000
,
0010
0100
0010
0100
0001
1000
0001
1000
0100
0010
0100
0010
0002
0000
0000
0000
,
0000
1003
0010
1020
,
0000
0130
0100
0201
,
0000
0301
0000
0012
,
0000
1003
0000
2100
,
0000
3100
0010
0021
,
0000
0000
0030
1200
,
0000
1300
0010
1010
,
0000
0000
0000
0000
1000
0010
0100
0001
1000
0010
0100
0001
1000
0100
0010
0100
,
1000
0001
0100
0001
0010
0100
1000
0001
0100
0010
1000
0010
0100
0001
1000
0100
,
1000
0001
1000
0010
0100
0001
1000
0100
1000
0001
0010
0001
1000
0010
1000
0001
,
0010
0100
1000
0001
0100
0001
1000
0100
1000
0001
0010
0100
1000
0010
0100
0001
,
1000
0010
1000
0001
0100
0001
1000
0100
0010
0100
1000
0001
0100
0001
1000
0100
,
1000
0001
0100
0010
1000
0100
1000
0001
0010
0100
1000
0100
0010
0001
1000
0010
,
0100
0001
0100
0010
1000
0001
0010
0001
1000
0010
1000
0100
1000
0001
0010
0100
,
1000
0001
0100
0001
0010
0001
1000
0010
1000
0001
0100
0010
1000
0100
1000
0001
,
1000
0000
0000
0001
0000
0000
0010
0000
0000
0100
0000
0000
1000
0000
0000
0001
0000
0000
0010
0000
0000
0001
0000
0000
0100
0000
0000
0010
0000
0000
1000
0000
0000
0001
0000
0000
0100
0000
0000
0000
0010
0000
0000
0000
1000
0000
0000
0000
,
0001
0100
0010
1000
0100
0010
0001
0010
0100
1000
0001
0100
,
0001
1000
0100
1000
0010
0100
0001
0100
0010
1000
0001
1000
,
0010
0100
0001
0010
0001
0100
0010
1000
0100
1000
0010
0100
,
0001
0010
0100
2000
0000
0000
3100
0000
0000
0010
0001
1000
,
0100
0010
0001
0100
0001
0010
0100
1000
0010
0100
0001
0100
,
0010
1000
0001
1000
0100
0010
0100
1000
0010
0100
0001
1000
,
0100
0010
0001
0100
0010
1000
0001
0010
0100
1000
0010
0100
,
0001
0000
0000
0000
1000
0000
0000
0000
0010
0000
0000
0000
0200
0000
0000
0000
0000
0000
0000
0000
0000
0000
0000
0000
0000
0000
0000
0000
0000
0000
0300
0000
0000
0000
0000
0000
0001
0000
0000
1000
0000
0000
0100
0000
0000
1000
0000
0000
,
0001
0010
0100
1000
0100
0010
0001
1000
0010
0100
0001
0010
0100
1000
0001
0100
,
0001
1000
0010
1000
0100
1000
0001
0010
0100
1000
0001
0100
0010
0000
1000
0000
,
0100
1000
0010
1000
0100
0010
0001
1000
,
0100
0000
1000
0000
0010
0000
0100
0000
0001
0000
1000
0000
0001
0010
0100
1000
,
0001
0100
0010
1000
0100
1000
0001
1000
0010
0100
0001
0010
0001
1000
0010
0100
,
0010
1000
0001
1000
0100
0010
0001
1000
0001
0010
0001
0100
0020
0000
0000
0000
,
0130
0102
1003
2200
,
3300
0000
0000
0000
0110
0000
0000
0000
0000
0000
0000
0000
0010
0001
1000
0100
,
0010
0001
0100
0010
1000
0010
0100
0001
1000
0001
1000
0100
0010
0100
1000
0001
,
0100
0001
1000
0010
1000
0100
0010
0001
1000
0001
0100
0001
1000
0000
0001
0000
,
0100
0001
0010
0001
0100
0001
1000
0100
,
1000
0000
0010
0000
1000
0000
0100
0000
1000
0000
0001
0000
1000
0010
0100
0001
,
1000
0010
0100
0001
1000
0100
0010
0001
0100
0010
1000
0001
0010
0001
0100
0010
,
1000
0001
1000
0100
0010
0100
1000
0010
0100
0001
1000
0010
0200
0000
0000
0000
,
0301
0012
0103
2020
,
3030
0110
0000
1000
,
1010
0000
0010
0100
0101
0000
0001
0010
,
0100
1000
0100
0010
0001
0000
1000
0010
,
1000
0000
0001
0000
0100
0000
0001
0000
1000
0000
0100
0000
0010
0100
1000
0000
,
0000
0000
0010
0100
0001
0000
0000
0000
0100
0000
0010
0000
1000
0000
0000
0000
,
1100
0000
0100
0010
0011
0000
1000
0100
,
1000
0010
0100
0001
1000
0010
1000
0100
,
1000
0000
0001
0000
1000
0000
0100
0000
0010
0000
0001
0000
1000
0010
0100
0000
,
0000
0000
0001
0010
0100
0000
0000
0000
1000
0001
0010
0100
1000
0010
0100
0001
,
1000
0001
0100
0010
0100
0001
1000
0100
0010
0001
0010
0100
1000
0010
0100
0001
,
0010
0001
1000
0100
1000
0001
0100
0010
1000
0001
0010
0100
1000
0001
1000
0001
,
0100
0010
0100
0010
1000
0001
1000
0001
0010
0100
0010
0100
2000
0000
0000
0000
,
0000
3001
0100
0102
,
0000
0013
0001
2100
,
0000
3001
0000
2010
,
0000
3010
0000
0210
,
0000
0301
0010
2100
,
0000
0000
3000
2001
,
0000
3010
0100
0210
,
0000
0000
0000
0000
0000
0000
0000
0000
0310
1000
0001
0100
0001
1000
0100
1000
,
0001
0010
0100
0010
0001
0100
0010
1000
0100
0010
0001
1000
0100
1000
0001
0100
,
0001
0010
0001
1000
0010
0100
0001
1000
0100
0010
0001
0010
0100
1000
0001
0100
,
0010
1000
0100
0010
0001
1000
0010
1000
0001
1000
0100
0010
0001
1000
0010
0100
,
0010
1000
0001
1000
0100
0010
0001
0100
0010
1000
0100
1000
0010
0100
0001
0010
,
0100
1000
0001
0100
0010
0100
0001
1000
0100
0010
0100
1000
0001
0100
0001
1000
,
0010
1000
0001
0010
0100
1000
0100
0010
0100
1000
0001
0100
0010
0100
0001
1000
,
0100
0010
0001
0010
0100
1000
0001
0100
0001
1000
0010
0100
0001
0010
0100
1000
,
0001
0010
0001
0100
0010
1000
0001
0100
0010
1000
0001
1000
0100
0000
0000
0000
,
1000
0000
0001
0100
0101
0000
0001
0100
,
0010
1000
0100
1000
1010
0000
1000
0001
,
0010
0001
1000
0010
1000
0100
0010
0001
,
0100
0010
1000
0010
0100
0001
0010
0001
,
0100
0000
0000
0000
0020
0000
0000
0000
0000
0000
0000
0000
0000
0000
0000
0000
2030
0000
0000
0000
0000
0000
0000
3000
0001
0000
0000
0000
1000
0000
0000
0000
,
0001
2000
0000
0000
3020
0000
0130
0001
,
0010
0100
1000
0001
0100
0010
1000
1000
,
0010
0010
0100
0100
0001
0001
0010
0100
,
1000
0000
0001
0000
0010
0000
0100
0000
1000
0000
0010
0000
0100
0001
1000
0010
,
0100
0001
1000
0100
0010
0100
1000
0001
0010
0100
1000
0001
0100
0010
0100
0001
,
0010
0100
1000
0001
0100
0001
1000
0100
1000
0010
0100
0001
1000
0100
0010
0100
,
1000
0001
0100
0001
1000
0001
0010
0100
1000
0001
1000
0010
0100
0010
1000
0100
,
1000
0001
0010
0100
1000
0001
0100
0010
1000
0010
0100
0001
1000
0100
1000
0001
,
0100
0001
0010
0001
1000
0010
0100
0001
1000
0001
0010
0100
0010
0001
1000
0010
,
1000
0001
0010
0100
1000
0010
0100
0010
1000
0001
1000
0100
0010
0100
1000
0001
,
0100
0010
1000
0001
1000
0100
1000
0001
0100
0001
1000
0100
0010
0001
1000
0001
,
1000
0000
0000
0010
0000
0000
0100
0000
0000
0010
0000
0000
1000
0000
0000
0000
0100
0000
0000
0000
0010
0000
0000
0000
0001
0000
0000
0000
0100
0000
0000
0000
0010
0000
0000
0000
2000
0000
0000
0000
0000
0000
0000
0000
0000
0000
0000
0000
,
0000
0000
0000
0000
0000
0000
0000
0000
0000
0000
0000
0000
3000
0000
0000
0000
0000
0000
0001
2000
0000
0000
0000
0000
,
0000
0000
0000
0000
0000
0000
0000
0000
0000
3001
0100
0010
,
1000
0010
0100
0001
0010
0100
1000
0100
0010
0001
0100
0010
,
1000
0100
0010
0001
0100
0010
1000
0100
0010
0002
0003
1000
,
0010
1000
0001
1000
0100
1000
0010
1000
0100
0010
0001
1000
,
0001
0100
0001
0010
0001
0100
0001
1000
0010
0200
0000
0000
,
0000
0000
0000
0302
0000
0000
0000
0000
0000
0000
0000
0000
2003
0000
0000
0000
3000
0000
0010
0000
1000
0000
0001
0000
,
0100
0001
1000
0100
0010
0001
0010
0100
0010
0001
0100
0010
,
1000
0000
0100
0000
0010
0000
0001
0000
1000
0000
0010
0000
0100
0000
0001
0000
1000
0000
0010
0000
0000
0100
0000
0000
,
0010
1000
0010
0100
0010
1000
0001
0010
,
0001
0000
0100
0000
0001
0000
1000
0000
0001
0000
0010
0000
0100
0010
0001
0000
,
1000
0020
0000
0130
1010
1000
0001
0010
,
0100
0020
0000
0031
1000
0010
0210
0000
,
0000
0302
0000
0000
0023
0000
1230
0000
,
0000
1300
0000
0000
0100
0010
0001
1000
,
0010
0200
0000
0310
M00M
0010
0001
1000
,
0010
0100
M00M
0100
2000
0000
3010
0100
,
0001
0020
0000
0130
M00M
0100
0001
1000
,
0001
0010
M00M
0010
0200
0000
0301
1000
,
0100
0020
0000
0130
M00M
0100
0010
1000
,
0010
0100
M00M
0100
2000
0000
3001
1000
,
0010
0200
0000
0310
M00M
0010
0001
1000
,
0100
0000
0010
0000
M00M
0000
0010
0000
0100
0000
0000
0000
0001
0100
0010
1000
,
0001
1000
0100
0010
0100
1000
0001
0100
0001
1000
0001
0010
0100
1000
0001
1000
,
0010
0000
0000
0100
0000
0000
0001
0000
0000
1000
0000
0000
0100
0000
0000
1000
0000
0000
0001
0000
0000
0100
0000
0000
0001
0000
0000
1000
0000
0000
0001
0000
0000
0100
0000
0000
0010
0000
0000
0000
1000
0000
0000
0000
0010
0000
0000
0000
,
0200
0000
0000
0300
0000
0000
0001
0000
0000
0100
0000
0000
0020
0000
0000
0000
0000
0000
1030
0000
0000
0000
0000
0000
0002
0000
0000
0000
0000
0000
0000
0000
0000
0000
0003
0000
1000
0000
0000
0000
0001
0000
0000
0000
0010
0000
0000
0000
,
0002
0000
0000
0000
0000
0000
0013
0000
0000
0100
0000
0000
2000
0000
0000
0000
0000
0000
3100
0000
0000
0000
0000
0000
0020
0000
0000
0000
0000
0000
0000
0000
0000
0000
0030
0000
0001
0000
0000
0000
0010
0000
0000
0000
0100
0000
0000
0000
,
2000
0000
0000
0000
0000
0000
3010
0000
0000
0100
0000
0000
0002
0000
0000
0000
0000
0000
1003
0000
0000
0000
0000
0000
0200
0000
0000
0000
0000
0000
0000
0000
0000
0000
0000
0000
0310
0000
0000
0000
0001
0000
0000
0000
0100
0000
0000
0000
,
0020
0000
1030
0001
0200
0000
0310
0000
1000
0001
1000
0001
0100
0001
1000
0100
,
0010
0001
1000
0010
0100
0010
1000
0100
0010
0001
0010
0100
1000
0001
0100
0001
,
0010
0001
1000
0100
0010
0001
0100
0010
1000
0001
0100
0001
1000
0010
1000
0001
,
0010
0001
1000
0010
1000
0100
0010
0001
1000
0100
1000
0001
0100
0001
0010
0100
,
1000
0001
1000
0010
1000
0001
0010
0001
1000
0100
0010
0001
1000
0000
0000
0000
,
0001
1000
0000
0001
0100
0001
0010
0001
,
0100
0000
0010
1000
0000
0001
0020
0000
,
0000
0000
0000
0000
0000
0000
0000
0030
,
2001
0000
3001
0100
,
0201
0000
0310
0010
,
1020
0000
1030
0000
,
2100
0000
3001
0000
,
0012
0000
0013
0100
,
1200
0000
0000
0300
,
0021
0000
0031
0100
,
0101
0000
0000
0000
0000
0000
0000
0000
0001
0100
0010
1000
0001
0100
0010
1000
,
0001
0010
0100
0010
0001
1000
0010
1000
0100
0010
0001
1000
0010
0100
0001
0100
,
0010
1000
0001
0010
0001
1000
0001
0100
0010
1000
0001
0010
0001
1000
0100
1000
,
0001
0100
0001
1000
0100
0010
0001
1000
0010
1000
0001
0010
0001
1000
0100
0010
,
0001
0100
0010
1000
0001
0100
0001
1000
0010
1000
0001
0010
0100
0010
0001
1000
,
0010
1000
0001
0010
0001
1000
0010
0100
0001
0010
0001
1000
0100
0010
0001
0010
,
0100
1000
0001
0100
0010
1000
0010
0100
0001
1000
0100
1000
0001
0100
0001
0010
,
0001
1000
0100
0010
0001
1000
0010
1000
0100
1000
0001
0100
0001
1000
0010
0100
,
0001
0010
0001
1000
0001
1000
0100
0010
0001
1000
0010
0100
0001
0010
0100
1000
,
0001
0010
0001
1000
0100
0010
0001
0100
0010
1000
0010
0100
,
0001
1000
0100
1000
0001
0100
0001
0010
0100
1000
0100
0010
,
0001
1000
0001
0010
0100
1000
0010
1000
0100
0010
0001
0100
,
0001
0010
0100
1000
0010
0100
0002
0000
0000
0103
0000
0000
,
0010
1000
0001
0100
0010
1000
0100
1000
0010
0100
0001
0010
,
0100
1000
0100
0010
0001
1000
0001
0100
0010
0100
0001
0010
,
0100
1000
0001
0100
0010
1000
0100
0010
0001
1000
0010
0100
,
0001
0010
0100
1000
0001
0010
0001
1000
0001
1000
0001
1000
,
0010
1010
0000
0000
,
1001
1001
0000
0000
,
0101
0101
0000
0000
,
2000
0000
0000
0000
,
0200
3000
0000
0000
,
0020
0300
0000
0000
,
0002
0000
0000
0000
0000
0000
0030
0000
0000
0000
0000
0000
0000
0000
0000
0000
0000
0003
1000
0000
0001
0000
1000
0000
,
0010
0000
0000
0000
;

//---------------dance-single - Zaia 14.7----------------
#NOTES:
     dance-single:
     Zaia 14.7:
     Hard:
     15:
     1.000,1.000,0.280,0.402,1.000,1712.000,62.000,89.000,16.000,1.000:
1010
1010
0000
0000
,
0101
0101
0000
0000
,
0011
0011
0000
0000
,
2001
0000
0000
0000
,
0200
3000
0000
0000
,
0020
0300
0000
0000
,
0002
0000
0000
0030
0000
0000
0000
0000
0000
1003
0100
1000
,
0001
1000
0010
0100
0001
1000
0001
0010
0100
1000
0010
0100
,
0002
0000
0000
1003
0000
0000
0100
0010
0100
1000
0001
1000
,
0010
0000
0100
0000
0001
0000
1000
0000
0100
0000
1000
0000
0001
0000
0000
1000
0000
0000
0010
0000
0000
1010
0000
0000
,
1000
0000
0000
0001
0000
0000
1001
0000
0000
1000
0000
0000
0001
0000
0100
0000
0010
0000
1000
0000
0001
0000
0010
0000
,
0001
0100
0010
1000
0100
0010
0002
0000
0000
0103
0000
0000
,
0001
0010
0100
1000
0001
0100
0010
1000
0001
0010
0001
1000
,
0100
1000
0010
1010
1000
0001
1001
1000
,
0001
0010
0001
0000
1000
0000
1010
0000
0010
0000
1000
0000
0110
0000
0001
0000
,
0200
0000
0310
2000
0000
3001
0020
0000
,
0000
0000
0000
0000
0000
0000
0000
0000
0031
1000
0100
0010
0100
1000
0001
0010
,
0100
1000
0100
0010
0001
1000
0100
0010
0100
1000
0001
1000
0001
0100
0010
1000
,
0001
0100
0010
0100
0001
1000
0010
0100
0001
1000
0010
1000
0001
0000
0100
0000
,
0001
0010
0001
0100
0001
1000
0100
1000
,
0010
0000
1000
0000
0100
0000
0010
0000
0001
0000
1000
0000
0001
0100
0010
0100
,
0001
1000
0010
0100
0001
0100
0010
1000
0001
0100
0010
0100
0001
1000
0001
1000
,
0100
0010
0001
1000
0100
0010
0100
1000
0001
0010
0100
1000
0002
0000
0000
0000
,
0103
0120
1030
2002
,
3003
0000
0000
0000
0011
0000
0000
0000
0000
0000
0000
0000
0001
0010
0001
0100
,
0010
1000
0001
1000
0010
0100
0001
1000
0010
0100
0001
1000
0001
1000
0100
0010
,
0100
1000
0001
0010
0100
1000
0001
1000
0100
0010
0100
1000
0001
0000
0100
0000
,
0001
0010
0001
0100
0010
1000
0100
0010
,
0001
0000
0100
0000
0010
0000
1000
0000
0010
0000
0100
0000
0001
1000
0001
0010
,
0100
1000
0001
1000
0100
0010
0001
1000
0100
0010
0001
1000
0001
1000
0010
0100
,
0010
1000
0001
0100
0010
1000
0001
1000
0010
0100
0001
1000
0200
0000
0000
0000
,
0310
0012
1003
2020
,
3030
1000
0000
0001
,
0100
0000
0010
1000
1010
0000
1000
0100
,
0010
0001
0010
0100
1000
0001
1000
0001
,
0010
0000
0001
0000
0100
0000
0001
0000
1000
0000
0010
0000
1000
0010
0100
0000
,
0000
0000
0001
0010
0100
0000
0000
0000
1000
0000
0001
0000
0010
0000
0000
0000
,
0001
0000
1000
0001
0101
0000
1000
0010
,
0100
0001
0010
0100
1000
0001
1000
0010
,
1000
0000
0100
0000
0010
0000
0001
0000
0100
0000
0010
0000
1000
0010
0100
0000
,
0000
0000
0000
0000
0000
0000
0001
0000
0000
0010
0000
0000
0100
0000
0000
0000
0000
0000
0000
0000
0000
0000
0000
0000
1000
0000
0000
0000
0001
0000
0000
0000
1000
0000
0000
0000
0001
0000
0000
0000
0010
0000
0000
0000
0100
0000
0000
0000
,
1000
0001
0100
0010
0100
0001
1000
0010
1000
0001
0010
0001
,
0100
0010
1000
0001
0010
0100
0010
0001
1000
0010
0100
0010
,
1000
0001
1000
0010
0100
0001
0010
0100
1000
0002
0000
0000
,
0000
1003
0010
1020
,
0000
0130
0100
0201
,
0000
0301
0000
0012
,
0000
1003
0000
2100
,
0000
3100
0010
0021
,
0000
0000
0030
1200
,
0000
1300
0010
1010
,
0000
0000
0000
0000
1000
0010
0100
0001
1000
0010
0100
0001
1000
0100
0010
0100
,
1000
0001
0010
0100
0010
0001
1000
0100
0010
0001
1000
0001
0100
0010
0100
0001
,
1000
0001
0100
0010
0100
0001
1000
0010
0100
0001
1000
0001
0010
0100
0010
0001
,
1000
0100
1000
0001
0010
0100
1000
0001
1000
0100
0010
0001
1000
0010
0100
0010
,
1000
0001
0100
0010
1000
0001
0100
0001
1000
0010
0100
0001
1000
0100
1000
0001
,
0010
0100
1000
0001
1000
0100
0010
0100
1000
0001
0010
0001
1000
0010
0100
0010
,
1000
0001
0100
0010
0100
0001
1000
0010
0100
0001
1000
0001
1000
0100
0010
0001
,
1000
0001
0010
0100
0010
0001
1000
0100
0010
0100
1000
0001
1000
0010
0100
0001
,
1000
0000
0000
0001
0000
0000
0100
0000
0000
0010
0000
0000
1000
0000
0000
0001
0000
0000
0100
0000
0000
0001
0000
0000
1000
0000
0000
0010
0000
0000
1000
0000
0000
0001
0000
0000
0100
0000
0000
0000
0010
0000
0000
0000
1000
0000
0000
0000
,
0001
0100
0010
1000
0100
0010
0001
0010
0100
1000
0001
0100
,
0001
1000
0100
1000
0010
0100
0001
0100
0010
1000
0001
1000
,
0010
0100
0001
0010
0001
0100
0010
1000
0100
1000
0010
0100
,
0001
0010
0100
2000
0000
0000
3100
0000
0000
0010
0001
1000
,
0100
0010
0001
0100
0001
0010
0100
1000
0010
0100
0001
0100
,
0010
1000
0001
1000
0100
0010
0100
1000
0010
0100
0001
1000
,
0100
0010
0001
0100
0010
1000
0001
0010
0100
1000
0010
0100
,
0001
0000
0000
0000
1000
0000
0000
0000
0010
0000
0000
0000
0200
0000
0000
0000
0000
0000
0000
0000
0000
0000
0000
0000
0000
0000
0000
0000
0000
0000
0300
0000
0000
0000
0000
0000
0001
0000
0000
1000
0000
0000
0100
0000
0000
0010
0000
0000
,
0100
1000
0001
0010
0100
1000
0100
0010
0001
1000
0100
0010
0100
1000
0001
1000
,
0001
0100
0010
1000
0001
0100
0010
0100
0001
1000
0010
0100
0001
0000
1000
0000
,
0100
1000
0010
1000
0100
0010
0001
1000
,
0100
0000
1000
0000
0010
0000
0100
0000
0001
0000
1000
0000
0001
1000
0010
0100
,
0010
1000
0001
0100
0010
1000
0010
0100
0001
1000
0010
0100
0010
1000
0001
1000
,
0001
0010
0100
1000
0001
0010
0100
0010
0001
1000
0001
0100
0020
0000
0000
0000
,
0130
0102
1003
2200
,
3300
0000
0000
0000
0110
0000
0000
0000
0000
0000
0000
0000
1000
0001
0010
0100
,
0010
0001
1000
0100
0010
0001
0010
0100
1000
0001
0010
0100
0010
0001
1000
0001
,
1000
0010
0100
0001
1000
0010
0100
0010
1000
0001
0100
0010
1000
0000
0001
0000
,
0100
0001
0010
0001
0100
0001
1000
0100
,
1000
0000
0010
0000
1000
0000
0100
0000
1000
0000
0001
0000
1000
0001
0100
0010
,
0100
0001
1000
0010
0100
0001
0100
0010
1000
0001
0100
0010
0100
0001
1000
0001
,
1000
0100
0010
0001
1000
0100
0010
0100
1000
0001
1000
0001
0200
0000
0000
0000
,
0301
0012
0103
2020
,
3030
0110
0000
1000
,
1010
0000
0010
0100
0101
0000
0001
0010
,
0100
1000
0100
0010
0001
0000
1000
0010
,
1000
0000
0001
0000
0100
0000
0001
0000
1000
0000
0100
0000
0010
0100
1000
0000
,
0000
0000
0010
0100
0001
0000
0000
0000
0100
0000
0010
0000
1000
0000
0000
0000
,
1100
0000
0100
0010
0011
0000
1000
0100
,
1000
0010
0100
0001
1000
0010
1000
0100
,
1000
0000
0001
0000
1000
0000
0100
0000
0010
0000
0001
0000
1000
0010
0100
0000
,
0000
0000
0000
0000
0000
0000
0001
0000
0000
0010
0000
0000
0100
0000
0000
0000
0000
0000
0000
0000
0000
0000
0000
0000
1000
0000
0000
0000
0001
0000
0000
0000
1000
0000
0000
0000
0001
0000
0000
0000
0100
0000
0000
0000
0010
0000
0000
0000
,
1000
0001
0010
0100
0010
0001
1000
0100
1000
0001
0100
0001
,
0010
0100
1000
0001
0100
0010
0100
0001
1000
0100
0010
0100
,
1000
0001
1000
0100
0010
0001
0100
0010
1000
0002
0000
0000
,
0000
1003
0010
2010
,
0000
3100
1000
0012
,
0000
1003
0000
0102
,
0000
0103
0000
0120
,
0000
1030
0100
0012
,
0000
0000
0003
1002
,
0000
0103
0010
0120
,
0000
0000
0000
0000
0000
0000
0000
0000
0130
0001
1000
0001
1000
0010
0100
0010
,
1000
0001
0100
0010
0100
0001
1000
0010
0100
0001
1000
0001
0010
0100
0010
0001
,
1000
0001
0010
0100
0010
0001
1000
0100
0010
0001
1000
0001
0100
0010
0100
0001
,
1000
0010
1000
0001
0100
0010
1000
0001
1000
0010
0100
0001
1000
0100
0010
0100
,
1000
0001
0010
0100
1000
0001
0010
0001
1000
0100
0010
0001
1000
0010
1000
0001
,
0100
0010
1000
0001
1000
0010
0100
0010
1000
0001
0100
0001
1000
0100
0010
0100
,
1000
0001
0010
0100
0010
0001
1000
0100
0010
0001
1000
0001
1000
0010
0100
0001
,
1000
0001
0100
0010
0100
0001
1000
0010
0100
0010
1000
0001
1000
0100
0010
0001
,
1000
0001
0010
0100
1000
0001
0010
0001
1000
0100
1000
0001
0010
0000
0000
0000
,
0001
0000
1000
0010
1010
0000
1000
0010
,
0100
0001
0010
0001
0101
0000
0001
1000
,
0100
1000
0001
0100
0001
0010
0100
1000
,
0010
0100
0001
0100
0010
1000
0100
1000
,
0010
0000
0000
0000
0200
0000
0000
0000
0000
0000
0000
0000
0000
0000
0000
0000
0302
0000
0000
0000
0000
0000
0000
0003
1000
0000
0000
0000
0001
0000
0000
0000
,
1000
0002
0000
0000
0203
0000
0310
1000
,
0100
0010
0001
1000
0010
0100
0001
0001
,
0100
0100
0010
0010
1000
1000
0100
0010
,
0001
1000
0100
0010
0001
0100
0010
1000
,
0001
0100
0001
0000
0010
0000
0100
0000
1000
0001
1000
0000
0010
0000
0100
0000
,
0001
0010
0001
0000
1000
0000
0100
0000
0010
0100
0010
0000
1000
0000
0001
0000
,
0100
0001
0100
0000
0010
0000
1000
0000
0100
0010
0100
0000
1000
0000
0010
0000
,
1000
0001
1000
0000
0100
0000
0010
0000
0001
0010
0001
0000
1000
0000
0010
0000
,
0100
0001
0100
0000
0001
0000
0010
0000
0100
1000
0100
0000
0010
0000
0001
0000
,
1000
0010
1000
0000
0001
0000
0100
0000
0001
0010
0001
0000
1000
0000
0010
0000
,
1000
0001
1000
0000
0100
0000
0010
0000
0001
0010
0001
0000
1000
0000
0010
0000
,
1000
0000
0000
0100
0000
0000
1000
0000
0000
0000
0000
0000
0001
0000
0000
0000
0010
0000
0000
0000
0100
0000
0000
0000
1000
0000
0000
0000
0010
0000
0000
0000
0100
0000
0000
0000
0002
0000
0000
0000
0000
0000
0000
0000
0000
0000
0000
0000
,
0000
0000
0000
0000
0000
0000
0000
0000
0000
0000
0000
0000
0003
0000
0000
0000
0000
0000
1000
0002
0000
0000
0000
0000
,
0000
0000
0000
0000
0000
0000
0000
0000
0000
1003
0010
0100
,
0001
0100
0010
1000
0100
0010
0001
0010
0100
1000
0010
0100
,
0001
0010
0100
1000
0010
0100
0001
0010
0100
2000
3000
0001
,
0100
0001
1000
0001
0010
0001
0100
0001
0010
0100
1000
0001
,
1000
0010
1000
0100
1000
0010
1000
0001
0100
0020
0000
0000
,
0000
0000
0000
2030
0000
0000
0000
0000
0000
0000
0000
0000
3002
0000
0000
0000
0003
0000
0100
0000
0001
0000
1000
0000
,
0010
1000
0001
0010
0100
1000
0100
0010
0100
1000
0010
0100
,
0001
0000
0010
0000
0100
0000
1000
0000
0001
0000
0100
0000
0010
0000
1000
0000
0001
0000
0100
0000
0000
0010
0000
0000
,
0100
0001
0100
0010
0100
0001
1000
0100
,
1000
0000
0010
0000
1000
0000
0001
0000
1000
0000
0100
0000
0010
0100
1000
0000
,
0001
0200
0000
0310
0101
0001
1000
0100
,
0010
0200
0000
1300
0001
0100
0120
0000
,
0000
2030
0000
0000
3200
0000
0321
0000
,
0000
0031
0000
0000
0010
0100
1000
0001
,
0100
0020
0000
0130
M00M
0100
1000
0001
,
0100
0010
M00M
0010
0002
0000
0103
0010
,
1000
0200
0000
0310
M00M
0010
1000
0001
,
1000
0100
M00M
0100
0020
0000
1030
0001
,
0010
0200
0000
0310
M00M
0010
0100
0001
,
0100
0010
M00M
0010
0002
0000
1003
0001
,
0100
0020
0000
0130
M00M
0100
1000
0001
,
0010
0000
0000
0100
0000
0000
M00M
0000
0000
0100
0000
0000
0010
0000
0000
0000
0000
0000
1000
0000
0010
0000
0100
0000
,
0001
1000
0100
0010
0100
1000
0001
0100
0010
0100
0001
0010
,
0100
1000
0010
1000
0001
0100
0001
0010
0100
1000
0001
0100
,
0020
0000
0000
0030
0000
0000
1000
0000
0000
0010
0000
0000
0200
0000
0000
0000
0000
0000
0301
0000
0000
0000
0000
0000
2000
0000
0000
0000
0000
0000
0000
0000
0000
0000
3000
0000
0001
0000
0000
0000
1000
0000
0000
0000
0100
0000
0000
0000
,
2000
0000
0000
0000
0000
0000
3100
0000
0000
0010
0000
0000
0002
0000
0000
0000
0000
0000
0013
0000
0000
0000
0000
0000
0200
0000
0000
0000
0000
0000
0000
0000
0000
0000
0300
0000
1000
0000
0000
0000
0100
0000
0000
0000
0010
0000
0000
0000
,
0002
0000
0000
0000
0000
0000
0103
0000
0000
0010
0000
0000
2000
0000
0000
0000
0000
0000
3001
0000
0000
0000
0000
0000
0020
0000
0000
0000
0000
0000
0000
0000
0000
0000
0000
0000
0130
0000
0000
0000
1000
0000
0000
0000
0010
0000
0000
0000
,
0200
0000
0000
0000
0000
0000
0301
0000
0000
1000
0000
0000
0020
0000
0000
0000
0000
0000
0130
0000
0000
0000
0000
0000
0001
0000
0000
0000
1000
0000
0000
0000
0100
0000
0000
0000
1000
0000
0000
0000
0001
0000
0000
0000
0100
0000
0000
0000
,
0010
0100
0001
1000
0100
0010
0100
1000
0010
0100
0001
0010
,
0001
0100
0001
1000
0100
1000
0010
1000
0001
0100
0010
1000
,
0001
0010
0100
0010
0001
1000
0010
0100
0001
1000
0100
1000
,
0001
0100
0010
0100
0001
1000
0001
0010
0100
1000
0000
0000
,
0001
1000
0000
0001
0100
0001
0010
0001
,
0100
0000
0010
1000
0000
0001
0020
0000
,
0000
0000
0000
0000
0000
0000
0000
0030
,
2001
0000
3001
0100
,
0201
0000
0310
0010
,
1020
0000
1030
0000
,
2100
0000
3001
0000
,
0012
0000
0013
0100
,
1200
0000
0000
0300
,
0021
0000
0031
0100
,
0101
0000
0000
0000
0000
0000
0000
0000
0001
0100
0010
1000
0001
0100
0010
1000
,
0001
0010
0100
0010
0001
1000
0100
0010
0100
1000
0001
0010
0100
1000
0001
1000
,
0010
0100
0010
1000
0001
1000
0010
0100
0010
1000
0001
0100
0010
1000
0001
1000
,
0100
0010
0100
1000
0001
0010
0001
1000
0100
0010
0001
1000
0001
0010
0100
1000
,
0001
0100
0010
0100
0001
1000
0010
0100
0001
1000
0010
1000
0001
0100
0010
1000
,
0001
0010
0001
1000
0100
0010
0001
1000
0001
0010
0100
0010
0001
1000
0100
1000
,
0001
0100
0010
0100
0001
1000
0010
0100
0010
1000
0001
0100
0010
1000
0001
1000
,
0001
0010
0100
1000
0001
1000
0100
0010
0100
1000
0001
0010
0100
0010
0001
1000
,
0001
0100
0010
1000
0001
1000
0010
0100
0001
1000
0010
1000
0001
0100
0001
1000
,
0001
0010
0001
1000
0100
0010
0001
0100
0010
1000
0010
0100
,
0001
1000
0100
1000
0001
0100
0001
0010
0100
1000
0100
0010
,
0001
1000
0001
0010
0100
1000
0010
1000
0100
0010
0001
0100
,
0001
0010
0100
1000
0010
0100
0002
0000
0000
0103
0000
0000
,
0010
1000
0001
0100
0010
1000
0100
1000
0010
0100
0001
0010
,
0100
1000
0100
0010
0001
1000
0001
0100
0010
0100
0001
0010
,
0100
1000
0001
0100
0010
1000
0100
0010
0001
1000
0010
0100
,
0001
0010
0100
1000
0001
0010
0001
1000
0001
1000
0001
1000
,
0010
1010
0000
0000
,
1001
1001
0000
0000
,
0101
0101
0000
0000
,
2000
0000
0000
0000
,
0200
3000
0000
0000
,
0020
0300
0000
0000
,
0002
0000
0000
0000
0000
0000
0030
0000
0000
0000
0000
0000
0000
0000
0000
0000
0000
0003
1000
0000
0001
0000
1000
0000
,
0010
0000
0000
0000
;
