#TITLE:Zero One;
#SUBTITLE:;
#ARTIST:nao.paradigm;
#TITLETRANSLIT:;
#SUBTITLETRANSLIT:;
#ARTISTTRANSLIT:;
#CREDIT:;
#BANNER:zeroone-bn.png;
#BACKGROUND:zeroone-bg.png;
#LYRICSPATH:;
#CDTITLE:!ExigeTitle.png;
#MUSIC:Zero One.mp3;
#OFFSET:-0.259;
#SAMPLESTART:59.002;
#SAMPLELENGTH:20.340;
#SELECTABLE:YES;
#BPMS:0.000=147.000,64.000=73.500,112.000=147.000;
#STOPS:;
#BGCHANGES:;
// cache tags:
#FIRSTBEAT:0.000;
#LASTBEAT:216.000;
#SONGFILENAME:Songs/Fabulously Fresh Flock of Fantastic Files F5/(exige) Zero One/zeroone.sm;
#HASMUSIC:1;
#HASBANNER:1;
#MUSICLENGTH:110.132;
// end cache tags

//---------------dance-single - ----------------
#NOTES:
     dance-single:
     :
     Hard:
     11:
     0.981,1.000,1.000,0.345,1.000,588.000,130.000,38.000,0.000,0.000:
1001
0011
1001
1100
,
0110
1001
0011
0110
,
0011
1001
0110
1100
,
0110
0000
0000
0000
0101
0000
0000
0000
0110
0000
0000
0000
1010
0000
0001
0001
,
1001
0011
1001
1100
,
1001
0110
0101
0011
,
1010
0000
0000
0000
1100
0000
0000
0000
1001
0000
0000
0000
0101
0000
0001
0100
,
0001
0000
0000
0100
0000
0000
0001
0000
0000
0100
0000
0000
0000
0000
0000
0001
0000
0000
0000
0000
0000
0001
0000
0000
0100
0000
0001
0000
0100
0000
0001
0000
0000
1000
0000
0000
0000
0000
0000
0001
0000
0000
0000
0000
0000
0001
0000
0000
,
1001
0000
0001
0000
0101
1000
0000
1000
0101
0000
0001
0000
0101
0000
0001
0000
,
1001
0000
1000
0000
0101
1000
0000
1000
0101
0000
1000
0000
0101
0000
0001
0000
,
1001
0000
1000
0000
0101
1000
0000
1000
0101
0000
1000
0000
0101
0000
0001
0000
,
1001
0000
1000
0000
0101
1000
0000
1000
0101
0000
0001
0000
1001
0000
0010
0010
,
0110
0000
0100
0000
1010
0001
0000
0001
1010
0000
0100
0000
0011
0000
1000
0000
,
0101
0000
0001
0000
1010
0001
0000
0001
1010
0000
0001
0000
0011
0000
0100
0000
,
1010
0000
0001
0000
1010
0001
0000
0001
1010
0000
0010
0000
0011
0000
0001
0010
,
0001
0000
0000
1000
0000
0000
0100
0000
0000
1000
0000
0000
0000
0000
0000
1000
0000
0000
0000
0000
0000
1000
0000
0000
0010
0000
0100
0000
0010
0000
1000
0000
0000
0001
0000
0000
0000
0000
0000
0001
0000
0000
0000
0000
0000
0100
0000
0000
,
1001
0000
0010
0000
0001
0000
0100
0000
0010
0000
0001
0000
0101
0000
0110
0000
0000
0000
1010
0000
0000
0000
0110
0000
0000
0000
0101
0000
0000
0000
0001
0010
,
0100
0010
1000
0010
1000
0100
0001
0100
0001
0010
0100
0001
0100
0001
1100
0110
,
0011
0100
0011
1001
0110
1010
0110
1100
0000
1001
0000
0101
0000
0011
0000
0000
,
0101
0000
0000
0000
0000
0000
1010
0000
0000
0000
0101
0000
0000
0000
0000
0000
0101
0000
0000
0000
0000
0000
0000
0000
1001
0000
0010
0000
0001
0000
0100
0010
,
2002
0000
3003
2002
0000
0000
0000
3003
0000
0000
0000
0000
2002
0000
0000
3003
,
0220
0000
0330
0220
0000
0000
0330
0000
0000
0000
0000
0000
0202
0000
0000
0303
,
2020
0000
3030
2020
0000
0000
3030
0000
0000
0000
0000
0000
2020
0000
0000
3030
,
0202
0000
0303
0202
0000
0000
0303
0000
0000
0000
0000
0000
2002
0000
0000
3003
,
0220
0000
0330
0220
0000
0000
0330
0000
0000
0000
0000
0000
0220
0000
0000
0330
,
2002
0000
3003
2002
0000
0000
3003
0000
0000
0000
0000
0000
2200
0000
0000
3300
,
1000
0100
1000
0010
1000
0100
1000
0001
1000
0100
1000
0010
1000
0100
1000
0001
1000
0100
1000
0010
1000
0100
1000
0001
1000
0100
1000
0010
1000
0100
1000
0100
,
0001
0010
0001
0100
0001
0010
0001
1000
0001
0010
0001
0100
0001
0010
0001
1000
0001
0010
0001
0100
0001
0010
0001
1000
0001
0010
0001
0100
0001
0010
0001
0010
,
1000
0100
1000
0001
0010
0001
0100
0010
0100
1000
0001
0010
0001
0100
0010
0001
,
0010
0100
0001
0010
0001
1000
0100
0010
0100
1000
0010
0100
0010
1000
0100
0010
,
0100
0001
0010
0001
1000
0100
1000
0001
0100
0001
1000
0010
1000
0100
0010
1000
,
0100
1000
0010
0100
1000
0100
1000
0001
0010
0001
0010
0100
1000
0010
0100
0001
,
0010
0001
1000
0100
0010
0100
0010
0100
1000
0001
0010
0001
1000
0100
0010
0100
,
0010
0001
1000
0100
1000
0001
0010
0100
1000
0010
0100
0001
0010
0001
1000
0100
,
1000
0010
0100
0010
1000
0100
0010
0100
0001
0010
0001
1000
0100
0010
1000
0001
,
0010
0001
1000
0001
0010
0001
0100
0001
0010
0001
0010
0100
1000
0010
0100
0001
,
0010
0001
1000
0100
0010
0001
1000
0100
0010
1000
0001
0010
0100
1000
0001
1000
,
0001
0010
0100
1000
0001
1000
0100
1000
0010
0100
0010
1000
0001
1000
0100
0010
,
0001
1000
0100
1000
0001
0010
0100
1000
0010
0100
0010
1000
0100
0010
0100
0010
,
1000
0001
0010
0100
1000
0010
1000
0100
0010
0001
0100
0001
0010
0100
1000
0001
,
0010
0001
1000
0010
0100
0010
1000
0001
0010
0001
0010
0100
1000
0100
1000
0100
,
0010
0100
0010
0001
0010
0001
1000
0100
0010
0001
0010
0001
0100
0001
0010
0100
,
0001
0010
0001
0010
0001
0010
0100
1000
0100
1000
0100
0010
0001
0010
0001
0010
,
0100
0000
0000
0000
0000
0000
0000
0000
0000
0000
0000
0000
1000
0000
0000
0000
0000
0000
0100
0000
0000
0000
0000
0000
0010
0000
0000
0000
0000
0000
0000
0000
0000
0000
0000
0000
0001
0000
0000
0000
0000
0000
0000
0000
0000
0000
0000
0000
0010
0000
0000
0000
0000
0000
0000
0000
0000
0000
0000
0000
0100
0000
0000
0000
0000
0000
0000
0000
0000
0000
0000
0000
1000
0000
0000
0000
0000
0000
0000
0000
0000
0000
0000
0000
0100
0000
0000
0000
0000
0000
0000
0000
0000
0000
0000
0000
0010
0000
0000
0000
0000
0000
0000
0000
0001
0000
0000
0000
0000
0000
0000
0000
0010
0000
0000
0000
0000
0000
0000
0000
0100
0000
0000
0000
0000
0000
0000
0000
1000
0000
0000
0000
0000
0000
0000
0000
0100
0000
0000
0000
0000
0000
0000
0000
0010
0000
0000
0000
0000
0000
0000
0000
0001
0000
0000
0000
0000
0000
0000
0000
0010
0000
0000
0000
0000
0000
0000
0000
0100
0000
0000
0000
0000
0000
0000
0000
0000
0000
0000
0000
0010
0000
0000
0000
0000
0000
0000
0000
0000
0000
0000
0000
,
1001
0000
0001
0000
0110
0001
0000
1000
0110
0000
0001
0000
1001
0000
1000
0000
,
1001
0000
0100
0000
0110
0001
0000
1000
0110
0000
0010
0000
1001
0000
0001
0000
,
0101
0000
0001
0000
0110
0001
0000
1000
0110
0000
1000
0000
1001
0000
0001
0000
,
0101
0000
1000
0000
0110
0001
0000
1000
0110
0000
0010
0000
1001
0000
0010
0010
,
0110
0000
0001
0000
1001
0010
0000
0100
1001
0000
0010
0000
0110
0000
1000
0000
,
0101
0000
0001
0000
1001
0010
0000
0100
1001
0000
0001
0000
0110
0000
0001
0000
,
1001
0000
0001
0000
1001
0010
0000
0100
1001
0000
1000
0000
0110
0000
0001
0000
,
0110
0000
1000
0000
1001
0010
0000
0100
1001
0000
0001
0000
0110
0000
0001
0000
,
2002
0000
0000
0000
,
0000
0000
0000
0000
,
3003
0000
0000
0000
;
