#TITLE:V;
#SUBTITLE:~Rasen Style~;
#ARTIST:dj TAKA;
#TITLETRANSLIT:;
#SUBTITLETRANSLIT:;
#ARTISTTRANSLIT:;
#CREDIT:;
#BANNER:vrasen-banner.png;
#BACKGROUND:vrasen-bg.png;
#LYRICSPATH:;
#CDTITLE:cynic.png;
#MUSIC:V (Rasen Style) - TAKA.mp3;
#OFFSET:1.537;
#SAMPLESTART:142.444;
#SAMPLELENGTH:11.193;
#SELECTABLE:YES;
#DISPLAYBPM:150.000;
#BPMS:0.000=150.000,409.000=9.375,409.250=149.995;
#STOPS:244.000=0.400
,251.000=0.400
,258.000=0.400
;
#BGCHANGES:;
// cache tags:
#FIRSTBEAT:4.000;
#LASTBEAT:409.250;
#SONGFILENAME:Songs/Community Keyboard Megapack - Volume 1/(Cynic) V ~Rasen Style~/vrasen.sm;
#HASMUSIC:1;
#HASBANNER:1;
#MUSICLENGTH:167.188;
// end cache tags

//---------------dance-single - ----------------
#NOTES:
     dance-single:
     :
     Challenge:
     12:
     1.000,1.000,1.000,0.305,1.000,1430.000,170.000,51.000,0.000,0.000:
0000
0000
0000
0000
,
1000
0000
0010
0000
1000
0000
0010
0000
0100
0000
0001
0000
0100
0000
0001
0000
0010
0000
0100
0000
0010
0000
0100
0000
0001
1000
0001
1000
0001
1000
0001
0000
,
0110
1000
0100
1000
0010
0100
0001
1000
0001
1000
0001
0010
0100
0010
0100
1000
,
0011
0100
0001
0100
0010
1000
0100
0001
0010
0001
0100
1000
0010
0100
0001
1000
,
0110
0001
0100
0001
0010
0001
1000
0001
0010
0001
0100
0001
0010
0001
0100
0010
,
1001
0100
1000
0100
1000
0010
1000
0010
1000
0001
0010
0100
1000
0010
0100
0001
,
1000
0100
1000
0000
0001
0000
1000
0000
0001
0100
0001
0000
1000
0000
0001
0000
0010
0100
0010
0000
0100
0000
1000
0000
0010
0000
0100
0000
0001
0000
1000
0000
,
0110
0001
0100
0010
1000
0100
0001
1000
0010
0001
0100
0010
1000
0100
0010
0100
,
1001
0010
0100
0001
0010
1000
0001
0100
0010
1000
0001
0100
1000
0010
0100
0001
,
1010
0100
0001
1000
0100
1000
0100
1000
0010
0100
0001
0010
0100
0001
0100
1000
,
0011
0100
1000
0010
1000
0010
0100
0001
0010
0001
1000
0100
0010
0001
1000
0010
,
0001
1000
0010
0001
1000
0001
0010
0100
0001
1000
0100
0010
1000
0001
0100
1000
,
0011
0100
1000
0100
1000
0010
0100
0001
1000
0010
0100
0001
0010
1000
0001
0100
,
0010
0001
1000
0100
0010
0001
1000
0100
1000
0010
0001
0100
0001
1000
0001
0010
,
1100
0001
0010
0100
1000
0001
1000
0010
0100
0001
1000
0100
1000
0010
0100
0010
,
1001
0100
0001
1000
0100
0010
0001
0010
0100
0001
1000
0010
0001
0100
0010
1000
,
0101
0010
1000
0010
1000
0010
1000
0010
0101
1000
0010
1000
0010
0100
0001
0010
,
1100
0001
0010
0001
1100
0010
0001
0010
1100
0001
0010
0100
1001
0100
0010
0100
,
1001
0000
0010
0000
0000
0000
0100
0000
0000
0000
0000
1000
0000
0000
0001
0000
0000
0000
0010
0000
0000
0000
0100
0000
0000
0000
0000
1000
0000
0000
0001
0000
,
0000
0100
0010
1000
0010
0100
0001
1000
0100
0010
0001
0010
0100
1000
0010
0100
,
0001
0100
0001
0000
1000
0000
0001
0000
1000
0100
1000
0000
0001
0000
1000
0000
0001
0010
0001
0000
1000
0000
0001
0000
1000
0010
1000
0000
0010
0000
0100
0000
,
1001
0010
0100
0001
0100
0010
0100
0001
0100
0010
1000
0100
0001
1000
0010
0001
,
0100
1000
0001
0010
0100
0001
0010
0100
1000
0100
0001
1000
0010
0001
0100
0010
,
1001
0000
0010
0000
0000
0000
0100
0000
0000
0000
0000
1000
0000
0000
0001
0000
0000
0000
0010
0000
0000
0000
0100
0000
0000
0000
0000
1000
0000
0000
0001
0000
,
0000
0100
0010
1000
0010
0100
0001
1000
0100
0010
0001
0010
0100
1000
0010
0100
,
0001
0100
0001
0000
1000
0000
0001
0000
1000
0100
1000
0000
0001
0000
1000
0000
0001
0010
0001
0000
1000
0000
0001
0000
1000
0010
1000
0000
0010
0000
0100
0000
,
1001
0010
0100
0001
0100
0010
0100
0001
0100
0010
1000
0100
0001
1000
0010
0001
,
0100
1000
0001
0010
0100
0001
0010
0100
1000
0100
0001
1000
0010
0001
0100
0010
,
1001
0000
0100
0000
0000
0000
0001
0000
0000
0000
0000
0010
0000
0000
0100
0000
0000
0000
1000
0000
0000
0000
0010
0000
0100
0000
0001
0000
0000
0000
1000
0000
,
0000
0100
1000
0010
0100
0001
1000
0100
0010
0001
0010
0100
1000
0010
0100
0001
,
1010
0100
0001
0100
0010
1000
0100
1000
0011
0100
1000
0010
1000
0001
1000
0010
,
1001
0100
1001
0010
1001
0100
1001
0010
1001
0100
1001
0010
2002
0000
0000
3003
,
0120
0130
2001
3001
0011
1100
1010
0101
,
1001
0100
0001
1000
0100
1000
0010
0100
0001
0010
1000
0100
1000
0010
0001
0100
,
0010
1000
0100
1000
0001
0100
0010
1000
0100
0010
0001
0100
1000
0001
0010
0100
,
0002
0000
0103
0010
1000
1000
0010
0100
0001
0001
0010
0100
1000
1000
0001
0001
,
1000
0010
0100
0001
1000
0010
0100
0001
0100
0001
0010
0100
1000
0010
0100
0001
,
1000
0100
0001
1000
0010
0001
1000
0001
1000
0100
0001
1000
0010
0001
1000
0010
,
0200
0000
0300
0100
0010
0100
0001
1000
0010
0001
1000
0100
0010
0001
1000
0100
,
1000
0100
0010
0001
1000
0100
0010
0001
0100
0001
1000
0010
0100
0001
1000
0010
,
0100
0001
1000
0100
1000
0001
0010
0001
1000
0010
1000
0001
0100
0001
1000
0100
,
0020
0000
0030
0010
0100
0010
1000
0001
0100
1000
0001
0010
0100
1000
0001
0010
,
0001
0010
0100
1000
0001
0010
0100
1000
0010
1000
0001
0100
0010
1000
0001
0100
,
0010
1000
0001
0010
0001
1000
0100
1000
0001
0100
0001
1000
0010
1000
0001
0000
,
0110
0000
0101
0000
0011
0000
0110
0000
1100
0000
1010
0000
0101
0000
1001
0010
,
1001
0000
1000
0001
1000
0001
1000
0001
1000
0000
1001
0000
0110
0000
1001
0000
,
0120
1030
0102
0013
0210
1300
2100
3100
,
0110
0000
0010
0100
0010
0100
0010
0100
0010
0000
0110
0001
1000
0110
1001
0000
,
1020
0130
0210
0301
0021
0130
2100
3010
,
1001
0000
1000
0001
1000
0001
1000
0001
1000
0000
0110
0000
1001
0000
0110
0000
,
1002
0103
0120
1030
1200
0310
0012
0103
,
0110
0000
0100
0010
0100
0010
0100
0010
0100
0000
0110
0001
1000
0000
1001
0100
,
0011
0000
0100
1000
0010
1000
0100
1000
0011
0000
1100
0000
1010
0000
0101
0010
,
0102
1003
0102
0013
0210
1300
2100
3100
,
0110
0000
0010
0100
0010
0100
0010
0100
0010
0000
0110
0001
1000
0110
1001
0000
,
1020
0130
0210
0301
0021
0130
2100
3010
,
1001
0000
1000
0001
1000
0001
1000
0001
1000
0000
0110
0000
1001
0000
0110
0000
,
1002
0103
0120
1030
1200
0310
0012
0103
,
0110
0000
0100
0010
0100
0010
0100
0010
0100
0000
1001
0100
0010
1001
0100
0000
,
0001
0100
0001
0100
0001
0100
0001
0100
0010
1000
0010
1000
0010
1000
0010
1000
,
2010
3010
1020
1030
2010
3010
1020
1030
,
2002
0000
3003
0000
1000
0010
0100
0001
1000
0010
0100
0001
0201
0000
0301
0000
,
0102
0103
0201
0301
0102
0103
2002
3003
,
0001
0010
0100
1000
0001
0010
0100
1000
1002
0000
1003
0000
2001
0000
3001
0000
,
1002
0000
1003
0000
2001
0000
3001
0000
0220
0000
0330
0000
0010
1000
0100
0010
,
0001
0010
0100
1000
0011
0000
1100
0000
0011
0000
1100
0000
1010
0000
0101
0000
,
1010
0000
0101
0000
0001
0100
0010
0100
0001
0100
0010
0100
0001
1000
0100
0010
,
0100
1000
0001
1000
0100
0010
0100
1000
0001
0100
0001
0100
0010
1000
0010
1000
,
0001
0010
0100
1000
0001
0001
0100
0001
0001
1000
0010
0100
0100
0001
1000
0010
,
0010
0100
0001
1000
0001
0010
0100
1000
0001
0010
0100
1000
0001
0010
0001
0010
,
0100
1000
0100
1000
0001
0100
0010
1000
0001
0100
0010
1000
0001
0100
0001
0100
,
0010
1000
0010
1000
0001
0010
0100
0010
0001
0010
0100
1000
0010
0100
0010
1000
,
0010
0100
0001
0100
0010
1000
0001
0100
0010
1000
0001
0100
0001
0010
0100
1000
,
0001
0010
0100
1000
0001
0100
0010
1000
0001
0100
0010
1000
0001
0100
0001
0100
,
0010
1000
0010
1000
0001
0100
0001
0010
0001
1000
0010
0100
0001
1000
0100
0010
,
0001
1000
0100
0010
0001
0010
0100
1000
0001
0010
0100
1000
0010
1000
0001
0100
,
0010
1000
0001
0100
0001
1000
0001
0010
0001
1000
0001
0000
1000
0100
1000
0001
,
1000
0010
1000
0001
1000
0100
0010
0100
1000
0100
0010
0100
1000
0001
0100
0001
,
1000
0001
0100
0001
0010
0100
0010
0001
0010
0100
0010
0001
1000
0010
0100
0010
,
1000
0010
0100
0010
1000
0001
0100
0001
0010
0001
0100
0001
1000
0001
0100
0001
,
0010
0000
0001
0000
0100
0000
0001
0000
1000
0100
1000
0000
0001
0100
0001
0000
1000
0100
1000
0000
0001
0100
0001
0000
1000
0010
1000
0000
0001
0010
0001
0000
,
1000
0010
1000
0000
0001
0010
0001
0000
1001
0000
0000
0000
0100
0000
0010
0000
1001
0000
0100
0000
0010
0000
0100
0000
1001
0000
0010
0000
0100
0000
0010
0000
,
1001
0100
0010
0000
1010
0000
0101
0000
0011
0000
1100
0000
1010
0000
0101
0000
,
0011
0000
1100
0000
1001
0000
0001
1000
0010
0100
0001
1000
0100
0010
0001
1000
,
0010
0100
0001
0000
1010
0000
0101
0000
0011
0000
1100
0000
1010
0000
0101
0000
,
0011
0000
1100
0000
1001
0000
1000
0001
0100
0010
1000
0001
0010
0100
1000
0001
,
0100
0010
1000
0000
0101
0000
1010
0000
1100
0000
0011
0000
0101
0000
1010
0000
,
1100
0000
0011
0000
1001
0000
0001
1000
0010
0100
0001
0010
0100
1000
0001
0100
,
0010
1000
0001
0000
1001
0100
0010
0100
1000
0100
0010
0100
1000
0100
0001
0100
,
1000
0100
0010
0000
1001
0100
0001
0100
0010
0100
0001
0100
1000
0100
0001
0100
,
0010
0100
0001
0100
0010
1000
0001
0100
0010
1000
0001
0100
0010
1000
0010
1000
,
0001
0100
0001
0100
0001
0100
0010
1000
0100
0010
0001
0100
0010
1000
0100
0010
,
0001
0100
0010
1000
0100
1000
0100
0010
0001
0100
0001
1000
0001
1000
0100
0010
,
0001
1000
0100
0010
0001
0010
0100
1000
0001
0010
0100
1000
0001
0010
0001
0010
,
0100
1000
0100
1000
0001
0100
0001
0010
0001
1000
0001
0001
1000
0100
1000
0001
,
1000
0010
1000
1000
0001
0010
0100
1000
0001
0010
0100
1000
0100
1000
0001
0010
,
0100
1000
0001
0010
1001
0000
0001
1000
0001
1000
0001
0100
0010
0000
1001
0100
,
0010
1001
0100
0000
1001
0000
1000
0001
1000
0001
1000
0010
0100
0000
1001
0010
,
0100
1001
0010
0000
0110
0000
0100
0010
0100
0010
0100
1000
0001
0000
0110
1000
,
0001
0110
1000
0000
0110
0000
0010
0100
0010
0100
0010
0001
1000
0000
0110
0001
,
1000
0110
0001
0000
1000
0001
1000
0001
0100
0010
0100
0010
1000
0001
1000
0001
,
0010
0100
0010
0100
0001
1000
0001
1000
0100
0010
0100
0010
0001
0010
0100
1000
,
0001
0010
0100
1000
0022
0033
0000
0000
0000
0000
0000
0000
0000
0000
0000
0000
;

//---------------dance-single - ----------------
#NOTES:
     dance-single:
     :
     Hard:
     9:
     0.801,0.826,0.526,0.120,0.287,829.000,88.000,20.000,0.000,0.000:
0000
0000
0000
0000
,
0000
0000
0000
0000
0001
1000
0001
0010
,
0210
0000
1300
0000
0010
0100
0001
0010
,
0012
0000
1003
0000
0100
1000
0001
0100
,
0102
0000
0013
0000
0100
1000
0010
0100
,
0120
0000
1030
0000
0001
0010
0100
1000
,
0001
0100
0002
0000
1003
0100
2000
0000
,
3001
1000
0100
0010
0001
0010
0100
1000
,
0010
0100
0010
0100
0001
1000
0001
0010
,
0100
1000
0100
0010
0001
1000
0010
0100
,
0001
0100
1000
0100
0001
0100
0010
0100
,
0001
0010
1000
0010
0001
0010
0100
0010
,
0001
0002
1000
2003
0001
0001
3001
0000
,
1000
2000
0001
3002
1000
1000
1003
0000
,
1000
0010
1000
0010
0100
0100
0100
0001
,
1000
0100
1000
0100
0010
0010
0010
0001
,
0011
0010
0001
0010
0110
0100
1000
0100
,
0110
0010
0001
0100
1000
0001
0010
1000
,
0100
0000
0010
0000
0000
0000
0001
0000
0000
0000
0000
1000
0000
0000
0100
0000
0000
0000
0010
0000
0000
0000
0001
0000
0000
0000
0000
1000
0000
0000
0100
0000
,
0000
0010
0001
0000
1000
0000
0100
0000
0010
0001
0010
0000
0100
0000
1000
0000
,
0001
0001
1000
1000
0010
0010
0100
0100
,
0001
0100
0010
0100
0001
0100
0010
0100
,
1000
0001
0010
1000
0001
0100
0010
0100
,
0001
0000
0010
0000
0000
0000
0100
0000
0000
0000
0000
1000
0000
0000
0001
0000
0000
0000
0010
0000
0000
0000
0100
0000
0000
0000
0000
1000
0000
0000
0001
0000
,
0000
0100
0010
0000
1000
0000
0100
0000
0010
0001
0010
0000
0100
0000
1000
0000
,
0010
0100
0010
0000
0100
0010
0100
0000
0010
1000
0001
0000
0100
0001
1000
0000
,
0001
0010
0001
0000
0100
0000
0010
0000
1000
0010
1000
0000
0100
0000
0010
0000
,
0011
0001
0100
0010
1010
1000
0100
0010
,
0001
0000
0010
0000
0000
0000
0100
0000
0000
0000
0000
1000
0000
0000
0001
0000
0000
0000
0010
0000
0100
0000
1000
0000
0100
0000
0010
0000
0000
0000
0001
0000
,
0100
0000
0010
1000
0010
0000
1000
0000
0100
0000
0010
0000
0001
0000
1000
0000
,
1001
0001
1001
1000
1010
0010
0110
0100
,
0101
0000
0001
0000
0101
0000
0100
0000
0101
0000
1100
0000
2002
0000
0000
3003
,
0001
0100
0010
0100
0110
0010
0010
0010
,
1000
0010
0100
0001
1000
0100
0010
0001
,
1000
0000
0100
0000
1000
0000
0010
0000
0100
0000
0001
0000
0100
0000
0001
0100
,
0001
1000
0100
0010
0001
1000
0001
0010
,
0001
0010
0100
1000
0010
0100
0001
0010
,
0001
0000
0100
0000
0001
0000
0010
0000
0001
0000
0100
0000
0010
0000
1000
0010
,
1000
0000
0001
0000
0100
0001
0010
0000
0100
0000
1000
0000
0010
0000
0100
0000
,
0001
0100
0001
0100
0010
1000
0010
1000
,
0001
0010
0100
1000
0010
1000
0100
1000
,
0010
0000
0000
0010
1000
0000
0010
0000
0100
0000
0001
0010
0001
0010
0001
0000
,
0100
0001
0100
0010
1000
0001
0100
0010
,
1000
0001
1000
0000
0001
0000
0100
0000
0010
0100
0010
0000
0100
0000
0010
0000
,
1001
0000
0100
0000
0110
0000
0100
1000
,
1001
0000
0001
1000
0001
1000
0001
1000
0001
0000
0100
0000
0010
0000
0100
0000
,
0110
0110
1010
0101
,
1001
0000
0001
1000
0001
0000
1000
0000
0001
0000
0010
0001
0010
0100
0010
0000
,
0110
1100
1100
1010
,
0110
0000
0100
0010
0100
0010
0100
0010
0100
0000
0001
0000
1000
0000
0100
0000
,
0110
0011
1100
1010
,
0101
0000
0001
0100
0001
0000
1000
0000
0100
0000
0010
0100
0010
0000
0001
0000
,
1001
0000
1000
0010
1000
0000
0010
0000
0100
0000
0001
0000
1000
0000
0100
0000
,
0011
0001
0011
0000
1100
1000
1100
0000
,
1001
0100
0010
1000
0100
0010
0001
0100
,
0101
0001
0101
0000
1010
1000
1010
0000
,
1001
0000
0010
0000
0100
0000
1000
0000
0010
0000
0100
0010
0100
0000
0010
0000
,
1001
0010
0100
0001
0010
0100
1000
0010
,
1000
0000
0100
0000
0010
0000
0001
0010
0001
0000
0100
0000
0010
0000
1000
0010
,
1000
0100
1000
0100
0010
0001
0010
0001
,
1000
1000
0001
0001
1000
1000
0001
0001
,
0220
0330
0000
0000
1000
0000
0010
0000
0100
0000
0001
0000
0100
0000
0100
0000
,
0010
0000
0010
0000
0100
0000
0100
0000
0010
0000
0010
0000
2002
3003
0000
0000
,
0001
0010
0100
1000
0001
0001
0100
0100
,
0010
0000
0010
0000
1000
0000
1000
0000
2002
3003
0000
0000
1000
0000
0010
0000
,
0100
0001
1000
0100
0010
0001
1000
0100
,
0010
0001
1000
1000
0010
0100
0001
0001
,
0010
0100
0010
0010
0001
1000
0100
0100
,
1000
0010
0110
0010
1010
0000
0101
0001
,
1001
0000
1000
0010
0100
0000
0001
0000
1000
0000
0010
0100
0001
0000
1000
0000
,
0100
0010
0001
0100
0010
1000
0001
0100
,
0010
0000
1000
0001
0100
0000
0010
1000
0001
0000
0010
0000
0100
0000
1000
0000
,
0010
0100
0010
0100
0001
0010
1000
0001
,
0100
1000
0010
0001
1000
0100
0001
1000
,
0100
0000
0010
0000
0001
1000
0100
0000
0010
0000
0001
0000
1000
0000
0100
0000
,
1000
0000
0010
0000
0100
0000
0001
0000
1000
0000
0100
0000
0010
0001
0010
0000
,
0100
1000
0100
0000
0001
0000
0100
0000
0001
0000
0010
0000
0100
0000
1000
0000
,
0010
0100
1001
0100
0001
0010
0100
1000
,
0010
0100
1001
0010
0100
0001
1000
0100
,
0010
0000
0100
0000
1000
0100
1000
0000
0100
0000
0010
0000
0001
0010
0001
0000
,
0010
0000
0100
0000
1000
0001
1000
0000
0001
1000
0001
0000
1000
0010
0100
0001
,
1000
0000
0110
0000
1001
0000
1000
0001
1000
0001
1000
0001
1000
0000
0010
0000
,
0100
0010
0110
0000
0110
0000
0101
0000
,
1010
0000
0000
0000
1001
0000
1000
0001
1000
0000
0001
0000
1000
0000
0100
1000
,
0100
0010
0100
0000
0110
0000
0000
0000
0011
0000
0000
0000
0011
0000
0000
0000
,
0101
0000
0000
0000
0110
0000
0010
0100
0010
0100
0010
0100
0010
0000
1000
0000
,
0001
0010
0110
0000
1100
0000
0011
0000
,
0101
0000
0000
0000
1010
0000
1000
0010
1000
0000
0001
0000
0010
0000
0100
0010
,
0100
0000
1000
0000
1001
0000
0001
0100
0001
0000
0100
0000
0010
0000
1000
0000
,
0001
0010
1100
1000
1100
0000
0011
0001
,
0011
0000
1001
0010
0100
0001
0010
0100
,
1000
0010
1010
1000
1010
0000
0101
0001
,
0101
0000
0000
0000
1001
0000
0100
0000
0010
0000
0001
0000
0100
0000
0010
0100
,
0010
0100
1001
0100
0010
1000
0100
0010
,
0001
0000
0100
0000
0001
0000
0010
0000
0100
0000
1000
0100
1000
0000
0010
0000
,
0100
0000
0001
0100
0001
0000
0010
0000
0001
0000
0010
0000
0100
0000
1000
0000
,
0100
0000
1000
0000
0001
0000
0100
0001
0100
0000
0010
0000
1000
0000
0100
0000
,
1000
0000
0001
0000
0100
0000
0010
1000
0010
0000
0100
0000
0001
0000
0010
0000
,
0100
0000
1000
0000
0001
0000
1000
0001
1000
0000
0010
0000
0100
0000
0001
0000
,
1000
0000
0100
0000
0010
0000
0001
0010
0001
0000
0100
0000
0010
0000
1000
0000
,
0100
0000
1000
0000
0001
0100
0001
0000
0100
0000
0010
0000
1000
0010
1000
0000
,
0010
0000
0100
0000
0001
0010
0100
0000
1000
0010
0100
0000
0001
0100
0010
0000
,
1000
0100
0010
0000
0220
0330
0000
0000
0000
0000
0000
0000
0000
0000
0000
0000
;
