#TITLE:Love this feelin';
#SUBTITLE:;
#ARTIST:Chang Ma;
#TITLETRANSLIT:;
#SUBTITLETRANSLIT:;
#ARTISTTRANSLIT:;
#CREDIT:;
#BANNER:Love - ban.png;
#BACKGROUND:Love this fellin' - bg.png;
#LYRICSPATH:;
#CDTITLE:B4-Cdtitle.png;
#MUSIC:LOVE THIS FEELIN'.mp3;
#OFFSET:0.000;
#SAMPLESTART:65.611;
#SAMPLELENGTH:12.000;
#SELECTABLE:YES;
#BPMS:0.000=95.000,56.000=190.202;
#STOPS:;
#BGCHANGES:;
// cache tags:
#FIRSTBEAT:8.000;
#LASTBEAT:225.313;
#SONGFILENAME:Songs/Definitive Keyboard Megapack/Love this feelin' [B4-NoA]/Love this feling.sm;
#HASMUSIC:1;
#HASBANNER:1;
#MUSICLENGTH:89.774;
// end cache tags

//---------------dance-single - B4 steps----------------
#NOTES:
     dance-single:
     B4 steps:
     Hard:
     11:
     1.000,1.000,1.000,1.000,0.975,466.000,167.000,127.000,0.000,19.000:
0000
0000
0000
0000
,
0000
0000
0000
0000
,
0202
2020
3333
0220
2002
3333
2200
0022
,
3333
0000
0202
0000
2020
0000
3333
0000
1000
1100
0100
0110
0010
0011
0010
0110
,
2020
0202
3333
0220
2002
3333
0022
2200
,
3333
0000
2020
0000
0202
0000
3333
0000
0001
0011
0010
0110
0100
1100
0100
0001
,
1100
0000
2200
3300
1001
0101
1010
0000
2022
3033
0200
0300
1010
0110
0011
0000
,
2022
3033
0100
0000
1010
0100
1010
0001
1100
0001
1000
0010
0100
0001
0010
1000
,
0202
0000
0303
0010
0000
0000
0000
0000
0000
2020
0000
3030
0100
0000
0000
0000
0000
0000
2002
0000
3003
0110
0000
0000
0001
0000
0000
1000
0000
0000
0101
0000
0000
1000
0000
0000
0011
0000
0000
0100
0000
0000
1001
0000
0000
0000
0000
0000
,
1001
0000
0000
0110
0000
0000
1001
0000
0000
0000
0000
0000
0110
0000
0000
1001
0000
0000
0110
0000
0000
0000
0000
0000
0002
0000
0003
0010
0000
0000
2000
0000
0000
3000
0000
0000
0100
0000
0000
0000
0000
0000
0010
0000
0000
0000
0000
0000
,
1100
0000
0000
1010
0000
0000
0110
0000
0000
0000
0101
0000
0011
0000
0000
0000
,
0100
1000
0100
0010
0001
0010
0100
1000
0100
1000
0100
0001
0010
0001
0010
0100
0010
0100
1000
0010
1000
0010
1000
0001
0100
0001
0010
1000
0010
0001
0010
0100
,
1020
0000
0000
0000
0000
0000
0000
0000
0000
0000
0000
0000
0030
0000
0000
0000
0000
0000
0000
0000
0000
0000
0000
0000
0000
0000
0000
0000
0000
0000
0000
0000
0000
0000
0000
0000
1100
0000
0000
0000
0000
0000
0000
0000
0000
0000
0000
0000
0000
0000
0000
0000
0000
0000
0000
0000
0000
0000
0000
0000
0000
0000
0000
0000
0000
0000
0000
0000
0000
0000
0000
0000
0110
0000
0000
0000
0000
0000
0000
0000
0000
0000
0000
0000
0000
0000
0000
0000
0000
0000
0000
0000
0000
0000
0000
0000
0000
0000
0000
0000
0000
0000
0000
0000
0000
0000
0000
0000
0000
0000
0000
0000
0000
0000
0000
0000
0000
0000
0000
0000
0011
0000
0000
0000
0000
0000
0000
0000
0000
0000
0000
0000
0000
0000
0000
0000
0000
0000
0000
0000
0000
0000
0000
0000
1100
0000
0000
0000
0000
0000
0000
0000
0000
0000
0000
0000
0000
0000
0000
0000
0000
0000
0000
0000
0000
0000
0000
0000
0000
0000
0000
0000
0000
0000
0000
0000
0000
0000
0000
0000
0000
1000
0000
0000
0000
0000
0000
0000
0000
0000
0000
0000
,
0101
0000
0000
0000
0000
0000
0000
0000
0000
0000
0000
0000
0000
0000
0000
0000
0000
0000
0000
0000
0000
0000
0000
0000
0000
0100
0000
0000
0000
0000
0000
0000
0000
0000
0000
0000
0011
0000
0000
0000
0000
0000
0000
0000
0000
0000
0000
0000
0000
0000
0000
0000
0000
0000
0000
0000
0000
0000
0000
0000
0000
1000
0000
0000
0000
0000
0000
0000
0000
0000
0000
0000
0110
0000
0000
0000
0000
0000
0000
0000
0000
0000
0000
0000
0000
0000
0000
0000
0000
0000
0000
0000
0000
0000
0000
0000
0000
0010
0000
0000
0000
0000
0000
0000
0000
0000
0000
0000
1001
0000
0000
0000
0000
0000
0000
0000
0000
0000
0000
0000
0000
0000
0000
0000
0000
0000
0000
0000
0000
0000
0000
0000
0000
0010
0000
0000
0000
0000
0000
0000
0000
0000
0000
0000
1001
0000
0000
0000
0000
0000
0100
0000
0000
0000
0000
0000
1000
0000
0000
0000
0000
0000
0010
0000
0000
0000
0000
0000
1000
0000
0000
0000
0000
0000
0001
0000
0000
0000
0000
0000
1000
0000
0000
0000
0000
0000
0010
0000
0000
0000
0000
0000
,
2002
0000
3003
1010
0101
1001
0000
0100
,
0010
0000
0000
1000
0000
0000
0220
0000
0000
0330
0000
0000
2002
0000
3003
0000
0000
0000
0220
0000
0000
0330
0000
0000
,
2002
0000
0000
0000
0000
3003
0000
0000
0000
0000
0000
0000
0101
0000
0000
0000
1010
0000
0000
0000
0101
0000
0000
0000
0000
0000
0000
0000
0001
0000
0000
0000
,
0100
0010
1000
1001
1010
0101
1001
0000
,
2002
0000
3003
0101
1010
1001
0000
0010
,
0100
0000
0000
0001
0000
0000
0220
0000
0000
0330
0000
0000
2002
0000
3003
0000
0000
0000
0220
0000
0000
0330
0000
0000
,
2002
0000
0000
0000
0000
3003
0000
0000
0000
0000
0000
0000
1010
0000
0000
0000
0101
0000
0000
0000
1010
0000
0000
0000
0000
0000
0000
0000
1000
0000
0000
0000
,
0010
0100
1010
0000
0101
0000
2002
3003
,
0220
0000
0330
0011
1100
0110
0000
1000
,
0001
0000
0000
0010
0000
0000
2002
0000
0000
3003
0000
0000
0220
0000
0330
0000
0000
0000
2002
0000
0000
3003
0000
0000
,
0220
0000
0000
0000
0000
0330
0000
0000
0000
0000
0000
0000
1100
0000
0000
0000
0011
0000
0000
0000
1100
0000
0000
0000
0000
0000
0000
0000
0100
0000
0000
0000
,
1000
0001
0010
0110
0011
1100
0110
0000
,
0220
0000
0330
1100
0011
0110
0000
0001
,
1000
0000
0000
0100
0000
0000
2002
0000
0000
3003
0000
0000
0220
0000
0330
0000
0000
0000
2002
0000
0000
3003
0000
0000
,
0220
0000
0000
0000
0000
0330
0000
0000
0000
0000
0000
0000
0011
0000
0000
0000
1100
0000
0000
0000
0011
0000
0000
0000
0000
0000
0000
0000
0010
0000
0000
0000
,
0001
1000
0011
0000
1100
0000
0220
0330
,
0202
1313
0000
0000
0022
1133
0000
0000
,
0202
1313
0000
0000
2200
3311
0000
0000
,
0011
0000
0100
0000
0001
0000
1100
0000
0001
0010
0100
1000
0100
0010
0001
0010
,
0002
0000
0003
0010
0000
0000
0100
0000
0000
1000
0000
0000
0010
0000
0000
0000
0000
0000
0000
0000
0000
0000
0000
0000
0011
0000
0000
1000
0000
0000
0010
0000
0000
0001
0000
0000
0100
0000
0000
0000
0000
0000
0000
0000
0000
0000
0000
0000
,
1002
0003
1000
0000
0000
0000
0000
0000
2001
3000
0001
0000
0000
0000
0000
0000
,
0020
0030
0100
0000
0000
0000
0000
0000
0200
0300
0010
0000
0000
0000
0000
0000
,
1000
0000
0010
0000
0202
0303
0000
0000
2020
3030
0000
0000
2002
3003
0000
0000
,
0022
0033
0000
0000
2020
3030
0000
0000
2120
3030
0000
1000
0001
0000
0000
0000
,
0010
1000
0010
0001
0010
0100
1000
0100
1000
0100
0010
0001
0010
0100
1000
0100
,
0010
0001
0010
0100
0001
0100
0001
0100
0010
1000
0100
0010
0001
1000
0100
0010
,
0001
1000
0100
0010
0001
0010
0001
0010
0100
1000
0001
0010
0100
1000
0100
0000
,
0011
0000
0000
0001
1010
0000
0000
0000
0101
0000
0000
0010
0011
0000
0000
0000
,
0101
1000
0001
0010
1000
0100
0010
0100
0010
0001
0010
0100
1000
0010
1000
0100
,
0010
0100
0001
0010
1000
0100
0001
0100
0010
1000
0100
0001
0010
0100
1000
0100
,
0010
0000
0000
0000
0000
0011
0000
0000
0000
0000
0000
0000
0000
0000
0000
0000
0000
1010
0000
0000
0000
0000
0000
0000
0000
0000
0000
0000
0000
1001
0000
0000
,
0000
0000
0000
0000
0000
0000
0000
0000
0000
0000
0000
0000
0000
0000
0000
0000
0000
0000
0000
0000
0000
0000
0000
0000
0000
0000
0000
0000
0000
0000
0000
0000
0000
0000
0000
0000
0000
0000
0000
0000
0000
0000
0000
0000
0000
0000
0000
0000
0000
0000
0000
0000
0000
0000
0101
0000
0000
0000
0000
0000
0000
0000
0000
0000
0000
0000
0000
0000
0000
0000
0000
0000
0000
0000
0000
0000
0000
0000
0000
0000
0000
0000
0000
0000
0000
0000
0000
0000
0000
0000
0000
0000
0000
0000
0000
0000
0000
0000
0000
0000
0000
0000
0000
0000
0000
0000
0000
0000
0000
0000
0000
0000
0000
0000
0000
1100
0000
0000
0000
0000
0000
0000
0000
0000
0000
0000
0000
0000
0000
0000
0000
0000
0000
0000
0000
0000
0011
0000
0000
0000
0000
0000
0000
0000
0000
0000
0000
0000
0000
0000
0000
0000
0000
0000
0000
0000
0000
0000
0000
0000
0000
0000
0000
0000
0000
0000
0000
0000
0000
0000
0000
0000
0000
0000
0000
0000
0000
0000
0000
0000
0000
0000
0000
0000
0000
0000
0000
0000
0000
0000
0000
0000
,
0100
1000
0010
0100
0010
1000
0100
1000
0100
0010
0100
0010
0100
1000
0100
0010
,
0001
0010
0001
0010
0100
1000
0100
0010
0100
1000
0100
1000
0100
0010
1000
0010
,
0001
0010
0100
1000
0100
0010
0001
0100
1000
0100
1000
0010
0100
0001
0100
0000
,
0010
0000
0000
0100
1001
0000
0000
0000
1010
0000
0000
0100
1100
0000
0000
0000
,
1000
0001
0010
0100
1000
0100
0010
0001
0010
1000
0100
1000
0100
0010
0001
0010
,
0100
0010
0100
1000
0010
0001
0100
1000
0100
0001
0100
0001
0010
0100
1000
0100
,
0000
0000
0000
0000
0000
0000
0000
0000
0000
0000
0000
0000
0000
0000
0000
0000
0000
0000
0000
0000
0000
0000
0000
0000
1100
0000
0000
0000
0000
0000
0000
0000
0000
0000
0000
0000
0000
0000
0000
0000
0000
0000
0000
0000
0000
0000
0000
0000
0000
0000
0000
0000
0000
0000
0000
0000
0000
0000
0000
0000
0000
0000
0000
0000
0000
0000
0000
0000
0000
0000
0000
0000
0000
0000
0000
0000
0000
0000
0000
0000
0000
0000
0000
0000
0000
0000
0000
0000
0000
0000
0000
0000
0000
0000
0000
0000
0000
0000
0000
0000
0011
0000
0000
0000
0000
0000
0000
0000
0000
0000
0000
0000
0000
0000
0000
0000
0000
0000
0000
0000
0000
0000
0000
0000
0000
0000
0000
0000
0000
0000
0000
0000
0000
0000
0000
0000
0000
0000
0000
0000
0000
0000
0000
0000
0000
0000
0000
0000
0000
0000
0000
0000
0000
0000
0000
0000
0000
0000
0000
0000
0000
0000
0000
0000
0000
0000
0000
0000
0000
0000
0000
0000
0000
1010
0000
0000
0000
0000
0000
0000
0000
0000
0000
0000
0000
0000
0000
0000
0000
0000
0000
0000
,
0000
0000
0000
0000
0000
0000
0000
0000
0000
0000
0000
0000
0000
0000
0000
0000
0000
0000
0000
0000
0000
0000
0000
0000
0000
0000
0000
0000
0000
0000
0000
0000
0000
0000
0000
0000
0000
0000
0000
0000
0000
0000
0000
0000
0000
0000
0000
0000
0110
0000
0000
0000
0000
0000
0000
0000
0000
0000
0000
0000
0000
0000
0000
0000
0000
0000
0000
0000
0000
0000
0000
0000
0000
0000
0000
0000
0000
0000
0000
0000
0000
0000
0000
0000
0000
0000
0000
0000
0000
0000
0000
0000
0000
0000
0000
0000
0000
0000
0000
0000
0000
0000
0000
0000
0000
0000
0000
0000
0000
0000
0000
0000
0000
0000
0000
0000
0000
0000
0000
1001
0000
0000
0000
0000
0000
0000
0000
0000
0000
0000
0000
0000
0000
0000
0000
0000
0000
0000
0000
0000
0000
0000
0000
0000
0000
0000
0000
0000
0000
0000
0000
0000
0000
0000
0000
0000
0000
0000
0000
0000
0000
0000
0000
0000
0000
0000
0000
0000
0000
0000
0000
0000
0000
0000
0000
0200
0000
0000
0000
0000
0000
0000
0000
0000
0000
0000
0000
0000
0000
0000
0000
0000
,
0000
0000
0000
0000
0000
1310
0000
0000
0000
0000
0000
0000
0000
0000
0000
0000
0000
0000
0000
0000
0000
0000
0000
0000
0000
0000
0000
0000
0000
0000
0000
0000
0000
0000
0000
0000
0000
0000
0000
0000
0000
0000
0000
0000
0000
0000
0000
0000
0000
1200
0000
0000
0000
0000
0000
0000
0000
0000
0000
0000
0000
0000
0000
0000
0000
0000
0000
0000
0000
0000
0000
0310
0000
0000
0000
0000
0000
0000
0000
0000
0000
0000
0000
0000
0000
0000
0000
0000
0000
0000
0000
0000
0000
0000
0000
0000
0000
0000
0000
0000
0000
0000
0000
0000
0000
0000
0000
0000
0000
0000
0000
0000
0000
0000
0000
0000
0000
0000
0021
0000
0000
0000
0000
0000
0000
0000
0000
0000
0000
0000
0000
0000
0000
0000
0000
0000
0000
0130
0000
0000
0000
0000
0000
0000
0000
0000
0000
0000
0000
0000
0000
0000
0000
0000
0000
0000
0000
0000
0000
0000
0000
0000
0000
0000
0000
0000
0000
0000
0000
0000
0000
0000
0000
0000
0000
0000
0000
0000
0000
0000
0000
0000
0000
0000
0000
0000
0000
0000
0000
0000
0000
0000
,
0000
0002
0000
0000
0000
0000
0000
0000
0000
0000
0000
0000
0000
0000
0000
0000
0000
0000
0000
0000
0000
0000
0000
1013
0000
0000
0000
0000
0000
0000
0000
0000
0000
0000
0000
0000
0000
0000
0000
0000
0000
0000
0000
0000
0000
0000
0000
0000
0000
0000
0000
0000
0000
0000
0000
0000
0000
0000
0000
0000
0000
0000
0000
0000
0000
0000
0000
0000
0000
0000
0000
0000
0000
0000
0000
0000
0000
1200
0000
0000
0000
0000
0000
0000
0000
0000
0000
0000
0000
0000
0000
0000
0000
0000
0000
0000
0000
0000
0000
0301
0000
0000
0000
0000
0000
0000
0000
0000
0000
0000
0000
0000
0000
0000
0000
0000
0000
0000
0000
0000
0000
0000
0000
0000
0000
0000
0000
0000
0000
0000
0000
0000
0000
0000
0000
0000
0000
0000
0000
0000
0000
0000
0000
0000
0200
0000
0000
0000
0000
0000
0000
0000
0000
0000
0000
0000
0000
0000
0000
0000
0000
0000
0000
1310
0000
0000
0000
0000
0000
0000
0000
0000
0000
0000
0000
0000
0000
0000
0000
0000
0000
0000
0000
0000
0000
0000
0000
0000
0000
0000
0000
0000
,
0000
0000
0000
0000
0000
0000
0000
0000
0000
0000
0000
0000
0000
0000
0000
0000
2012
0000
0000
0000
0000
3003
0000
0000
0000
0000
0000
0000
0000
0000
0000
0000
0000
0000
0000
0000
0000
0000
0000
0000
0000
0000
0000
0000
0000
0000
0000
0000
0000
0000
0000
0000
0000
0000
0000
0000
0000
0000
0000
0000
0000
0000
0000
0000
;
