#TITLE:Sakura Fubuki;
#SUBTITLE:;
#ARTIST:Street;
#TITLETRANSLIT:;
#SUBTITLETRANSLIT:;
#ARTISTTRANSLIT:;
#CREDIT:rparty;
#BANNER:../Banner.png;
#BACKGROUND:../BG.PNG;
#LYRICSPATH:;
#CDTITLE:../CDTitleRpartyAndBobby.png;
#MUSIC:Sakura Fubuki.ogg;
#OFFSET:-0.252;
#SAMPLESTART:21.847;
#SAMPLELENGTH:14.043;
#SELECTABLE:YES;
#BPMS:0.000=175.000;
#STOPS:;
#BGCHANGES:;
// cache tags:
#FIRSTBEAT:0.000;
#LASTBEAT:328.000;
#SONGFILENAME:Songs/Index Fusion/Sakura Fubuki - [Bobbykaze & Rparty]/Sakura Fubuki.sm;
#HASMUSIC:1;
#HASBANNER:1;
#MUSICLENGTH:120.032;
// end cache tags

//---------------dance-single - Bobbykaze----------------
#NOTES:
     dance-single:
     Bobbykaze:
     Challenge:
     15:
     1.000,1.000,0.075,0.866,1.000,865.000,9.000,104.000,0.000,0.000:

0020
0000
0000
0000
,
0000
0000
0000
0000
0000
0000
0000
0000
0032
0000
0000
0000
0000
0000
0103
0010
,
1000
0001
0010
0100
1000
0010
1000
0001
0100
0010
1000
0001
0100
0010
1000
0001
,
1000
0100
0010
0001
0100
0001
1000
0010
1000
0001
0100
0010
1000
0100
0010
0001
,
0200
0000
0000
0000
,
0000
0000
0000
0000
0000
0000
0000
0000
0320
0000
0000
0000
0000
0000
1030
0001
,
0010
0100
1000
0010
0100
0001
1000
0100
0010
0001
0100
0010
1000
0001
0100
0001
,
1000
0100
0010
0001
0010
0100
1000
0010
0100
0001
1000
0010
1000
0001
0010
0100
,
1000
0010
0100
0001
1000
0001
0100
0001
1000
0100
0010
0001
0100
0010
1000
0001
,
0100
0001
1000
0010
0100
0001
1000
0001
0010
0100
1000
0001
0100
0001
1000
0100
,
0010
0001
0010
0100
1000
0010
0100
0001
1000
0010
1000
0100
0010
0001
0100
0010
,
1000
0001
1000
0010
0100
0001
1000
0001
0100
0001
0010
0000
0100
0000
1000
0000
,
0101
1010
0110
1001
,
0011
0100
1100
0010
1001
0100
1001
0010
,
1000
0001
1000
0001
1000
0001
1000
0001
1000
0001
1000
0001
1000
0100
0010
0001
,
0100
0010
1000
0001
0100
0001
1000
0010
1000
0001
0100
0010
1000
0001
0010
0100
,
1000
1000
0000
0010
0010
0000
0100
0100
,
0000
0000
0000
0000
0000
0000
0001
0000
0000
0000
0000
0000
0001
0000
0000
0000
0000
0000
0000
0000
0000
0000
0000
0000
0200
0000
0000
0000
0000
0000
0310
0000
0000
1000
0000
0000
0001
0000
0000
1000
0000
0000
0001
0000
0010
0000
0100
0000
,
1000
0000
0010
0000
0100
0000
0001
0000
1000
0000
0100
0000
0010
0000
0000
1000
0000
0000
0001
0000
0000
0100
0000
0000
0020
0000
0000
0000
0000
0000
1030
0000
0000
0001
0000
0000
1000
0000
0100
0000
0010
0000
0001
0000
1000
0000
0100
0000
,
0010
0000
0000
0001
0000
0000
1000
0000
0000
0010
0000
0000
0100
0000
0001
0000
0010
0000
0100
0000
0010
0000
0001
0000
2000
0000
0000
0000
0000
0000
3020
0000
0000
0000
0000
0000
0030
0000
0000
0000
0000
0000
0010
0000
0000
1000
0000
0000
,
0001
0000
0010
0000
0100
0000
1000
0000
0001
0000
0010
0000
0100
0000
1000
0000
0010
0000
0100
0000
0000
0001
0000
0000
1000
0000
0000
0010
0000
0000
1000
0000
0000
0001
0000
0000
0200
0000
0000
0320
0000
0000
0230
0000
0000
0320
0000
0000
,
1030
0000
0100
0000
0010
0000
0001
0000
1000
0000
0001
0000
0200
0000
0000
0320
0000
0000
2030
0000
0000
3002
0000
0000
1003
0000
0000
0100
0000
0000
0010
0000
0000
0001
0000
0000
1000
0000
0000
0010
0000
0000
1000
0000
0100
0000
0010
0000
,
0001
0000
1000
0000
0100
0000
0010
0000
0001
0000
0100
0000
0010
0000
0000
1000
0000
0000
0001
0000
0000
1000
0000
0000
0010
0000
0100
0000
0001
0000
1000
0000
0010
0000
0100
0000
0002
0000
0000
0000
0000
0000
0013
0000
0000
0100
0000
0000
,
1000
0010
0100
0001
0020
0000
0000
0000
0130
0000
1000
0001
0100
0010
1000
0001
,
1000
0100
1000
0100
0010
0100
0010
0001
0100
0001
0010
0001
1000
0010
0200
0000
,
0301
0000
0000
0010
0000
0000
0100
0000
0000
1000
0000
0000
0100
0000
0000
0010
0000
0000
0002
0000
0000
0000
0000
0000
1000
0000
0000
0000
0000
0000
2003
0000
0000
0000
0000
0000
0001
0000
0000
0000
0000
0000
3001
0000
0010
0000
0100
0000
,
1000
0000
0100
0000
0010
0000
0001
0000
0010
0000
0100
0000
1000
0000
0000
0001
0000
0000
0100
0000
0000
0010
0000
0000
1000
0000
0000
0001
0000
0000
0100
0000
0000
0020
0000
0000
0000
0000
0000
0000
0000
0000
0000
0000
0000
0000
0000
0000
,
0130
0000
0000
0001
0000
0000
1000
0000
0000
0010
0000
0000
1000
0000
0100
0000
0010
0000
0001
0000
0100
0000
0010
0000
2000
0000
0000
0000
0000
0000
3002
0000
0000
0000
0000
0000
0000
0000
0000
0003
0000
0000
0010
0000
0000
0100
0000
0000
,
2000
0000
0000
0000
3000
0000
0100
0010
1000
0000
0010
0100
0002
2003
3002
2003
,
3100
0000
0010
0000
0001
0000
0010
0000
0100
0000
1000
0000
0002
0000
0000
0203
0000
0000
0302
0000
0000
0203
0000
0000
0310
0000
0000
1000
0000
0000
0010
0000
0000
0100
0000
0000
0001
0000
0000
1000
0000
0000
0001
0000
0010
0000
0100
0000
,
1000
0000
0010
0000
0100
0000
0001
0000
1000
0000
0010
0000
0200
0000
0000
0302
0000
0000
0203
0000
0000
0302
0000
0000
1003
0000
0100
0000
0010
0000
0001
0000
0010
0000
0100
0000
1000
0000
0000
0001
0000
0000
0100
0000
0000
0010
0000
0000
,
1000
0001
0100
0001
2000
0000
0000
0000
3010
0000
0100
0000
0002
0000
0013
0100
,
2000
0000
0000
0000
0000
0000
0000
0000
0000
0000
0000
0000
3001
0000
0000
0010
0000
0000
0100
0000
0000
1000
0000
0000
0002
0000
0000
0000
0000
0000
0013
0000
0000
0100
0000
0000
2000
0000
0000
0000
0000
0000
3010
0000
0100
0000
0001
0000
,
1000
0000
0100
0000
0010
0000
0001
0000
0010
0000
0100
0000
2000
0000
0000
0000
0000
0000
0000
0000
0000
0000
0000
0000
3020
0000
0000
0000
0000
0000
0230
0000
0000
0000
0000
0000
0301
0000
0000
1000
0000
0000
0001
0000
0000
0100
0000
0000
,
0020
0000
0000
0000
0130
0001
1000
0010
1000
0001
0100
0001
1000
0010
0200
0000
,
0310
1000
0001
0100
0001
1000
0010
0000
0000
0000
0000
0000
0000
0000
0200
0000
,
0310
1000
0001
0100
0001
1000
0010
0100
0001
0010
0100
1000
0100
0010
0002
0000
,
0013
0100
1000
0010
0100
0001
1000
0010
1000
0100
0010
0001
0000
0000
0010
0100
,
2000
0000
0000
3100
0001
1000
0010
0100
0001
0010
0100
1000
0010
0100
0002
0000
,
0003
0010
0100
1000
0100
0010
0001
0010
0100
1000
0100
0010
0001
0000
0200
0000
,
0310
1000
0001
0100
0001
1000
0010
0100
0001
1000
0100
1000
0001
0010
0002
0000
,
0103
0000
0000
0010
0000
0000
1000
0000
0000
0100
0000
0000
0010
0000
0000
0001
0000
0000
0100
0000
0000
0001
0000
0000
1000
0000
0000
0010
0000
0000
0100
0000
0000
0000
0001
0000
0010
0000
0100
0000
1000
0000
0100
0000
0010
0000
0001
0000
,
0200
0000
0000
0000
0300
0000
0002
0000
0003
0000
1000
0100
0010
0000
0002
0000
,
0003
0010
0100
0001
0100
0010
1000
0020
,
0000
0000
0000
0000
0030
0100
0001
2000
,
0000
0000
0000
0000
3000
0000
0100
0001
0020
0000
0000
0000
0030
1000
0001
0000
,
0100
0010
1000
0001
,
0100
0010
1000
0001
0100
0010
1000
0001
,
1000
0100
0010
0001
1000
0100
0010
0001
0010
0100
1000
0001
0010
0100
1000
0020
,
0000
0000
0000
0030
0100
0001
1000
0010
0100
0001
0100
0010
1000
0001
0010
0100
,
1000
0010
1000
0001
0010
0100
1000
0010
0100
0001
1000
0010
1000
0001
0100
0001
,
1000
0100
0010
0001
0100
0010
1000
0010
0100
0001
0100
0010
1000
0100
0020
0000
,
0000
0030
0002
0003
0020
0030
0100
0010
2000
3000
0020
0030
0200
0300
0002
0000
,
0003
0100
0010
1000
0001
0010
0100
1000
0010
1000
0001
0100
0001
1000
0100
0010
,
0002
0000
0000
0000
0010
0000
0000
0000
0003
0000
0200
0300
0002
0003
2000
0000
,
0010
0000
3100
0020
0030
0200
0300
0002
,
0000
0000
0003
0200
0300
0020
0030
2000
,
3000
0000
1000
0000
0001
0000
1000
0000
0020
0000
0130
0001
1000
0100
0010
0001
,
0100
0000
0010
0000
1000
0000
0100
0010
1000
0001
1000
0010
0100
0000
0001
0000
,
0000
0000
0001
0000
1000
0000
0001
0010
0100
1000
0100
0010
0001
0010
0200
0000
,
1000
0000
0001
0000
0000
1300
0100
0020
,
0030
0001
0010
0100
1000
0010
1000
0001
0100
0010
1000
0100
0010
0001
0100
0010
,
2000
0000
0001
0000
3000
0100
0010
0002
,
0000
0000
0003
0020
0030
0200
0300
0020
,
0130
0000
1000
0000
0001
0000
0001
0010
0100
1000
0100
0010
0001
0100
0020
0000
,
1030
0100
0010
0001
0100
0010
1000
0001
0010
0100
1000
0001
0100
0000
0000
0000
,
0020
0000
0000
0000
0130
0001
1000
0010
1000
0001
0100
0001
1000
0010
0200
0000
,
0310
1000
0001
0100
0001
1000
0010
0100
0001
1000
0010
0100
0000
0000
0200
0000
,
0300
0000
0000
0000
0000
0000
0000
0002
,
0003
0000
0000
0000
0000
0000
0000
0000
0000
0000
0000
0000
0000
0000
0010
0100
,
2000
0000
0000
3100
0001
1000
0010
0100
0001
0010
0100
1000
0010
0100
0002
0000
,
0003
0010
0100
1000
0100
0010
0001
0010
0100
1000
0100
0010
0001
0000
0200
0000
,
0300
0000
0000
0000
0000
0000
0000
0002
,
0003
0000
0000
0000
,
0020
0000
0000
0000
0130
0001
1000
0010
1000
0001
0100
0001
1000
0010
0200
0000
,
0310
1000
0001
0100
0001
1000
0010
0000
0000
0000
0000
0000
0000
0000
1000
0100
,
0020
0000
0000
0000
0000
0000
0000
0000
0000
0000
0000
0000
0030
0000
0001
0010
,
0200
0000
0000
0000
0000
0000
0000
0000
0000
0000
0000
0000
0300
0000
0010
0100
,
2000
0000
0000
3100
0001
1000
0010
0100
0001
0010
0100
1000
0010
0100
0002
0000
,
0003
0010
0100
1000
0100
0010
0001
0010
0200
0000
0000
0000
0300
0000
0010
1000
,
0002
0000
0000
0000
0000
0000
0003
0200
,
0300
0000
0000
0000
0000
0000
0000
0000
0000
0200
0000
0000
0000
0000
0000
0300
,
1001
0000
0000
0000
;

//---------------dance-single - Rparty----------------
#NOTES:
     dance-single:
     Rparty:
     Hard:
     14:
     1.000,1.000,0.383,0.741,1.000,815.000,46.000,89.000,0.000,11.000:
1002
0000
0000
0000
,
0000
0000
0003
0000
2100
0000
3000
0201
,
0301
0010
0100
1000
0010
0100
0001
1000
0100
0010
0001
0100
0010
1000
0001
0010
,
0100
1000
0010
0100
0001
0010
0100
1000
0100
0010
0001
1000
0010
0100
0001
1000
,
0020
0000
0000
0000
,
0000
0000
0030
0000
1020
0000
0030
1200
,
1300
0100
0010
0001
0100
0010
1000
0001
0010
0100
1000
0010
0100
0001
1000
0100
,
0010
0001
0100
0010
1000
0100
0010
0001
0010
0100
1000
0001
0100
0010
1000
0001
,
1000
0100
0010
0001
1000
0100
0010
0001
1000
0100
0010
0001
1000
0100
0010
0001
,
1000
0100
0010
0001
1000
0100
0010
0001
1000
0010
0100
0001
1000
0010
0100
0001
,
0100
0010
1000
0001
0010
0100
1000
0001
0010
0100
1000
0001
0010
0100
0010
0001
,
1000
0010
0100
0001
1000
0010
0100
0001
1000
0010
0100
0001
1000
0010
0100
0010
,
1000
0001
0010
0100
1000
0010
0100
0001
1000
0001
0010
0100
1000
0100
0010
0001
,
1000
0010
1000
0001
1000
0001
1000
0010
1000
0100
1000
0010
1000
0001
1000
0010
,
1000
0100
0010
0001
0010
0100
1000
0001
0010
0100
0010
0001
1000
0001
1000
0001
,
1000
0010
0100
0001
0010
0100
1000
0100
0010
0100
1000
0001
1000
0100
0010
0000
,
1021
0030
0000
0000
1201
0300
0000
0000
0000
0000
0000
0000
1021
0030
0000
0000
1201
0300
0000
0000
0000
0000
0000
0000
1021
0030
0000
0000
1201
0300
0000
0000
,
0000
0000
0000
0000
1012
0003
0000
0000
1201
0300
0000
0000
0000
0000
0000
0000
1011
0000
0000
0000
1000
0000
0100
0000
0010
0000
0001
0000
2000
0000
0000
0000
,
0002
0000
3003
0000
1000
0000
0100
0010
0001
0000
1000
0010
0200
0000
0301
0000
,
1001
0000
1000
0010
0200
0000
0301
0000
0101
0000
0110
0000
0100
0000
0001
1000
,
0200
0000
0010
0000
0301
0000
1000
0100
0010
0000
0010
0001
2000
3200
2300
3200
,
0320
0000
0000
0000
0032
0023
0032
0023
0130
1000
0100
0010
0001
0010
1100
0000
,
0002
0000
0000
0000
1003
0010
1000
0010
0100
0000
0002
0000
1003
0001
0010
0100
,
1000
0010
0100
0001
0200
0000
0000
0300
1001
0000
1100
0000
0020
0000
0031
0100
,
0001
0010
0100
1000
0010
0100
0001
1000
0100
0010
0001
0100
0010
0000
1001
0000
,
0110
0000
0000
0000
0001
0010
1100
0000
0000
0000
0011
0000
0000
0000
1100
0000
,
0002
0000
0000
0000
1003
0000
0010
0100
0001
0000
1000
0100
0020
0000
0000
0030
,
1100
0000
0001
0010
0200
0300
2000
3000
0011
0000
1000
0000
0001
0000
1000
0010
,
0200
0000
0010
0000
1300
0000
0001
0100
0001
0000
1000
0001
2000
3200
2300
3200
,
0320
0000
0000
0000
0032
0023
0032
0023
0130
0000
1000
0001
0100
0000
1001
0000
,
0020
0000
0000
0000
1030
0001
1000
0010
0200
0000
0000
0000
0301
1000
0010
0100
,
0001
0010
0100
1000
0100
0010
0001
1000
0010
0100
0001
0010
0100
1000
0100
0010
,
0002
0000
0000
0000
0000
0000
0000
0000
0000
0000
0000
0000
1003
0000
0000
0010
0000
0000
1000
0000
0000
0100
0000
0000
1000
0000
0000
0001
0000
0000
0100
0000
0000
0010
0000
0000
1000
0000
0000
0010
0000
0000
1000
0000
0100
0000
0010
0000
,
0001
1000
0010
0100
0001
0010
0100
0010
0001
1000
0100
0010
0001
1000
0001
1000
,
0001
0000
0000
0000
1000
0000
0000
0000
0001
0000
0010
0000
0100
0000
1000
0000
0100
0000
0010
0000
0001
0000
0010
0000
0100
0000
1000
0000
0002
0003
0010
0000
,
0100
1000
0100
0010
0001
1000
0001
0000
0000
0000
0000
0000
0000
0000
1100
0000
,
1000
0000
0100
0000
0010
0000
0100
0000
1000
0000
0001
0000
0010
0000
0100
0000
0010
0000
0001
0000
1000
0000
0100
0000
0010
0000
0001
0000
0200
0300
0010
0000
,
1000
0001
0010
0100
1000
0001
0010
0100
1000
0000
0000
0000
0000
0000
0001
0100
,
0020
0030
0000
0000
1000
0000
0100
0000
1000
0000
0100
0000
0010
0000
0100
0000
0010
0000
0001
0000
0010
0000
0100
0000
1000
0000
0100
0000
0020
0030
0001
0000
,
1000
0100
0010
0001
0010
0100
1000
0000
0000
0000
0000
0000
0000
0000
1010
0000
,
0001
0000
0010
0000
0100
0000
1000
0000
0001
0000
0010
0000
0100
0000
1000
0000
0010
0000
0100
0000
0001
0000
1000
0000
0100
0000
0010
0000
0002
0003
0010
0000
,
0100
1000
0010
0100
0001
1000
0100
0010
0001
0000
0000
0000
0020
0000
0000
0030
,
1001
0000
0000
0000
0000
0000
1000
0000
0000
0000
0100
1000
0100
0000
0101
0000
,
0000
0000
0001
0010
0100
0000
1000
0000
0100
0000
0010
0000
0000
0000
1002
0000
,
0000
0000
0000
0000
0003
1000
0010
0120
,
0000
0000
0000
0000
0000
0000
2030
0000
0000
0000
0000
0000
3000
0000
0001
0010
,
1100
0000
0000
0000
0000
0000
0000
0000
1000
0000
0000
0000
0000
0000
0000
0000
1000
0000
0000
0000
0010
0000
0000
0000
1000
0000
0000
0000
0002
0003
0000
0000
,
1000
0100
0010
0001
0100
0010
1000
0001
,
1000
0100
0010
0001
1000
0010
0100
0001
0100
0010
1000
0001
0010
0100
0010
0100
,
0020
0000
0000
0000
0000
0000
0000
0000
0030
0000
0000
0000
1000
0100
0010
0001
,
2000
0000
3001
0000
0001
0100
0010
1000
,
0010
0000
1000
0001
0100
0001
0010
0100
1000
0010
0100
0010
1000
0100
0020
0000
,
0001
0000
0031
0000
0100
0000
0010
1000
0100
0000
0010
0000
0100
0000
2000
0000
,
0010
0000
3100
0010
0100
0001
0010
0100
1000
0100
0010
0100
0010
0001
0010
0100
,
2000
0000
3001
0000
1000
0001
0100
0020
,
1000
0030
0001
2000
3010
0200
0301
0020
,
0001
0030
1000
0020
0130
0002
1000
0203
,
0310
0000
0001
0000
0010
0000
0100
0000
1000
0100
0010
0001
1000
0001
1000
0001
,
1000
0000
0010
0000
0100
0001
0100
0001
1000
0010
0100
0001
1000
0000
0002
0000
,
0013
0000
0001
0000
0100
0000
0010
1000
0100
0010
0001
0010
0100
1000
0010
0100
,
0002
0000
1000
0000
0103
0010
0001
2000
,
0000
0000
3010
1000
0100
1000
0010
0100
0001
0010
0100
0010
0100
1000
0100
0010
,
0002
0000
1000
0003
0010
0100
0010
2000
,
0100
3010
0001
1000
0100
1000
0100
0010
,
0001
0000
0001
0000
0100
0000
0010
0000
1000
0000
0100
1000
0010
0100
0010
0100
,
0020
0000
0000
0000
1000
0000
0000
0000
1000
0000
0001
0000
0031
0010
0100
1000
,
0001
0000
0000
0000
0000
0000
0000
0000
0001
0000
0010
0000
0001
0000
0010
0000
0100
0000
1000
0000
0010
0000
0100
0000
0001
0000
0010
0000
0200
0300
1000
0000
,
0001
0010
0100
1000
0001
0000
0000
0000
0000
0000
0000
0000
0000
0000
1010
0000
,
0000
0000
0000
0000
0000
0000
0000
0101
,
0000
0000
0000
0000
0000
0000
0000
0000
0000
0000
0000
0000
0000
0000
0001
0010
,
0200
0300
0000
0000
1000
0000
0100
0000
0010
0000
0100
0000
0010
0000
0001
0000
0010
0000
0100
0000
0010
0000
0100
0000
1000
0000
0100
0000
0020
0030
0001
0000
,
0010
0100
1000
0100
0010
0001
1000
0100
0010
0001
1000
0000
0000
0000
0011
0000
,
0000
0000
0000
0000
0000
0000
0000
1010
,
0000
0000
0000
0000
0000
0000
0000
0000
0020
0000
0000
0000
0000
0000
0000
0030
,
2001
0000
0000
0000
0001
0000
0010
0000
3100
0000
1000
0000
0100
0000
0010
0000
0100
0000
1000
0000
0100
0000
0010
0000
0001
0000
0010
0000
0200
0300
1000
0000
,
0001
0010
0100
1000
0010
0100
0001
0010
0100
1000
0001
0000
0000
0000
1001
0100
,
0020
0000
0000
0000
0000
0000
0000
0000
0000
0000
0000
0000
0030
0000
0011
0100
,
2000
0000
0000
0000
0000
0000
0000
0000
0000
0000
0000
0000
0000
3000
0010
0100
,
1002
0000
0000
0000
1000
0000
0100
0000
0013
0000
0100
0000
0010
0000
0001
0000
0010
0000
0100
0000
1000
0000
0100
0000
0010
0000
0001
0000
0020
0030
0100
0000
,
1000
0010
0100
0001
1000
0100
0010
0001
2000
0000
0000
0000
3000
0000
1001
0100
,
0020
0000
0000
0000
0000
0000
0000
1001
,
0000
0000
0000
0000
0000
0000
0000
0000
0000
0000
0000
0000
0031
0010
0100
1000
,
1111
0000
0000
0000
;
