#TITLE:Trancing Pulse;
#SUBTITLE:;
#ARTIST:Triad Primus;
#TITLETRANSLIT:;
#SUBTITLETRANSLIT:;
#ARTISTTRANSLIT:;
#CREDIT:;
#BANNER:trancing pulse bn.png;
#BACKGROUND:trancing pulse bg.png;
#LYRICSPATH:;
#CDTITLE:cdtitlecondortalon.png;
#MUSIC:Trancing Pulse.ogg;
#OFFSET:0.012;
#SAMPLESTART:77.414;
#SAMPLELENGTH:13.426;
#SELECTABLE:YES;
#DISPLAYBPM:113.000:143.000;
#BPMS:0.000=113.000,34.000=123.000,36.000=133.000,38.000=143.000,138.000=286.000,140.000=143.000;
#STOPS:138.000=0.140
,138.667=0.139
,139.333=0.140
;
#BGCHANGES:;
// cache tags:
#FIRSTBEAT:19.000;
#LASTBEAT:268.000;
#SONGFILENAME:Songs/Index Tournament 1/Trancing Pulse [CondorTalon]/Trancing Pulse.sm;
#HASMUSIC:1;
#HASBANNER:1;
#MUSICLENGTH:122.814;
// end cache tags

//---------------dance-single - CondorTalon----------------
#NOTES:
     dance-single:
     CondorTalon:
     Challenge:
     10:
     0.742,0.846,0.692,0.407,0.700,503.000,85.000,50.000,0.000,2.000:
0000
0000
0000
0000
,
0000
0000
0000
0000
,
0000
0000
0000
0000
,
0000
0000
0000
0000
,
0000
0000
0000
0000
0000
0000
0000
0000
0000
0000
0000
0000
0001
0010
0100
1000
,
0002
0000
0000
0000
0000
0000
1003
0010
2000
0000
0000
0000
0000
0000
0000
0000
,
3200
0000
0000
0320
0000
0000
0031
0000
2000
0000
0000
3002
0000
0000
0103
0000
,
0000
0010
0020
0000
0000
0000
0000
0000
,
2030
0000
0000
0000
3001
0000
0010
0000
0001
0000
0100
0000
0010
0000
1000
0001
,
0010
0100
0010
0001
1000
0010
0100
0001
1000
0001
0010
0100
1000
0100
1000
0001
,
2000
0000
0000
0000
0000
0000
3010
0100
0002
0000
0000
0000
0000
0000
1003
0100
,
0020
0000
0000
0032
0000
0000
0103
0000
0010
0000
1000
0100
0010
0100
1000
0001
,
0200
0000
0000
0000
0000
0000
0310
1000
0002
0000
0000
0000
0000
0000
0013
0100
,
2000
0000
0000
3020
0000
0000
0130
0000
0002
0000
0000
0013
0100
1000
0001
0100
,
0010
0000
1000
0000
0001
0000
0010
0100
1000
0000
0001
0000
0100
0000
0010
1000
,
0001
0000
0000
0100
0001
0000
1000
0100
0010
0000
0000
0100
1000
0000
0001
0000
,
0100
0000
0010
0000
1000
0000
0001
0010
0100
0000
0000
0010
0001
0000
1000
0000
,
0001
0000
1001
0000
0100
1010
1010
2000
,
3002
0000
0000
0203
0000
0000
0310
0000
2000
0000
0000
0000
3200
0000
0000
0000
,
0320
0000
0000
0000
0000
0000
0031
1000
0020
0000
0000
0000
0030
0000
0100
0000
,
0002
0000
0000
2003
0000
0000
3010
0000
0200
0000
0000
0000
0302
0000
0000
0000
,
2003
0000
0000
0000
0000
0000
3100
0010
0100
1000
0001
0100
0010
0100
0001
1000
,
0200
0000
0000
0310
0001
0100
0010
0100
,
0002
0000
0000
0000
0000
0000
0013
0100
1000
0000
0001
0000
0100
0000
0010
0000
,
0200
0000
0000
0301
0020
0000
0230
0000
,
1300
0000
0000
1010
0000
0000
0010
0100
0001
0010
0100
0010
0001
1000
0010
0100
,
0001
0000
0000
1000
0001
0000
0100
0000
0010
1000
0000
0000
1100
0000
0000
0000
,
0110
0000
0000
0010
0001
0000
1000
0000
0010
0100
0000
0000
0001
0010
0100
1000
,
0010
0000
0000
0100
0001
0000
1000
0000
0100
0010
0000
0000
0110
0000
0000
0000
,
1100
0000
0000
1000
0001
0000
0100
0010
1000
0001
0010
0100
0010
0001
0100
0001
,
1000
0000
0000
0000
0001
0100
0010
1000
0001
0000
0000
0000
0011
0000
0000
0000
,
1001
1010
0110
0101
,
1001
0000
1100
1100
0000
0110
0000
0011
,
0000
0000
0001
1000
0001
0000
0000
0000
0100
0010
1000
0001
0010
0100
0010
0001
,
0100
0000
0000
0010
0000
0000
1000
0000
0000
0001
0000
0000
0010
0000
0000
0100
0000
0000
1000
0000
0000
0010
0000
0000
1000
0000
0000
0000
0000
0000
0000
0000
1010
0000
0000
0000
0000
0000
0000
0000
0101
0000
0000
0000
0000
0000
0000
0000
,
0002
0000
0000
0203
0000
0000
1300
0000
0100
0000
0000
0000
0101
0000
0000
0000
,
0002
0000
0000
0023
0000
0000
1030
0000
0010
0000
0000
0000
0011
0000
0000
0000
,
2000
0000
0000
3200
0000
0000
0301
0000
0100
0000
0000
0000
1100
0000
0000
0000
,
2000
0000
0000
0000
0000
0000
3010
0100
0001
0000
0000
0000
1000
0100
1000
0010
,
0100
0000
0000
0001
0100
0000
0010
0000
1000
0000
0000
0100
0010
0000
0001
0000
,
1000
0000
0000
0001
0100
0000
0000
0010
1000
0000
0000
0100
0010
0000
0001
0000
,
1000
0000
0000
0000
1001
0000
0001
0010
0100
0000
1000
0000
0010
0000
1000
0100
,
0010
0000
0001
1000
0010
0100
0001
0010
0100
1000
0001
0100
0010
1000
0010
0100
,
0001
0000
0000
0000
0000
0000
0000
0000
0000
0011
0000
0000
0000
0000
0000
0000
0000
0000
0110
0000
0000
0000
0000
0000
0100
0000
0000
1000
0000
0000
0001
0000
0000
0100
0000
0000
0010
0000
1000
0000
0001
0000
0010
0000
0100
0000
1000
0000
,
0001
0000
0000
1001
0000
0000
1100
0000
0110
0000
0000
0011
0000
0000
1001
0000
,
1010
0000
0000
0101
0000
0000
1001
0000
2200
0000
0000
0000
0010
0000
3300
0000
,
1001
0000
0000
0101
0000
0000
0110
0000
1010
0000
0000
0101
0000
0000
0011
0000
,
0010
0001
1000
0010
0100
0001
1000
0001
0010
0100
1000
0010
0100
0001
1000
0100
,
2000
0000
0000
0000
3010
0001
0020
0000
0000
0000
0130
1000
0200
0000
0000
0000
,
0301
0000
0000
1001
0000
0000
1100
0000
0100
0010
0000
0000
0100
1000
0001
0100
,
0001
0000
1001
1010
0000
0110
0000
0101
,
0000
0000
0011
0000
0110
0000
1100
0000
1000
0001
0100
0001
0010
0100
0010
0100
,
1000
0000
0000
1100
0000
0000
0110
0000
0011
0000
0000
1001
0000
0000
1010
0000
,
0101
0000
0000
0110
0000
0000
1001
0000
0202
0000
0000
0000
1000
0000
0303
0000
,
1001
0000
0000
1100
0000
0000
0110
0000
1001
0000
0000
1100
0000
0000
0110
0000
,
0011
0000
0001
0100
0001
0000
1000
0000
1010
0000
0010
0100
0001
0010
0100
1000
,
0100
0000
1100
0000
1100
0000
1000
0001
0100
0000
0010
1000
0100
0010
0001
1000
,
0001
0000
0000
0101
0000
0000
0110
0000
1001
0000
0000
1100
0000
0000
0110
0000
,
0010
0011
0011
0001
1000
0010
0100
0001
,
1000
0100
1000
0001
0100
0010
1000
0001
1000
0100
1000
0010
0100
0001
0010
0001
,
1000
0000
0000
1001
0000
0000
0001
0100
0001
0000
0010
0000
0100
1000
0010
0100
,
0010
0000
0000
1010
0000
0000
1000
0001
0100
0000
0010
1000
0100
0000
0010
0001
,
1000
0000
0010
0000
0110
0000
0100
0001
1000
0000
0000
0100
0010
0000
0001
0000
,
1000
0000
0000
0010
0000
0000
0100
0000
0000
0001
0000
0000
0100
0000
0000
0001
0000
0000
0010
0000
0000
0100
0000
0000
1000
0000
0001
0000
1000
0000
0010
0000
0100
0000
0001
0000
1000
0000
0001
0000
1000
0000
0100
0000
0010
0000
0001
0000
,
1000
0000
0000
1100
0000
0000
0110
0000
0011
0000
0000
0101
0000
0000
1010
0000
,
2002
0000
0000
0000
,
0000
0000
0000
0000
,
3003
0000
0000
0000
;
