#TITLE:Winter Shiki;
#SUBTITLE:;
#ARTIST:K@me;
#TITLETRANSLIT:;
#SUBTITLETRANSLIT:;
#ARTISTTRANSLIT:;
#CREDIT:;
#BANNER:wintershiki-bn.png;
#BACKGROUND:wintershiki-bg.png;
#LYRICSPATH:;
#CDTITLE:!cdtitle.png;
#MUSIC:wintershiki.mp3;
#OFFSET:-0.040;
#SAMPLESTART:32.580;
#SAMPLELENGTH:14.000;
#SELECTABLE:YES;
#BPMS:0.000=170.000;
#STOPS:;
#BGCHANGES:;
// cache tags:
#FIRSTBEAT:4.000;
#LASTBEAT:386.000;
#SONGFILENAME:Songs/Fabulously Fresh Flock of Fantastic Files F5/(Gamepro) Winter Shiki/Winter Shiki.sm;
#HASMUSIC:1;
#HASBANNER:1;
#MUSICLENGTH:138.021;
// end cache tags

//---------------dance-single - ----------------
#NOTES:
     dance-single:
     :
     Hard:
     11:
     1.000,1.000,1.000,0.217,1.000,1081.000,153.000,30.000,0.000,0.000:  // measure 1
0000
0000
0000
0000
,  // measure 2
1001
1000
1000
1000
,  // measure 3
1000
1000
1000
1000
,  // measure 4
0101
0100
0100
0100
,  // measure 5
0100
0100
0100
0100
,  // measure 6
1010
0010
0010
0010
,  // measure 7
0010
0010
0010
0010
,  // measure 8
1001
0001
0001
0001
,  // measure 9
0001
0001
0001
0001
,  // measure 10
1001
0100
0010
0000
1001
0000
0100
0010
0001
1000
0010
0000
0101
0000
1000
0010
,  // measure 11
0100
0001
1000
0000
0110
0000
0001
0100
1010
0000
1010
0000
0100
0000
0001
0000
,  // measure 12
1000
0100
0010
0000
1001
0000
0100
0010
0001
1000
0010
0000
0110
0000
0100
0001
,  // measure 13
1000
0100
0010
0000
0011
0000
0100
0010
1001
0000
1001
0000
0010
0000
0100
0000
,  // measure 14
0001
1000
0010
0000
0101
0000
1000
0100
1000
0010
0100
0000
0110
0000
0001
1000
,  // measure 15
0100
1000
0010
0000
1010
0000
0010
1000
0101
0000
0101
0000
0001
0000
1000
0000
,  // measure 16
0100
0010
0001
0000
1100
0000
0010
0100
1000
0010
0100
0000
0110
0000
0010
0100
,  // measure 17
0001
1000
0100
0000
1100
0000
0010
0100
1001
0000
1001
0000
0001
0000
0100
0000
,  // measure 18
0010
1000
0100
0000
0110
0000
0010
0001
1000
0010
0100
0000
0101
0000
0001
0100
,  // measure 19
0010
1000
0100
0000
1100
0000
0010
0100
0011
0000
0011
0000
1000
0000
0100
0000
,  // measure 20
0010
0100
1000
0000
1010
0000
0010
0100
0001
1000
0001
0000
1001
0000
0001
1000
,  // measure 21
0100
0010
0100
0000
0110
0000
0010
0001
1100
0000
1100
0000
0010
0000
0001
1000
,  // measure 22
0101
0010
0100
1000
0100
0010
0100
1000
0100
0010
0100
1000
0100
0010
0100
1000
,  // measure 23
0011
0100
0010
0100
0001
0100
0010
0100
0001
0100
0010
0100
0001
0100
0010
0100
,  // measure 24
1001
0000
0100
0010
0001
1000
0100
0010
0001
0000
1000
0000
1000
0001
1000
0001
,  // measure 25
0110
0001
1100
0010
1001
0100
0011
1000
,  // measure 26
0101
0000
0010
1000
0010
0100
0001
1000
0100
0000
0010
0000
0010
0001
0010
0001
,  // measure 27
1100
0001
0110
1000
0110
0001
1100
0010
,  // measure 28
0101
0000
1000
0100
0010
0100
1000
0001
0100
0000
0001
0000
0001
1000
0001
1000
,  // measure 29
0110
1000
0011
1000
0110
0001
1100
0010
,  // measure 30
1001
0000
0100
0010
0001
1000
0010
0100
0010
0000
0100
0000
0100
0001
0100
0001
,  // measure 31
1100
0000
0010
0000
0101
0000
0010
0000
1100
0010
0001
1000
0110
0001
1000
0010
,  // measure 32
0101
1000
0100
1000
0010
0100
0001
0010
0100
1000
0010
0100
0001
1000
0010
0100
,  // measure 33
0010
1000
0100
0010
0001
0010
0100
1000
0001
0100
0010
0100
0001
1000
0100
0010
,  // measure 34
0002
0000
0000
0000
0000
1003
0010
0100
0001
1000
0100
0010
0001
1000
0100
0010
,  // measure 35
0001
1000
0100
1000
0010
0100
0001
0100
0010
1000
0100
0010
0100
1000
0001
0100
,  // measure 36
0010
1000
0100
0010
0001
0010
0100
1000
0001
0100
0010
0100
0001
1000
0100
0010
,  // measure 37
0002
0000
0000
0000
0000
0103
0010
1000
0100
1000
0010
0100
0001
0010
0100
1000
,  // measure 38
0010
0100
0001
0010
0100
1000
0001
0100
0001
1000
0100
0010
0001
0100
0010
1000
,  // measure 39
0100
1000
0010
0100
0001
1000
0100
1000
0010
0100
0001
0010
0100
1000
0010
0100
,  // measure 40
0020
0000
0000
0000
0000
1030
0100
0010
0001
1000
0010
0100
0001
1000
0010
0100
,  // measure 41
0001
1000
0100
1000
0010
0100
0001
0010
0001
0100
0010
1000
0100
0010
0001
0100
,  // measure 42
0001
0010
0100
0010
0001
0100
0010
1000
0010
0100
0001
1000
0001
0100
0010
1000
,  // measure 43
0101
1000
0100
1000
0010
0100
0001
0010
0001
0100
0010
1000
0100
0010
0001
1000
,  // measure 44
0110
0001
1000
0010
0100
0001
0010
0100
1000
0010
0100
0010
1000
0100
0010
0001
,  // measure 45
0110
1000
0100
0010
1001
0010
0100
0001
1100
0010
0001
1000
0110
0001
1000
0100
,  // measure 46
0011
0000
0000
1000
0000
0000
0001
0000
0000
1000
0000
0000
0001
0000
0000
1000
0000
0000
0001
0000
0000
1000
0000
0000
0001
0000
0000
1000
0000
0000
0001
0000
0000
1000
0000
0000
0001
0000
1000
0000
0100
0000
0010
0000
0001
0000
1000
0000
,  // measure 47
0110
0100
0100
0100
,  // measure 48
0001
0100
0001
0100
0001
0100
0001
0100
0001
0100
0001
0100
0001
0100
0001
0100
,  // measure 49
0010
0010
0010
0010
,  // measure 50
1000
0100
1000
0100
1000
0100
1000
0100
1000
0100
1000
0100
1000
0100
1000
0100
,  // measure 51
0010
0010
0010
0010
,  // measure 52
0001
0010
0001
0010
0001
0010
0001
0010
0001
0010
0001
0010
0001
0010
0001
0010
,  // measure 53
0200
0000
0000
0000
0000
0000
0000
0300
,  // measure 54
1000
0010
1000
0010
1000
0010
1000
0010
1000
0010
1000
0010
1000
0010
1000
0010
,  // measure 55
0100
0001
0100
0001
0100
0001
0100
0001
0100
0001
0100
0001
0100
0001
0100
0001
,  // measure 56
1100
0001
0010
0000
0101
0000
1000
0100
1000
0010
0100
0000
0110
0000
0001
1000
,  // measure 57
0100
0010
0001
0000
1010
0000
0100
0001
1100
0000
1100
0000
0010
0000
0100
0000
,  // measure 58
0001
0010
0100
0000
1010
0000
0100
0001
1000
0100
0010
0000
0110
0000
0100
0010
,  // measure 59
0001
1000
0100
0000
1100
0000
0010
0100
0011
1000
0011
0000
1000
0001
1000
0001
,  // measure 60
0110
0000
1000
0000
0101
0000
0010
1000
0100
0010
0001
0000
0011
0000
0100
1000
,  // measure 61
0010
0100
0001
0000
0101
0000
0010
1000
0110
0000
0110
0000
0001
0000
1000
0000
,  // measure 62
0100
0010
0001
0000
1010
0000
0100
0001
1000
0100
0010
0000
1001
0000
0010
0100
,  // measure 63
0001
1000
0100
0000
1100
0000
0001
0100
1010
0000
1010
0000
0100
0000
0001
0000
,  // measure 64
1000
0100
0010
0000
0011
0000
0100
1000
0100
0010
0001
0000
1010
0000
0100
0001
,  // measure 65
1000
0100
0010
0000
0110
0000
0001
1000
0101
0000
0101
0000
0010
0000
1000
0000
,  // measure 66
1001
0010
0001
1000
0100
0010
0001
1000
0010
0100
0010
1000
0100
0010
0001
0100
,  // measure 67
1001
1010
1010
0110
0110
0101
0101
1100
,  // measure 68
2200
3300
0202
0303
0220
0330
2020
3030
,  // measure 69
0011
1100
1100
0110
0110
0011
0011
0101
,  // measure 70
0202
0303
2200
3300
0220
0330
0022
0033
,  // measure 71
1001
0110
0110
0101
0101
1100
1100
0110
,  // measure 72
0220
0330
2200
3300
0022
0033
0220
0330
,  // measure 73
1000
0010
1000
0010
1000
0010
1000
0010
1000
0010
1000
0010
1000
0010
1000
0010
,  // measure 74
0100
0001
0100
0001
0100
0001
0100
0001
0100
0001
0100
0001
0100
0001
0100
0001
,  // measure 75
1000
0100
1000
0100
1000
0100
1000
0100
1000
0100
1000
0100
1000
0100
1000
0100
,  // measure 76
0010
0100
0010
0100
0010
0100
0010
0100
0010
0100
0010
0100
0010
0100
0010
0100
,  // measure 77
1000
0001
1000
0001
1000
0001
1000
0001
1000
0001
1000
0001
1000
0001
1000
0001
,  // measure 78
0010
0001
0010
0001
0010
0001
0010
0001
0010
0001
0010
0001
0010
0001
0010
0001
,  // measure 79
1000
0010
1000
0010
1000
0010
1000
0010
1000
0010
1000
0010
1000
0010
1000
0010
,  // measure 80
0100
0010
0100
0010
0100
0010
0100
0010
0100
0010
0100
0010
0100
0010
0100
0010
,  // measure 81
1001
0000
0100
0010
0001
1000
0010
0100
0010
0000
1000
0000
1000
0000
1000
0000
,  // measure 82
0110
0001
1010
0100
0011
1000
0110
0001
,  // measure 83
1100
0000
0010
0001
0100
0010
0100
0001
1000
0000
0100
0000
0100
0000
0100
0000
,  // measure 84
0011
1000
0110
0001
1010
0100
0011
1000
,  // measure 85
0110
0000
0001
1000
0010
0100
0010
1000
0100
0000
0010
0000
0010
0000
0010
0000
,  // measure 86
1100
0001
0110
1000
0101
0010
1100
0010
,  // measure 87
1001
0000
0100
0010
1000
0010
0100
0001
0010
0000
0001
0000
0001
0000
0001
0000
,  // measure 88
1000
0010
0100
0001
1000
0100
0010
0001
1000
0010
0100
0001
1000
0100
0010
0001
,  // measure 89
1100
0010
0100
1000
0001
0100
0010
0100
0001
1000
0100
0010
0001
0010
0100
1000
,  // measure 90
0110
0001
1000
0010
0100
0001
0010
0100
1000
0010
0100
0010
1000
0100
0010
0001
,  // measure 91
1010
0100
0001
1000
0100
1000
0010
0100
0001
0010
0100
0010
0001
1000
0010
0100
,  // measure 92
0011
1000
0100
0010
0001
0100
0010
1000
0001
0010
0100
0010
0001
1000
0010
0100
,  // measure 93
1001
0100
1000
0100
0010
0001
0100
0010
1000
0001
0010
0100
1000
0001
0100
0010
,  // measure 94
1100
0010
0001
1000
0010
0100
0001
0010
0100
1000
0001
0100
0010
0100
0001
1000
,  // measure 95
0220
0000
0000
0000
,  // measure 96
0000
0000
0000
0000
,  // measure 97
0000
0000
0330
0000
;
