#TITLE:Reactor;
#SUBTITLE:;
#ARTIST:Jason Creasey;
#TITLETRANSLIT:;
#SUBTITLETRANSLIT:;
#ARTISTTRANSLIT:;
#CREDIT:;
#BANNER:Reactor-banner.png;
#BACKGROUND:Reactor-bg.png;
#LYRICSPATH:;
#CDTITLE:;
#MUSIC:music.ogg;
#OFFSET:0.000;
#SAMPLESTART:30.680;
#SAMPLELENGTH:11.960;
#SELECTABLE:YES;
#BPMS:0.000=125.000;
#STOPS:29.000=0.960
,179.000=0.960
;
#BGCHANGES:-10000.000=songbackground=1.000=0=0=1,
0.000=Reactor-bg.png=1.000=0=0=1,
16.000=In The Groove 2/953_JumpBack.mpg=1.000=0=0=1,
30.000=In The Groove 2/828_JumpBack.mpg=1.000=0=0=1,
46.000=In The Groove 2/628_JumpBack.mpg=1.000=0=0=1,
94.000=In The Groove 2/779_JumpBack.mpg=1.000=0=0=1,
110.000=In The Groove 2/803_JumpBack.mpg=1.000=0=0=1,
179.000=Reactor-bg.png=1.000=0=0=1,
180.000=In The Groove 2/953_JumpBack.mpg=1.000=0=0=1,
196.000=In The Groove 2/864_JumpBack.mpg=1.000=0=0=1,
200.000=In The Groove 2/959_JumpBack.mpg=1.000=0=0=1,
204.000=In The Groove 2/909_JumpBack.mpg=1.000=0=0=1,
208.000=In The Groove 2/859_JumpBack.mpg=1.000=0=0=1,
212.000=Reactor-bg.png=1.000=0=0=1,
99999=-nosongbg-=1.000=0=0=0 // don't automatically add -songbackground-
;
// cache tags:
#FIRSTBEAT:15.500;
#LASTBEAT:216.000;
#SONGFILENAME:Songs/In The Groove 2 (Official)/Reactor/Reactor.sm;
#HASMUSIC:1;
#HASBANNER:1;
#MUSICLENGTH:109.439;
// end cache tags

//---------------dance-single - K. Ward----------------
#NOTES:
     dance-single:
     K. Ward:
     Hard:
     7:
     0.401,0.444,0.393,0.210,0.059,241.000,43.000,23.000,13.000,0.000:












0000
0000
0000
0000
,
0000
0000
0000
0000
,
0000
0000
0000
0000
,
0000
0000
0000
0000
,
0000
0000
0001
0011
0000
0000
0100
1100
,
0000
0000
0100
0110
0000
0100
1000
0020
,
0000
0130
0000
0000
,
0000
0000
0002
0000
0013
0000
0100
0110
,
0000
0000
0100
1100
0000
0000
0010
0011
,
0000
0000
0010
0100
0001
0000
0020
0000
0000
0000
0030
0000
00M0
0000
0000
0000
,
0000
0000
0000
0000
0000
0000
0000
0110
,
0000
0000
0000
0000
1100
0000
0000
0000
0000
0000
0000
0000
1001
0000
0000
0000
0000
M00M
0000
0000
0000
0000
0000
0000
1000
0000
0000
0000
1100
0000
0000
0000
,
0000
0000
0001
0011
0000
0000
0100
0110
,
0000
0010
0100
2000
0000
0000
3200
0000
,
0000
0000
0010
0301
,
0010
0100
1001
0000
1000
0010
0001
0010
,
0100
0010
1000
0000
0001
0010
1000
0010
,
0001
0000
0100
0001
0010
0000
0000
0000
0100
0000
1000
0000
0010
0000
0100
0000
,
0001
0010
0110
0000
1000
0010
0100
0001
,
0000
0010
0200
1000
1300
0000
0010
0110
,
0000
0MM0
0000
0000
0000
0000
0000
0000
0001
0000
0000
0000
0011
0000
0000
0000
0000
00MM
0000
0000
0000
0000
0000
0000
1000
0000
0000
0000
1010
0000
0000
0000
,
0000
M0M0
0000
0000
0010
0000
0000
0000
0100
0000
0000
0000
0002
0000
0000
0000
0000
0000
0000
0000
0000
0000
0000
0000
0013
0000
0000
0000
0000
0000
0000
0000
,
0000
0000
0011
0000
0000
1000
1100
0000
,
0010
0100
0000
0100
0001
0000
0000
0000
0001
0000
0010
0000
0100
0000
0010
0000
,
0001
0010
0100
0010
0100
1000
0100
0010
,
0100
1000
0010
0001
0000
0010
0000
0100
,
0000
1100
0000
0110
0000
0001
1001
0000
,
1000
0200
0000
1300
0000
0010
0010
0100
,
0000
1000
0000
0100
0110
0000
0100
0101
,
0000
0010
0001
0110
0000
1100
0000
0011
,
0000
0110
0000
1001
0000
0100
0000
0010
,
0100
0001
0000
1000
1000
0100
0001
0000
,
1000
0100
0001
0000
0001
0100
1000
0010
,
0001
0010
1000
0100
2002
0000
0000
0000
,
0000
0000
0000
0000
3003
M00M
0000
0000
,
0000
0000
2200
0000
,
0000
3000
0020
0300
,
0002
0000
0030
0000
1003
0000
0010
0100
,
0000
0000
0001
0010
0000
0000
0100
1000
,
0000
0010
0100
0220
0000
0000
0000
0000
,
0000
0000
0000
0000
0330
0MM0
0000
0101
,
0000
0011
0000
1010
0000
0000
0010
0110
,
0000
0000
1000
1100
0000
0000
0001
0011
,
0000
0100
0010
1000
0000
0000
0220
0000
,
0000
0000
0000
0000
0330
0000
2002
3003
,
1000
0010
0001
0010
1000
0100
0001
0100
,
1000
0000
0010
0000
0001
0000
0010
0000
1000
0000
0100
0000
0001
0000
0100
1000
,
0010
0100
0001
0010
0001
0100
1000
0100
,
0010
0100
0001
0010
0100
0100
0020
0001
,
0031
0100
1000
0100
0001
0010
0100
0010
,
0001
0000
0100
0000
1000
0000
0100
0000
0001
0000
0010
0000
0100
0000
0010
0001
,
0100
0010
0110
0000
1000
0100
1100
0000
,
0100
0010
0100
0000
0010
0001
0010
0000
0100
1000
0100
0000
0010
0000
0000
0000
,
2002
0000
0000
0000
,
3003
0000
0000
0000
;

//---------------dance-single - K. Ward----------------
#NOTES:
     dance-single:
     K. Ward:
     Medium:
     5:
     0.275,0.345,0.210,0.137,0.000,173.000,23.000,15.000,0.000,0.000:

0000
0000
0000
0000
,
0000
0000
0000
0000
,
0000
0000
0000
0000
,
0000
0000
0000
0000
,
0000
0000
0001
0001
0000
0000
0100
0100
,
0000
0000
0010
0010
0000
1000
0100
0010
,
0000
0100
0000
0000
,
0000
0000
2000
0000
3001
0000
1000
0100
,
0000
0000
0100
0010
0000
0000
0010
0001
,
0000
1000
0001
1000
0000
0000
0000
0000
,
0000
0000
0000
0000
0000
0000
0000
0010
,
0000
0100
0000
0001
0000
0000
0010
0010
,
0000
0000
0100
0100
0000
0000
1000
1000
,
0000
0100
0010
0100
0000
0000
1001
0000
,
0000
0000
0000
0000
,
1000
0001
1000
0001
0010
0000
0100
0010
,
0000
0000
0100
1000
0000
0000
0001
0001
,
0000
0100
0010
0100
0002
0000
0100
0000
,
0013
0000
2000
0100
,
3100
0000
0000
0000
0001
0000
1000
1000
,
0000
0000
0001
0001
0000
0000
0100
0100
,
0000
0010
0010
0010
0000
0000
1001
0000
,
0000
0000
0100
0010
1000
0000
1000
0000
,
0010
0100
0001
0000
0010
0000
0001
0000
,
0100
0000
1000
0000
0010
0100
0001
0000
,
0010
0000
0100
0000
1000
0100
0010
0000
,
0100
0010
0001
0000
1000
0000
0010
0000
,
0100
0001
0000
1000
0000
0100
0000
1000
,
0000
0001
0000
0010
0001
0000
1000
0000
,
0010
0100
0001
0000
1100
0000
0010
0000
,
1001
0100
0110
0001
,
1100
0011
2002
0000
,
3003
0000
0000
0000
1000
0100
1000
0100
,
0010
0100
2002
0000
,
3003
0000
0000
0000
,
0000
0000
2000
0000
,
0000
0000
0000
0000
,
0000
0000
0000
0000
3001
0000
0100
0010
,
0000
0000
1000
0010
0000
0000
0100
0001
,
0000
0010
0000
1001
0000
0000
0000
0000
,
0000
0000
0000
0000
0000
0000
0000
0100
,
0000
0010
0000
1000
0000
0000
0001
0001
,
0000
0000
0100
0100
0000
0000
0010
0010
,
0000
1000
0100
0010
0000
0000
0101
0000
,
0000
0000
0000
0020
,
0130
1100
0010
0110
,
0001
0011
0100
1100
,
0010
1001
0100
0110
,
0010
1001
0000
0110
,
0002
0100
0013
0110
,
2000
0010
3100
0110
,
0002
0100
0013
1001
,
0200
0010
0001
0310
,
2002
0000
0000
0000
,
3003
0000
0000
0000
;

//---------------dance-single - M. Puls----------------
#NOTES:
     dance-single:
     M. Puls:
     Beginner:
     1:
     0.087,0.121,0.055,0.000,0.000,61.000,6.000,0.000,0.000,0.000:



0000
0000
0000
0000
,
0000
0000
0000
0000
,
0000
0000
0000
0000
,
0000
0000
0000
0000
,
1000
0000
0000
0000
,
0010
0000
0000
0000
,
0100
0000
0000
0000
,
0000
1001
1000
0000
,
1000
0000
1000
0000
,
1000
0000
1000
0000
,
0000
0000
0000
0000
,
0000
0000
0001
0000
,
0001
0000
0001
0000
,
0001
0000
0001
0000
,
0000
0000
0000
0000
,
0000
0000
0100
0000
,
0000
0000
0010
0000
,
0000
0000
1000
0000
,
0000
0000
0001
0000
,
0000
0000
1000
0000
,
0001
0000
1000
0000
,
0001
0000
1000
0000
,
0000
0000
0000
0000
,
1001
0000
0010
0000
,
0000
0000
0100
0000
,
0000
0000
0001
0000
,
0000
0000
1000
0000
,
0000
0000
0100
0000
,
0000
0000
1000
0000
,
0000
0000
0010
0000
,
0100
0000
0010
0000
,
0000
0000
1001
0000
,
0000
0000
0100
0000
,
0010
0000
0100
0000
,
0000
0000
0000
0000
,
0000
0000
0010
0000
,
0000
0000
0000
0000
,
0000
0000
1000
0000
,
0000
0000
0000
0000
,
0000
0000
0001
0000
,
0000
0000
0000
0000
,
0000
0000
0100
0000
,
0000
0000
0010
0000
,
0000
0000
0100
0000
,
0000
0000
0000
1001
,
0000
1000
0000
1000
,
0000
0001
0000
1000
,
0000
0001
0000
0001
,
0000
1000
0000
1000
,
0000
0100
0000
0100
,
0000
0010
0000
0010
,
0000
0100
0000
1000
,
0000
0001
0000
1001
,
1001
0000
0000
0000
;

//---------------dance-single - K. Ward----------------
#NOTES:
     dance-single:
     K. Ward:
     Easy:
     3:
     0.235,0.247,0.201,0.046,0.000,153.000,22.000,5.000,0.000,0.000:











0000
0000
0000
0000
,
0000
0000
0000
0000
,
0000
0000
0000
0000
,
0000
0000
0000
0000
,
0000
0010
0000
1000
,
0000
0001
0000
1000
,
0000
1001
0000
0000
,
0000
0000
1000
1000
,
1000
0010
0001
0001
,
0001
0100
1000
1000
,
0001
0001
1000
1001
,
0000
0110
0000
0001
,
0010
0001
0001
0100
,
0010
1000
1000
0110
,
0000
1001
0000
0010
,
0011
0000
0000
0000
1000
0100
1000
0000
,
0010
0000
0100
0000
0001
0010
0001
0000
,
0010
0100
1000
1000
,
0010
0010
0100
0100
,
0010
0000
1100
0000
0000
0000
0001
0010
,
0001
0000
0100
0000
0010
0000
1000
0100
,
1000
0010
0100
0100
,
0100
0100
0010
0010
,
1001
0000
0010
0100
,
1000
0001
0010
0100
,
1000
0010
0100
0001
,
1000
0100
0010
0001
,
0100
0010
0001
1000
,
0010
0100
0001
0010
,
0100
0010
0011
0000
,
1100
0000
0110
0000
,
1001
0000
0010
0100
,
0100
1000
0010
1100
,
0010
1100
0220
0000
,
0000
0000
0000
0330
,
0000
0000
0002
0000
,
0000
0000
0000
0003
,
0000
0000
1000
1000
,
0010
0010
0100
0100
,
0001
1000
1001
0000
,
0000
0000
0000
0000
,
0000
0000
0010
0001
,
0100
0010
1000
0100
,
1000
0001
0010
0110
,
0000
0000
0000
0000
,
1000
0000
1000
0000
1000
0010
0100
0000
,
0100
0000
0100
0000
0100
0001
0010
0000
,
0010
0001
0100
1000
,
0000
1100
0000
0011
,
0000
1000
0100
0010
,
0000
0001
0010
0100
,
0000
0000
1000
0000
0010
0100
0001
0000
,
1000
1100
0000
0011
,
2002
0000
0000
0000
,
3003
0000
0000
0000
;

//---------------dance-double - M. Emirzian----------------
#NOTES:
     dance-double:
     M. Emirzian:
     Easy:
     2:
     0.115,0.170,0.027,0.027,0.000,82.000,3.000,3.000,0.000,0.000:











00000000
00000000
00000000
00000000
,
00000000
00000000
00000000
00000000
,
00000000
00000000
00000000
00000000
,
00000000
00000000
00000000
00000000
,
00010000
00000000
00000000
10000000
,
01000000
00000000
00000000
00100000
,
00010000
01000000
00000000
00022000
,
00000000
00033000
00010000
00000000
,
00000000
00001000
00010000
00000000
,
00000000
00000010
00001000
00000000
,
00000000
00000001
00000100
00000000
,
00000000
00000010
00001000
00000000
,
00000000
00000100
00010000
00000000
,
00000000
00001000
01000000
00000000
,
00010000
00000000
00100000
00000000
,
01000000
00000000
10000000
00000000
,
00000000
00010000
01000000
00000000
,
00000000
00100000
10000000
00000000
,
00000000
01000000
00100000
00000000
,
00000000
00001000
00010000
00000000
,
00000000
00000100
00001000
00000000
,
00000000
00000001
00000100
00000000
,
00000010
00000000
00001000
00000000
,
00000100
00000000
00000010
00000000
,
00000000
00000001
00000100
00000000
,
00000000
00000010
00001000
00000000
,
00000000
00000100
00010000
00000000
,
00000000
00001000
01000000
00000000
,
00000000
00010000
00100000
00000000
,
00000000
01000000
10000000
00000000
,
00000000
00100000
01000000
00000000
,
00000000
00010000
10000000
00000000
,
00000000
00001000
00010000
00000000
,
00000000
00000001
00002000
00000000
,
00000000
00000000
00000000
00000000
,
00000000
00000000
00000000
00000000
,
00000000
00000000
00000000
00000000
,
00000000
00003000
00010000
00000000
,
00000000
00000000
00000000
00000000
,
00000000
00000000
00000000
00000000
,
00000000
00000000
00000000
00000000
,
00000000
00000000
00001000
00000000
,
00000000
00000000
00000000
00000000
,
00000000
00000000
00000000
00000000
,
00000000
00000000
00000000
00011000
,
00010000
00000000
00100000
00000000
,
10000000
00000000
01000000
00000000
,
00100000
00000000
00001000
00000000
,
00010000
00000000
01000000
00000000
,
00010000
00000000
00001000
00000000
,
00010000
00000000
00000100
00000000
,
00000010
00000000
00000001
00000000
,
00000100
00000010
00001000
00000100
,
00001001
00000000
00000000
00000000
;

//---------------dance-double - M. Emirzian----------------
#NOTES:
     dance-double:
     M. Emirzian:
     Medium:
     5:
     0.294,0.363,0.210,0.219,0.000,178.000,23.000,24.000,0.000,0.000:




00000000
00000000
00000000
00000000
,
00000000
00000000
00000000
00000000
,
00000000
00000000
00000000
00000000
,
00000000
00000000
00000000
00000000
00000000
00000000
00000000
10010000
,
00000000
00000000
10000000
01000000
00000000
00000000
10000000
00100000
,
00000000
00000000
10000000
01000000
00000000
00100000
00010000
01000000
,
00000000
00011000
00000000
00002020
,
00000000
00000000
00003030
00000000
00000001
00000000
00000010
00000001
,
00000000
00000000
00000100
00000001
00000000
00000000
00000010
00000001
,
00000000
00001000
00000000
00001100
00000000
00000000
00000020
00000000
,
00020030
00000000
00032000
00000000
02003000
00000000
03000000
00010000
,
00000000
00100000
00000000
11000000
00000000
00000000
00010000
01000000
,
00000000
00000000
00010000
00100000
00000000
00000000
00010000
01000000
,
00000000
00100000
10000000
01000000
00000000
00000000
00110000
00000000
,
00020000
02030000
03002000
00023000
,
00030100
00001000
00000020
00000000
00010030
00000000
00001000
00010000
,
00000000
00000000
00000100
00010000
00000000
00000000
00001000
00010000
,
00000000
00000100
00000000
00001100
00000000
00000000
00000020
00000000
,
00000230
00000000
00000302
00000000
00000023
00000000
00000030
00000100
,
00000000
00001000
00000000
00001010
00000000
00000000
00000010
00010000
,
00000000
00000000
00001000
00010000
00000000
00000000
00000010
00010000
,
00000000
00001000
01000000
00010000
00000000
00000000
00110000
00000000
,
02000000
23000000
30200000
02300000
,
03010000
10000000
02000000
00000000
03100000
00000000
00010000
01000000
,
00000000
00001000
00000000
00010000
00000000
00000000
01000000
00000000
,
00010000
00001000
00010000
00000100
00000000
00001000
00000000
00001010
,
00000000
00000100
00000000
00001001
00000000
00000000
00000100
00000000
,
00000010
00000001
00000000
00000100
00000000
00000010
00000000
00001010
,
00000000
00000100
00000000
00010000
00001000
00000000
00010000
00000100
,
00000000
00010000
00000000
00001000
00000000
01001000
00000000
00010000
,
00000000
00100000
00000000
11000000
00000000
00100000
00000000
01000000
,
00010000
10000000
00000000
01000000
00000000
00100000
00000000
01010000
,
00000000
00100000
00000000
01000000
00000000
01001000
00000000
00010000
,
00000000
00100000
00000000
00202000
00000000
00000000
00000000
00000000
,
00000000
00000000
00000000
00000000
,
00000000
00000000
00000000
00000000
,
00000000
00000000
00000000
00000000
,
00000000
00303000
00010000
00000000
,
00000000
00000000
00000000
00000000
,
00000000
00000000
00001000
00000000
,
00000000
00000000
00000000
00000000
,
00000000
00000000
00010000
00000000
,
00000000
00000000
00000000
00000000
,
00000000
00000000
00001000
00000000
,
00000000
00000000
00000000
00000000
00000000
00000000
00022000
00033000
,
00010000
00000100
00001000
00000100
00000010
00000000
00000001
00000100
,
00000010
00001000
00000100
00000000
00010000
00001000
00000010
00000000
,
00001000
00010000
00000100
00010000
00001000
00000000
01000000
00100000
,
10000000
00100000
10000000
00000000
01000000
00100000
00010000
00000000
,
01000000
00001000
01000000
00010000
00100000
00000000
01000000
00010000
,
00001000
00010000
00001000
00000000
00000010
00000100
00001000
00000000
,
00000001
00000100
00000010
00001000
00000100
00000000
00000010
00000001
,
00000110
00001100
00010100
00011000
,
01001000
00000000
00000000
00000000
;

//---------------dance-double - M. Emirzian----------------
#NOTES:
     dance-double:
     M. Emirzian:
     Hard:
     7:
     0.362,0.436,0.210,0.055,0.000,248.000,23.000,6.000,2.000,2.000:











00000000
00000000
00000000
00000000
,
00000000
00000000
00000000
00000000
,
00000000
00000000
00000000
00000000
,
00000000
00000000
00000000
00000000
00000000
00000000
00000000
10000000
,
00000000
00000000
01000000
01000000
00000000
00000000
00000010
00000010
,
00000000
00000000
01000000
01000000
00000000
00100000
00001000
00000100
,
00000000
00000001
00000000
00002200
,
00000000
00000000
00013300
00000000
00000001
00000100
00000010
00001000
,
00000000
00000100
00010000
00000100
00000000
01000000
00001000
01000000
,
00000000
00010000
00100000
01000000
00010000
00001000
01000000
00000000
,
00100000
10000000
01000000
00000000
00100000
00010000
01000000
10000000
,
01000000
00010000
00100000
00001000
00000000
01000000
00001000
01000000
,
00000000
00000010
00010000
00000010
00000000
00000100
00001000
00010000
,
00000000
00001000
00000010
00000100
00001000
00000001
00000010
00000000
,
00000100
00001000
00000010
00000000
00000100
00000001
00000100
00001000
,
00010000
00100000
00010000
00000000
00001000
00010000
00001000
00000100
,
00000000
00001000
01000000
00001000
00000000
00010000
00000010
00010000
,
00000000
00001000
00010000
01000000
00100000
00010000
10000000
00000000
,
00100000
10000000
01000000
00000000
00100000
10000000
00100000
00010000
,
01000000
00100000
00010000
00001000
00000000
00100000
01000000
00010000
,
00000000
00000010
00010000
00000010
00000000
01000000
00001000
01000000
,
00000000
00001000
00010000
00000100
00000010
00000001
00000100
00000000
,
00000010
00001000
00000100
00000000
00000010
00000001
00000100
00001000
,
00000100
00000001
00000010
00000000
00000100
00001000
00000010
00000100
,
00001000
00010000
00000100
00010000
00000000
00001000
00010000
00100000
,
01000000
00001000
00010000
01000000
00000000
11000000
00000000
00100000
,
00000000
01010000
00000000
00100000
00000000
01000000
10000000
00100000
,
01000000
00100000
00010000
00001000
00100000
00010000
00000000
01010000
,
00000000
00001000
00000000
00011000
00010010
00000000
00001100
00001001
,
00000000
00001010
00000000
00000100
00000000
00000011
00000000
00000100
,
00000000
00010100
00000000
00001000
00000000
00110000
00000000
00001000
,
00010000
00100000
00000000
01010000
00000000
00100000
00000000
11000000
,
00000000
00010000
00000000
01010000
00000000
00001000
00000000
00011000
,
00000000
00000010
00000000
00002002
00000000
00000000
00000000
00000000
,
00000000
00000000
00000000
00000000
,
00000000
00000000
00000000
00000000
,
00000000
00000000
00000000
00000000
,
00000000
00000000
00003003
00000000
00000001
00000000
00000000
00001000
,
00000000
00000000
00000000
00000100
00000000
00000000
00000000
00010000
,
00000000
00001000
00000000
01000000
00000000
00000000
00000000
00000000
,
0M00M000
00000000
00000000
00000000
00000000
00000000
00000000
00100000
,
00000000
10000000
00000000
01000000
00000000
00000000
00100000
00000000
,
00000000
00010000
00000000
01000000
,
00000000
00100000
10000000
00200000
,
00000000
00020000
00000000
01331000
,
10000000
00010000
10000000
00100000
00010000
00001000
00100000
01000000
,
00010000
00001000
00010000
00000010
00000100
00001000
00010000
00001000
,
00000010
00000100
00001000
00000010
00000001
00000010
00001000
00000100
,
00000001
00000100
00010000
00001000
01000000
00001000
00100000
00010000
,
10000000
01000000
00100000
01000000
00010000
00001000
01000000
10000000
,
01000000
00010000
01000000
00100000
00010000
00001000
00000010
00001000
,
00010000
00000100
00001000
00000001
00000100
00001000
00000100
00000010
,
00001010
00010010
00101000
01001000
,
00011000
00000000
00000000
00000000
;

//---------------dance-double - M. Emirzian----------------
#NOTES:
     dance-double:
     M. Emirzian:
     Challenge:
     10:
     0.484,0.823,0.256,0.055,0.224,337.000,28.000,6.000,0.000,2.000:











00000000
00000000
00000000
00000000
,
00000000
00000000
00000000
00000000
,
00000000
00000000
00000000
00000000
,
00000000
00000000
00000000
00000000
00000000
00000000
00000000
01000010
,
00000000
00000000
10000000
01000000
00000000
00000000
00000001
00000010
,
00000000
00000000
10000000
01000000
00000000
00000001
00000010
00000100
,
00000000
20020000
00000000
00000000
,
00000000
00000000
30030110
00000000
10000000
00001000
10000000
00100000
,
01000000
00000100
00100000
00001000
01000000
00000100
00010000
00100000
,
00010000
00000010
00010000
10000000
01000000
00001000
00000010
00000001
,
00001000
00000010
00000001
00000010
00010000
10000000
01000000
00000100
,
00000001
00001000
00010000
00100000
01000000
00000010
01000000
00100000
,
01000000
10000000
01000000
00000100
01000000
00001000
00000010
00000100
,
01000000
00000100
00001000
00000100
00100000
00000100
00000010
00000001
,
00000100
00001000
10000000
01000000
00010000
00001000
10001000
00000000
,
01000100
00000000
00100010
00000000
01000000
10000000
00001000
00000100
,
00001000
10000000
01000000
00010000
00000001
00010000
01000000
00100000
,
00001000
00000001
00000100
01000000
10000000
00010000
00000010
00000100
,
00000001
00001000
00000010
00010000
00000001
00001000
00100000
01000000
,
00000100
01000000
00001000
00100000
00000100
00100000
00001000
00010000
,
00000010
00000100
00100000
01000000
00000100
00000010
01000000
00100000
,
00000010
00000100
00000001
00100000
00001000
00010000
01000000
00100000
,
00000010
00000100
00001001
00000000
00010001
00000000
01000100
00000000
,
10001000
00000000
00100010
00000000
01000000
10000000
00010000
01000000
,
00100000
00010000
00000010
00000100
00000001
00010000
00001000
10000000
,
01000000
00100000
00001000
00000100
00000001
00000010
00000100
01000000
,
00100000
00000100
00000010
00100000
01000000
00010000
00000100
00000001
,
00001000
00100000
00001000
00000100
00001000
00010000
00100000
10000000
,
01000000
00010000
00000100
00010000
01000000
00100000
00000010
00100000
,
00001000
00000100
00001000
01000000
00000100
01000000
00001000
10000000
,
00001000
00100000
00000100
00100000
00000001
00010000
00000001
01000000
,
00000100
01000000
00000000
00001001
00000000
00011000
00000000
10010000
,
00000000
01000100
00000000
00001001
00000000
01001000
00000000
01100000
,
00000000
00000110
00000000
01000100
00022000
00000000
00000000
00000000
,
00000000
00000000
00000000
00000000
,
00000000
00000000
00000000
00000000
,
00000000
00000000
00000000
00000000
,
00000000
00000000
00033000
00000000
00000100
00000000
10000000
01000000
,
00000000
00000000
00000001
00000100
00000000
00000000
10000000
00100000
,
00000000
10000000
00000000
00000001
00000000
00000000
00000000
00000000
,
00000000
00000000
00000000
00000000
00000000
00000000
00000000
10000000
,
00000000
00000001
00000000
00100000
00000000
00000000
00100000
10000000
,
00000000
00000000
00000001
00000010
00000000
00000000
01000000
10000000
,
00000000
00000001
00000100
00000010
00000000
00000000
00220000
00000000
,
00000000
00000000
00000000
01331000
,
10000000
00010000
01000000
00001000
00000100
00000000
00000001
00001000
00000100
00010000
00100000
00000000
10000000
00010000
01000000
00001000
,
00000010
00000001
00001000
00000100
00000010
00000000
00000001
00001000
00000100
00010000
01000000
00000000
10000000
00010000
01000000
00001000
,
00000100
00000001
00001000
00000100
00001000
00000000
00000001
00001000
00000010
00010000
00001000
00000000
10000000
01000000
00100000
00010000
,
10000000
01000000
00100000
00001000
00000010
00000000
00000001
00001000
00000010
00010000
00001000
01000000
00010000
10000000
01000000
00100000
,
00010000
01000000
00001000
00010000
00000100
00001000
00000010
00000100
00000001
00000010
00000100
00001000
00000001
00000100
00000010
00001000
,
00000100
00010000
00001000
01000000
00010000
00100000
01000000
10000000
00100000
01000000
00010000
00100000
00001000
00000010
00000100
00001000
,
00000001
00000100
00000010
00010000
00001000
01000000
00100000
10000000
01000000
00100000
00010000
01000000
00001000
00010000
00000100
00001000
,
00001100
00001001
00100100
00011000
,
01000010
00000000
00000000
00000000
;
