#TITLE:Snake Stick;
#SUBTITLE:;
#ARTIST:DJ Yoshitaka VS. DJ Mass MAD Izm*;
#TITLETRANSLIT:;
#SUBTITLETRANSLIT:;
#ARTISTTRANSLIT:;
#CREDIT:ChaosUnown;
#BANNER:snake-bn.png;
#BACKGROUND:snake.png;
#LYRICSPATH:;
#CDTITLE:chaosunownCD.png;
#MUSIC:snake.ogg;
#OFFSET:0.006;
#SAMPLESTART:41.380;
#SAMPLELENGTH:12.000;
#SELECTABLE:YES;
#DISPLAYBPM:145.000;
#BPMS:0.000=145.000,28.750=290.000,30.500=58.000,30.625=290.000,31.000=145.000,31.500=58.000,31.625=290.000,32.000=145.000,162.000=290.000,163.000=58.000,163.250=290.000,164.000=145.000,264.000=290.000,264.750=58.000,265.000=145.000;
#STOPS:28.750=0.026
,28.875=0.026
,29.000=0.026
,29.125=0.026
,29.250=0.026
,29.375=0.025
,29.500=0.026
,29.625=0.026
,29.750=0.026
,29.875=0.026
,30.000=0.026
,30.125=0.025
,30.250=0.026
,30.375=0.026
,162.000=0.103
,162.500=0.104
;
#BGCHANGES:;
// cache tags:
#FIRSTBEAT:16.000;
#LASTBEAT:265.000;
#SONGFILENAME:Songs/Omnifarious/(ChaosUnown) Snake Stick/snake.sm;
#HASMUSIC:1;
#HASBANNER:1;
#MUSICLENGTH:112.235;
// end cache tags

//---------------dance-single - P. Mason----------------
#NOTES:
     dance-single:
     P. Mason:
     Challenge:
     13:
     1.000,1.000,0.107,0.365,1.000,808.000,12.000,41.000,62.000,0.000:

0000
0000
0000
0000
,
0000
0000
0000
0000
,
0000
0000
0000
0000
,
0000
0000
0000
0000
,
100M
0100
1000
0100
1000
0001
1000
0001
0100
0001
0100
0001
0100
0010
0100
0010
,
1000
0001
1000
0001
0010
0001
0010
0001
0010
0100
0010
0100
1000
0001
1000
0001
,
0100
0010
1000
0100
1000
0001
0010
0100
0010
0001
0100
0010
1000
0001
0010
0001
,
1000
0000
0000
0000
0000
0000
040M
000M
0340
0000
M000
0000
0034
0000
0M00
0M00
40M3
0000
0000
0000
3M20
0000
0000
0000
013M
0000
0000
0000
00M2
0000
M000
0000
,
M013
0000
0100
0000
1000
0001
0100
0010
1000
0001
0010
0100
0000
0100
1000
0001
,
0100
0010
0100
0000
0010
1000
0001
0010
0100
1000
0001
0100
0000
0100
0010
1000
,
0001
0000
0010
0000
0100
1000
0001
1000
0010
0100
0001
1000
0000
1000
0100
0010
,
0001
0000
0000
0000
0000
0000
0000
0000
0000
0000
0000
0000
1000
0000
0000
0000
0000
0000
0000
0000
0000
0000
0000
0000
0010
0000
0000
0000
0000
0000
0000
0000
0000
0000
0000
0000
0000
0000
0000
0000
0000
0000
0000
0000
0000
0000
0000
0000
0100
0000
0000
0000
0000
0000
0000
0000
0000
0000
0000
0000
0001
0000
0000
0000
0000
0000
0000
0000
0000
0000
0000
0000
1000
0000
0000
0000
0000
0000
0000
0000
0000
0000
0000
0000
0001
0000
0000
0000
0000
0000
0000
0000
0000
0000
0000
0000
0010
0000
0000
0000
0000
0000
0000
0000
0000
0000
0000
0000
0001
0000
0000
0000
0000
0000
1000
0000
0000
0000
0000
0000
0001
0000
0000
0000
0000
0000
0000
0000
0000
0000
0000
0000
1000
0000
0000
0000
0000
0000
0100
0000
0000
0000
0000
0000
1000
0000
0000
0000
0000
0000
0000
0000
0100
0000
0000
0000
0000
0000
0000
0000
1000
0000
0000
0000
0000
0000
0000
0000
0100
0000
0000
0000
0000
0000
0000
0000
1000
0000
0000
0000
0000
0000
0000
0000
0100
0000
0000
0000
0000
0000
0000
0000
,
100M
0000
0001
0000
0010
0100
1000
0001
0100
0010
0100
0001
0000
0001
1000
0100
,
1000
0001
0100
0000
0010
1000
0001
0010
0100
1000
0001
0100
0000
0100
0010
1000
,
0001
0000
0010
0000
0001
1000
0010
1000
0001
0010
0001
0100
0000
0100
0010
1000
,
0001
0000
0000
0000
0000
0000
0000
0000
0000
0000
0000
0000
0010
0000
0000
0000
0000
0000
0000
0000
0000
0000
0000
0000
0001
0000
0000
0000
0000
0000
0000
0000
0000
0000
0000
0000
0000
0000
0000
0000
0000
0000
0000
0000
0000
0000
0000
0000
1000
0000
0000
0000
0000
0000
0000
0000
0000
0000
0000
0000
0010
0000
0000
0000
0000
0000
0000
0000
0000
0000
0000
0000
0100
0000
0000
0000
0000
0000
0000
0000
0000
0000
0000
0000
0001
0000
0000
0000
0000
0000
0000
0000
0000
0000
0000
0000
0010
0000
0000
0000
0000
0000
0000
0000
0000
0000
0000
0000
0001
0000
0000
0000
0000
0000
1000
0000
0000
0000
0000
0000
0001
0000
0000
0000
0000
0000
0000
0000
0000
0000
0000
0000
0100
0000
0000
0000
0000
0000
0001
0000
0000
0000
0000
0000
0100
0000
0000
0000
0000
0000
0000
0000
0001
0000
0000
0000
0000
0000
0000
0000
0100
0000
0000
0000
0000
0000
0000
0000
0001
0000
0000
0000
0000
0000
0000
0000
0100
0000
0000
0000
0000
0000
0000
0000
0001
0000
0000
0000
0000
0000
0000
0000
,
M100
0010
0100
0000
0001
1000
0010
1000
0001
0010
0100
0010
0001
1000
0010
0100
,
0001
1000
0001
0000
0010
0100
0010
0001
0100
0010
1000
0001
0000
0001
0010
0100
,
1000
0000
0000
0000
0010
0000
1000
0000
0001
0000
0100
0010
0100
0010
0100
0000
0001
0000
1000
0000
0100
0000
1000
0001
1000
0000
0100
0000
0010
0000
0001
0000
,
0100
0000
0000
0000
0000
0000
0000
0000
0000
0000
0000
0000
0000
0000
0000
0000
0000
0000
0000
0000
0000
0000
0000
0000
0010
0000
0000
0000
0000
0000
0000
0000
0000
0000
0000
0000
0000
0000
0000
0000
0000
0000
0000
0000
0000
0000
0000
0000
1000
0000
0000
0000
0000
0000
0000
0000
0000
0000
0000
0000
0001
0000
0000
0000
0000
0000
0000
0000
0000
0000
0000
0000
0010
0000
0000
0000
0000
0000
0000
0000
0000
0000
0000
0000
0100
0000
0000
0000
0000
0000
0000
0000
0000
0000
0000
0000
0010
0000
0000
0000
0000
0000
0000
0000
0000
0000
0000
0000
0100
0000
0000
0000
0000
0000
1000
0000
0000
0000
0000
0000
0100
0000
0000
0000
0000
0000
0000
0000
0000
0000
0000
0000
1000
0000
0000
0000
0000
0000
0001
0000
0000
0000
0000
0000
1000
0000
0000
0000
0000
0000
0000
0000
0001
0000
0000
0000
0000
0000
0000
0000
1000
0000
0000
0000
0000
0000
0000
0000
0001
0000
0000
0000
0000
0000
0000
0000
1000
0000
0000
0000
0000
0000
0000
0000
0001
0000
0000
0000
0000
0000
0000
0000
,
1M00
0010
0200
0301
0010
0100
1000
0001
0100
0010
0100
0010
1000
0001
0010
0100
,
1000
0001
1000
0001
0100
0001
0100
0001
1000
0100
1000
0100
0010
0100
0010
0001
,
1000
0000
0001
0000
0100
0000
0010
0000
0100
0000
0001
1000
0001
1000
0001
0000
0010
0000
0100
0000
1000
0000
0001
0100
0001
0000
1000
0000
0100
0000
1000
0000
,
0001
0000
0000
0000
0000
0000
0000
0000
0000
0000
0000
0000
0100
0000
0000
0000
0000
0000
0000
0000
0000
0000
0000
0000
0010
0000
0000
0000
0000
0000
0000
0000
0000
0000
0000
0000
1000
0000
0000
0000
0000
0000
0000
0000
0000
0000
0000
0000
0001
0000
0000
0000
0000
0000
0000
0000
0000
0000
0000
0000
0010
0000
0000
0000
0000
0000
0000
0000
0000
0000
0000
0000
0100
0000
0000
0000
0000
0000
0000
0000
0000
0000
0000
0000
0010
0000
0000
0000
0000
0000
0000
0000
0000
0000
0000
0000
0001
0000
0000
0000
0000
0000
0000
0000
0000
0000
0000
0000
1000
0000
0000
0000
0000
0000
0100
0000
0000
0000
0000
0000
1000
0000
0000
0000
0000
0000
0000
0000
0000
0000
0000
0000
0001
0000
0000
0000
0000
0000
0100
0000
0000
0000
0000
0000
0001
0000
0000
0000
0000
0000
0000
0000
0100
0000
0000
0000
0000
0000
0000
0000
0001
0000
0000
0000
0000
0000
0000
0000
0100
0000
0000
0000
0000
0000
0000
0000
0001
0000
0000
0000
0000
0000
0000
0000
0100
0000
0000
0000
0000
0000
0000
0000
,
M001
0000
0000
0000
0000
M000
0000
000M
0000
M000
0000
0M00
0000
00M0
0000
0000
200M
0000
0M00
0000
00M0
0000
0M00
0000
00M0
0000
0M00
0000
00M0
0000
0M00
0000
,
3MM1
0000
0010
0000
0001
1000
0000
0001
0100
0000
0010
1000
0000
0100
0010
0100
,
1000
0001
0100
0000
0010
1000
0000
0001
0010
0000
0100
1000
0000
0001
0100
0001
,
1000
0100
0010
0000
0001
0010
0000
0100
0010
0000
0001
1000
0000
0010
1000
0010
,
0100
0001
1000
0000
0100
1000
0000
0001
0100
0000
0010
0100
M002
0000
0000
0000
,
0013
0100
1000
0000
0001
0100
0000
0010
0100
0000
0001
1000
0000
0100
0010
0001
,
1000
0010
0100
0000
0001
0010
0000
0100
0010
0000
0001
0100
0000
0010
1000
0001
,
0010
0100
0010
0000
0001
1000
0000
0010
1000
0000
0001
0010
0000
0100
1000
0001
,
1000
0010
0100
0000
0001
1000
0000
0100
0010
0000
0001
0100
0020
0000
0000
0000
,
1M3M
0001
1000
0001
0010
0100
0010
0100
1000
0000
0001
0100
0010
0000
1000
0001
,
0010
0000
0020
0000
0130
0000
1000
0001
0100
0000
0010
0000
2000
0000
0000
0000
,
31MM
0000
0200
0000
0310
0001
1000
0000
1000
0000
0010
1000
0000
1000
0000
0002
,
0023
0000
0000
0000
0000
0000
0130
0000
0000
1000
0000
0000
0002
0000
0000
0000
0000
0000
0203
0000
0000
0000
0000
0300
0100
0000
0000
0000
0000
0000
0010
0000
1000
0000
0001
0000
2000
0000
0000
0000
0000
0000
0000
0000
0000
0000
0000
0000
,
3MM1
0000
0000
0002
0000
0000
0013
0000
0000
0010
0000
0000
0100
0000
0000
1000
0001
1000
0010
0000
0000
0100
0000
0000
,
0100
0000
0001
0100
0000
0100
0000
0020
2030
0000
3001
0010
0200
0000
0000
0000
,
M31M
0000
0000
0000
0001
1000
0001
0000
1000
0010
1000
0000
0001
0000
0000
0000
0001
0000
0000
0000
0100
0000
0001
0000
0000
0000
0001
0000
0000
0000
2000
0000
,
3100
0000
0000
0000
0000
0000
0000
0000
1000
0000
0000
0000
0000
0000
0000
0000
0100
0000
0000
0000
0000
0000
0000
0000
1000
0000
0000
0000
0000
0000
0000
0000
0001
0000
0000
0000
0000
0000
0000
0000
0100
0000
0000
0000
0000
0000
0000
0000
0010
0000
0000
0000
0000
0000
0000
0000
0000
0000
0000
0000
0000
0000
0000
0000
0000
0000
0000
0000
0000
0000
0000
0000
0100
0000
0000
0000
0000
0000
0000
0000
0000
0000
0000
0000
0000
0000
0000
0000
0000
0000
0000
0000
0000
0000
0000
0000
0002
0000
0000
0000
0000
0000
0000
0000
0000
0000
0000
0000
0000
0000
0000
0000
0000
0000
0000
0000
0000
0000
0000
0000
0023
0000
0000
0000
0000
0000
0000
0000
0000
0000
0000
0000
0000
0000
0000
0000
0000
0000
0000
0000
0000
0000
0000
0000
0230
0000
0000
0000
0000
0000
0000
0000
0000
0000
0000
0000
0000
0000
0000
0000
0000
0000
0000
0000
0000
0000
0000
0000
0000
0000
0000
0000
0000
0000
0000
0000
0000
0000
0000
0000
0000
0000
0000
0000
0000
0000
0000
0000
0000
0300
0000
0000
,
10M1
0000
10M1
0000
1000
0010
0100
0000
0001
0010
0001
0010
0100
0000
0100
1000
,
10M1
0000
10M1
0000
0001
0100
0010
0000
1000
0001
1000
0001
0010
0000
0010
0000
,
M110
0000
M110
0000
0100
1000
0001
0000
0100
0010
0100
0010
1000
0001
1000
0000
,
1M10
0000
1M10
0010
0100
0001
1000
0100
0010
0000
0001
1000
0020
0000
0000
0000
,
0130
0001
0100
0001
1000
0001
1000
0001
1000
0100
1000
0100
0010
0100
0010
0100
,
1000
0001
1000
0001
0100
0001
0100
0001
0100
0010
0100
0010
1000
0001
1000
0001
,
0100
0000
0000
0010
0000
0000
1000
0000
0000
0001
0000
0000
0100
0000
0000
0001
0000
0000
0010
0000
0000
0100
0000
0000
1000
0000
0100
0000
1000
0000
0100
0000
1000
0000
0100
0000
1000
0000
0100
0000
1000
0000
0100
0000
1000
0000
0100
0000
,
100M
0000
0000
0000
000M
0000
0000
0000
000M
0040
0000
0000
043M
0000
0000
0000
000M
0000
0340
0000
000M
0000
0000
0000
403M
0000
0000
0000
0000
0000
3100
0000
0000
0000
0000
0000
0120
0000
0000
0000
0000
0000
0000
0000
0000
0000
0000
0000
,
MM32
0000
0000
0000
1003
0000
0010
0100
0000
0001
0100
0000
0010
0000
1000
0001
,
0000
0000
0001
0000
0000
0000
0010
0000
0001
0000
0000
0000
0001
0000
0000
0000
0100
0000
0000
0000
0010
0000
0000
0000
1000
0001
1000
0000
0100
1000
0100
0000
,
0010
0000
0000
0000
0010
0000
0000
0000
0002
0000
0000
0000
1003
0010
1000
0000
0001
0000
0000
0000
0002
0000
0000
0000
0013
0000
0000
0000
0100
0010
0100
0000
,
1000
0000
0002
0000
0103
0000
0100
0000
0100
0010
0100
0000
M102
0000
0000
0000
,
1003
0000
0000
0000
1000
0100
1000
0000
0001
1000
0001
0000
0100
0000
0000
0000
0200
0000
0000
0000
0320
0000
0000
0000
1030
0000
0000
0000
0100
0000
0010
0000
,
0100
0000
0000
0000
0010
0000
0001
0000
0000
0000
0001
0000
1000
0000
0000
0000
0010
0000
0000
0000
0010
0100
0010
0000
0100
0001
0100
0000
0020
0000
0000
0000
,
1030
0000
0000
0000
0001
0100
0001
0000
1000
0001
1000
0000
0100
0000
0000
0000
0100
0000
0000
0000
0100
0000
0010
0000
0000
0000
0010
0000
0001
0000
0000
0000
,
2000
0000
0000
0000
0000
0000
0000
0000
0000
0000
0000
0000
0000
0000
0000
0000
0000
0000
0000
0000
0000
0000
0000
0000
3001
0000
0000
0000
0000
0000
0100
0000
0000
0000
0000
0000
0001
0000
0000
0000
0000
0000
0000
0000
0000
0000
0000
0000
0100
0000
0000
0000
0000
0000
0010
0000
0000
0000
0000
0000
0100
0000
0000
0000
0000
0000
0000
0000
0000
0000
0000
0000
0002
0000
0000
0000
0000
0000
0000
0000
0000
0000
0000
0000
0000
0000
0000
0000
0000
0000
0000
0000
0000
0000
0000
0000
1003
0000
0000
0000
0000
0000
0000
0000
0000
0000
0000
0000
0000
0000
0000
0000
0000
0000
0000
0000
0000
0000
0000
0000
1000
0000
0000
0000
0000
0000
0000
0000
0000
0000
0000
0000
0000
0000
0000
0000
0000
0000
0000
0000
0000
0000
0000
0000
0100
0000
0000
0000
0000
0000
0000
0000
1000
0000
0000
0000
0000
0000
0000
0000
0100
0000
0000
0000
0000
0000
0000
0000
1000
0000
0000
0000
0000
0000
0000
0000
0100
0000
0000
0000
0000
0000
0000
0000
1000
0000
0000
0000
0000
0000
0000
0000
,
01MM
1000
0001
0000
0100
0010
1000
0001
0010
0000
0100
1000
0000
1000
0000
0001
,
0100
0000
0010
1000
0000
0001
0020
0000
0130
1000
0010
0100
0000
0100
0001
1000
,
0100
0000
0000
0000
0020
0000
0000
0000
0031
0000
1000
0001
1000
0000
0010
0000
0100
0000
0001
0000
1000
0000
0100
0000
0010
0000
0000
0000
0001
0000
1000
0000
,
0010
0000
0000
0000
0000
0000
0000
0000
0000
0000
0000
0000
0000
0000
0000
0000
0000
0000
0000
0000
0000
0000
0000
0000
0200
0000
0000
0000
0000
0000
0000
0000
0000
0000
0000
0000
0000
0000
0000
0000
0000
0000
0000
0000
0000
0000
0000
0000
0301
0000
0000
0000
0000
0000
0000
0000
0000
0000
0000
0000
0000
0000
0000
0000
0000
0000
0000
0000
0000
0000
0000
0000
0010
0000
0000
0000
0000
0000
0000
0000
0000
0000
0000
0000
0100
0000
0000
0000
0000
0000
1000
0000
0000
0000
0000
0000
0100
0000
0000
0000
0000
0000
0000
0000
0000
0000
0000
0000
1000
0000
0000
0000
0000
0000
0001
0000
0000
0000
0000
0000
1000
0000
0000
0000
0000
0000
0000
0000
0000
0000
0000
0000
0001
0000
0000
0000
0000
0000
0100
0000
0000
0000
0000
0000
0001
0000
0000
0000
0000
0000
0000
0000
0100
0000
0000
0000
0000
0000
0000
0000
0001
0000
0000
0000
0000
0000
0000
0000
0100
0000
0000
0000
0000
0000
0000
0000
0001
0000
0000
0000
0000
0000
0000
0000
0100
0000
0000
0000
0000
0000
0000
0000
,
0002
0000
1003
0000
0100
0010
0100
1000
0001
0000
0001
0100
0000
0100
0010
0000
,
2000
0000
0000
0000
0000
0000
3100
0000
0000
0000
0000
0000
0010
0000
0001
0000
1000
0000
0001
0000
0100
0000
0010
0000
1000
0000
0000
0000
0000
0000
0100
0000
0000
0010
0000
0000
0000
0000
0000
0010
0000
0000
0001
0000
0000
1000
0000
0000
,
0010
0100
0010
0100
0001
1000
0001
1000
0100
1000
0001
0100
0001
1000
0001
1000
,
0001
0000
0000
0000
0000
0000
0000
0000
0000
0000
0000
0000
0010
0000
0000
0000
0000
0000
0000
0000
0000
0000
0000
0000
0100
0000
0000
0000
0000
0000
0000
0000
0000
0000
0000
0000
1000
0000
0000
0000
0000
0000
0000
0000
0000
0000
0000
0000
0001
0000
0000
0000
0000
0000
0000
0000
0000
0000
0000
0000
0100
0000
0000
0000
0000
0000
0000
0000
0000
0000
0000
0000
0001
0000
0000
0000
0000
0000
0000
0000
0000
0000
0000
0000
0100
0000
0000
0000
0000
0000
0000
0000
0000
0000
0000
0000
0010
0000
0000
0000
0000
0000
0000
0000
0000
0000
0000
0000
1000
0000
0000
0000
0000
0000
0001
0000
0000
0000
0000
0000
1000
0000
0000
0000
0000
0000
0000
0000
0000
0000
0000
0000
0100
0000
0000
0000
0000
0000
1000
0000
0000
0000
0000
0000
0100
0000
0000
0000
0000
0000
0000
0000
1000
0000
0000
0000
0000
0000
0000
0000
0100
0000
0000
0000
0000
0000
0000
0000
1000
0000
0000
0000
0000
0000
0000
0000
0100
0000
0000
0000
0000
0000
0000
0000
1000
0000
0000
0000
0000
0000
0000
0000
,
02MM
0000
0000
0000
0000
0000
0000
0000
0310
0001
0010
0001
1000
0001
1000
0001
,
0200
0300
0000
0000
;
