#TITLE:My Everything;
#SUBTITLE:;
#ARTIST:Sharkey;
#TITLETRANSLIT:;
#SUBTITLETRANSLIT:;
#ARTISTTRANSLIT:;
#CREDIT:;
#BANNER:sharkey.banner.jpg;
#BACKGROUND:sharkey.bg.jpg;
#LYRICSPATH:;
#CDTITLE:CDTITLE.jpg;
#MUSIC:Sharkey - My Everything.mp3;
#OFFSET:-0.087;
#SAMPLESTART:161.240;
#SAMPLELENGTH:20.660;
#SELECTABLE:YES;
#BPMS:0.000=180.120;
#STOPS:;
#BGCHANGES:;
// cache tags:
#FIRSTBEAT:28.500;
#LASTBEAT:550.000;
#SONGFILENAME:Songs/Definitive Keyboard Megapack/My Everything - Sharkey(Leone510)/Sharkey - My Everything.sm;
#HASMUSIC:1;
#HASBANNER:1;
#MUSICLENGTH:203.761;
// end cache tags

//---------------dance-single - ----------------
#NOTES:
     dance-single:
     :
     Hard:
     11:
     1.000,1.000,1.000,1.000,0.820,1267.000,257.000,248.000,0.000,61.000:

0000
0000
0000
0000
,
0000
0000
0000
0000
,
0000
0000
0000
0000
,
0000
0000
0000
0000
,
0000
0000
0000
0000
,
0000
0000
0000
0000
,
0000
0000
0000
0000
,
0000
0000
0101
0000
1000
0010
0100
0010
0001
1000
0001
0100
0010
1000
0010
0000
,
0110
0100
1010
0001
1100
0010
0101
0010
,
1100
0001
1010
0100
0011
1000
0110
0001
,
1100
0010
0101
0010
1100
0010
1001
0100
,
0011
1000
0101
0010
1100
0001
0100
1000
,
0101
0000
0000
0000
1100
0000
0110
0000
0010
0100
1000
0010
0100
0010
0001
0100
,
0010
1000
0010
0100
0010
1000
0100
0001
0100
0010
0001
0010
0100
1000
0100
0000
,
0011
0110
1001
0101
1010
1100
0110
1001
,
0001
0010
0001
0000
0001
1000
0010
0000
0010
0000
2000
0000
3010
0000
0002
0000
,
2003
3200
0320
0032
0203
0302
2003
3020
,
0230
0302
2003
3002
0203
0320
2030
3002
,
0203
0320
0032
2003
3020
0230
0302
2003
,
3020
0230
0302
0023
0230
2300
3020
0230
,
0302
2003
3200
0320
0032
2003
3002
0203
,
0302
0023
0230
0302
2003
3020
0230
0320
,
2030
3002
0203
2300
3020
0230
0302
0203
,
0320
0032
0023
0230
2300
3002
2003
3011
,
0210
0020
2030
3002
2003
3020
2030
3020
,
0032
0023
2030
3002
2003
3020
0032
2003
,
3011
2000
3020
2030
3002
2003
3020
0032
,
0023
2030
3020
2030
3020
0032
2003
3002
,
1313
0100
0010
1000
0010
0100
0001
0100
0010
0001
0100
0010
1000
0010
0100
0010
,
0101
1000
0010
1000
0100
0010
0001
0100
0010
0001
0100
0010
0001
0100
0010
1000
,
0110
0001
0010
0100
0010
0100
1000
0001
1010
0100
0010
1000
0001
0100
0010
0001
,
0110
0000
0000
0000
0200
0000
0000
0000
0010
0000
0000
0300
0200
0000
0000
0000
0001
0000
0000
0300
0200
0000
0000
0300
0200
0000
0000
0000
1000
0000
0000
0000
,
0311
0000
1000
0010
0101
0010
0100
1000
0100
0010
0001
1000
0001
0100
0001
0100
,
1010
0200
0311
1010
0101
0021
0000
1130
,
0101
0000
0010
0100
1010
0001
0100
1000
0100
1000
0010
0100
0010
0001
1000
0100
,
0011
0100
1010
0101
1100
2010
0000
3011
,
0110
0000
0001
0100
0011
0100
1000
0100
0010
0001
0100
1000
0010
0100
0001
0100
,
1010
0020
0131
0110
1001
0102
0000
0113
,
1100
0000
0001
0010
0100
1000
0100
0010
1000
0010
0100
0010
0001
0100
0010
1000
,
0101
0000
0110
0000
0100
0001
0100
0000
1001
0000
0010
0100
0010
0001
1100
0000
,
0011
0000
1000
0010
0101
0010
0100
1000
0100
0010
0001
1000
0001
0100
0001
0100
,
1010
0200
0311
1010
0101
0021
0000
1130
,
0101
0000
0010
0100
1010
0001
0100
1000
0100
1000
0010
0100
0010
0001
1000
0100
,
0011
0100
1010
0101
1100
2010
0000
3011
,
0110
0000
0001
0100
0011
0100
1000
0100
0010
0001
0100
1000
0010
0100
0001
0100
,
1010
0020
0131
0110
1001
0102
0000
0113
,
1100
0000
0001
0010
0100
1000
0100
0010
1000
0010
0100
0010
0001
0100
0010
1000
,
0101
0000
0110
0000
0100
0001
0100
0000
1001
0000
0010
0100
0010
0001
1100
0000
,
0011
0000
1000
0010
0101
0010
0100
1000
0100
0010
0001
1000
0001
0100
0001
0100
,
1010
0200
0311
1010
0101
0021
0000
1130
,
0101
0000
0010
0100
1010
0001
0100
1000
0100
1000
0010
0100
0010
0001
1000
0100
,
0011
0100
1010
0101
1100
2010
0000
3011
,
0110
0000
0001
0100
0011
0100
1000
0100
0010
0001
0100
1000
0010
0100
0001
0100
,
1010
0020
0131
0110
1001
0102
0000
0113
,
1100
0000
0001
0010
0100
1000
0100
0010
1000
0010
0100
0010
0001
0100
0010
1000
,
0101
0000
0110
0000
0100
0001
0100
0000
1001
0000
0010
0100
0010
0001
1100
0000
,
0020
0230
0000
0000
0320
0000
0000
2030
,
0000
0000
3002
0000
0000
0203
0000
0320
,
0000
0230
0000
0302
0023
0000
0230
2300
,
0000
3020
0000
0000
0230
0000
0000
0320
,
0000
2030
0000
3200
0302
0000
0023
2030
,
0000
3020
0000
0000
0230
0000
0000
0320
,
0000
0000
0000
0000
0230
0000
0000
0000
0000
0000
0000
0300
0200
0000
0000
0000
2300
0000
0000
0000
0000
0000
0000
0000
3020
0000
0000
0000
0230
0000
0000
0000
,
0000
2300
3002
0000
0000
2003
0000
3020
,
0000
0230
0000
0320
0032
0000
0000
2003
,
0000
0000
3002
0000
0000
0203
0000
0320
,
0000
0230
0000
2300
3002
0000
0023
2030
,
0000
3200
0000
0000
0302
0000
0000
2003
,
0000
3200
0000
0320
0032
0000
2003
3002
,
0000
0203
0000
0000
0320
0000
0000
0230
,
0000
0000
0000
0300
0200
0000
0000
0000
0000
0000
0000
0000
0320
0000
0000
0000
2030
0000
0000
0000
0000
0000
0000
0000
3020
0000
0000
0000
0032
0000
0000
0000
,
0000
2003
3020
0000
0000
0230
0000
2300
,
0000
3010
0100
0010
0001
0100
0010
1000
,
0010
0100
0001
1000
0010
0100
0010
1000
,
0000
0010
0001
0100
0010
0001
0100
1000
,
0010
0100
0010
1000
0001
1000
0001
0100
,
0011
1000
0001
0100
0010
0001
0010
0100
,
1010
0001
1000
0010
0100
0001
1000
0010
,
0101
0010
1000
0001
0110
0001
0100
0001
,
1010
0000
0000
0000
0010
0000
0000
0000
0100
0000
0000
0000
1000
0000
0000
0000
0010
0000
0000
0000
0100
0000
0000
0000
0001
0000
0000
0000
0020
0000
0000
0030
,
0110
0200
0320
2030
3002
0203
0320
0032
,
0203
2300
3020
0230
0302
2003
3020
0230
,
0312
2003
3020
0230
0302
0023
2030
3002
,
2003
3200
0302
2003
3020
0230
0302
1023
,
1130
0100
0010
0001
0010
0100
1000
0100
0010
1000
0100
0001
0010
0100
0001
0010
,
1100
0001
0010
1000
0100
0010
0001
1000
0010
0001
0100
1000
0001
0100
1000
0100
,
0011
0100
0001
0010
0001
0100
0010
0001
1100
0010
0100
0010
0001
0100
0010
1000
,
0011
0100
0001
0010
1000
0001
0100
0010
0001
0100
0001
1000
0010
0100
0001
0010
,
1100
0000
0000
0000
0200
0000
0300
1001
0000
1000
0011
0000
0200
0000
0300
0000
,
1000
0101
0010
1100
0001
0110
1000
0101
,
0010
0011
0100
1010
0100
0110
0001
1010
,
0100
1001
0010
0101
0010
1100
0010
0101
,
0010
0000
1010
0000
0001
0000
1100
0000
0001
0000
0110
0001
0100
0000
1010
0000
,
0100
0011
1000
0101
0010
1100
0001
1010
,
0100
1001
0010
1100
0001
0110
1000
0101
,
0100
1010
0001
1100
0001
0110
1000
0110
,
1001
0000
0011
0000
0010
0100
1000
0000
0101
0000
0011
0000
0100
0010
2002
0000
,
3013
0000
0101
0000
0010
1000
0001
0000
0010
0000
1100
0000
0010
0000
0101
0000
,
0001
1100
0010
1100
0010
0101
0100
1001
,
0010
0000
1100
0000
0010
0001
0100
0000
0001
0000
1100
0000
0010
0000
1001
0000
,
0100
1010
0100
0011
0001
1100
0001
1010
,
0010
0100
0010
0001
0100
0010
0001
0100
0010
0100
0001
1000
0010
1000
0100
0010
,
0001
0100
0010
0001
0100
0010
1000
0010
0100
1000
0001
0010
0100
0010
1000
0100
,
0010
0100
1000
0010
0100
0001
0100
0001
0010
0100
0010
1000
0010
0100
0001
0010
,
0100
0001
0100
0010
1000
0010
0100
0010
0001
1000
0001
0100
0010
1000
0001
0100
,
0010
0000
0000
0000
0200
0000
0000
0000
0000
0000
0000
0000
0000
0000
0000
0300
0200
0000
0000
0000
0000
0000
0000
0000
0000
0000
0000
0000
2300
0000
0000
0000
,
0000
3020
0230
0302
,
0000
0000
0000
0000
2003
0000
0000
0000
0000
0000
0000
0000
0000
0000
0000
0000
3020
0000
0000
0000
0000
0000
0000
0000
0000
0000
0000
0030
0020
0000
0000
0000
,
0000
0000
0230
0000
0000
0300
0101
0000
1100
0000
0000
0101
0000
0000
0110
0000
,
1010
0000
0000
0110
0000
0000
0101
0000
0100
0000
1000
0010
0100
0000
0011
0000
,
1000
0000
0010
0100
0001
0000
1100
0000
0010
0000
0100
0010
1000
0000
0011
0000
,
0100
0000
1000
0001
0010
0000
1001
0000
0100
0000
0001
0100
1000
0000
0110
0000
,
0200
2300
3200
0320
0032
0023
0230
1300
,
0101
0000
0010
0001
0100
0001
0010
0100
0001
0010
1000
0100
0001
0010
0100
1000
,
0010
0001
0100
0001
0010
0100
1000
0010
0100
1000
0010
0100
0001
1000
0010
0100
,
0010
0001
0100
0001
0010
0001
0100
0010
1000
0100
0010
0001
0100
0010
0001
0100
,
0010
0001
0100
0010
0100
1000
0010
1000
0010
0100
0010
0001
0010
0100
0001
1000
,
0010
0001
1000
0010
0100
0001
0100
0010
0001
1000
0001
0100
0010
1000
0010
0100
,
0010
1000
0010
0100
0001
0100
0010
1000
0010
0100
0010
1000
0001
0010
0100
0010
,
0001
0010
0100
1000
0100
0010
0100
0010
1000
0001
0100
0010
0001
1000
0010
0001
,
0100
0000
0010
0000
0002
0000
0000
0000
0013
0000
0100
0000
2000
0000
0000
3000
1000
0000
0001
0000
2000
0000
0000
0000
3002
0000
0000
0000
0003
0000
0000
0000
,
0011
0000
1000
0010
0101
0010
0100
1000
0100
0010
0001
1000
0001
0100
0001
0100
,
1010
0200
0311
1010
0101
0021
0000
1130
,
0101
0000
0010
0100
1010
0001
0100
1000
0100
1000
0010
0100
0010
0001
1000
0100
,
0011
0100
1010
0101
1100
2010
0000
3011
,
0110
0000
0001
0100
0011
0100
1000
0100
0010
0001
0100
1000
0010
0100
0001
0100
,
1010
0020
0131
0110
1001
0102
0000
0113
,
1100
0000
0001
0010
0100
1000
0100
0010
1000
0010
0100
0010
0001
0100
0010
1000
,
0101
0000
0110
0000
0100
0001
0100
0000
1001
0000
0010
0100
0010
0001
1100
0000
,
0011
0000
1000
0010
0101
0010
0100
1000
0100
0010
0001
1000
0001
0100
0001
0100
,
1010
0200
0311
1010
0101
0021
0000
1130
,
0101
0000
0010
0100
1010
0001
0100
1000
0100
1000
0010
0100
0010
0001
1000
0100
,
0011
0100
1010
0101
1100
2010
0000
3011
,
0110
0000
0001
0100
0011
0100
1000
0100
0010
0001
0100
1000
0010
0100
0001
0100
,
1010
0020
0131
0110
1001
0102
0000
0113
,
1100
0000
0001
0010
0100
1000
0100
0010
1000
0010
0100
0010
0001
0100
0010
1000
,
0101
0000
0110
0000
0100
0001
0100
0000
1001
0000
0010
0100
0010
0001
1100
0001
,
2020
0000
3030
0000
;
