#TITLE:The Pride of The Tyrant;
#SUBTITLE:Power of the Dragonflame (2002);
#ARTIST:Rhapsody;
#TITLETRANSLIT:;
#SUBTITLETRANSLIT:;
#ARTISTTRANSLIT:;
#CREDIT:;
#BANNER:The Pride Of The Tyrant.png;
#BACKGROUND:The Pride Of The Tyrant.jpg;
#LYRICSPATH:;
#CDTITLE:KS.png;
#MUSIC:Rhapsody - The Pride of the Tyrant.mp3;
#OFFSET:0.060;
#SAMPLESTART:33.293;
#SAMPLELENGTH:11.960;
#SELECTABLE:YES;
#BPMS:0.000=181.300,1.000=180.000;
#STOPS:;
#BGCHANGES:;
// cache tags:
#FIRSTBEAT:1.000;
#LASTBEAT:854.000;
#SONGFILENAME:Songs/Astronomic Metal Collection/The Pride of The Tyrant (KangXIX)/Knightrider of Doom.sm;
#HASMUSIC:1;
#HASBANNER:1;
#MUSICLENGTH:293.310;
// end cache tags

//---------------dance-single - ----------------
#NOTES:
     dance-single:
     :
     Hard:
     12:
     1.000,1.000,0.791,0.225,1.000,2668.000,232.000,66.000,0.000,0.000:
0000
0000
0000
0000
0010
0001
0100
0001
1000
0001
0100
0001
0010
0001
0100
0001
,
1000
0001
0100
0001
0010
0100
1000
0100
0001
0100
1000
0100
0010
0100
1000
0100
,
0001
0100
1000
0001
1000
0100
0010
0001
1000
0010
0100
0001
1000
0100
0010
0001
,
1000
0010
0100
0001
1000
0010
0001
0010
0100
0010
0001
0010
1000
0001
1000
0001
,
0110
0000
0000
0000
1000
0010
0100
0010
0001
0010
0100
0010
1000
0010
0100
0010
,
0001
0010
0100
0010
1000
0100
0010
0100
0001
0100
0010
0100
1000
0100
0010
0100
,
0001
0100
0010
0001
1000
0010
0100
0001
1000
0100
0010
0001
1000
0010
0100
0001
,
1000
0100
0010
0001
1000
0100
0010
0001
0100
0010
1000
0100
0010
0001
0100
0010
,
0110
0000
0000
0000
0001
0010
0100
1000
0010
0100
0001
0010
0100
1000
0010
0100
,
1001
0000
0000
0000
1000
0100
0010
0100
1000
0010
0100
0010
1000
0100
0010
0100
,
1000
0010
0100
0001
0010
0100
1000
0001
0100
0001
1000
0100
0010
0100
1000
0001
,
0100
0001
1000
0100
0010
0001
0100
0001
1000
0001
0100
0001
0010
0001
1000
0001
,
0100
0001
0010
0001
0010
0100
1000
0010
0100
0001
0010
0100
1000
0010
0100
0001
,
0010
0100
0010
0100
1000
0100
0010
0001
0100
0001
0010
0100
1000
0100
0010
0001
,
0100
0001
0010
0100
0010
0001
0100
0010
1000
0001
0100
0001
0010
0001
0100
0010
,
1000
0001
0100
0001
0100
0010
1000
0010
0001
0010
0100
0010
1000
0010
0100
0010
,
0001
0010
1000
0010
0100
0001
0010
0100
1000
0010
0100
0001
0010
0100
1000
0010
,
0100
0001
0100
0001
1000
0100
0010
0001
0100
0010
1000
0100
0010
0001
1000
0100
,
1000
0100
1000
0100
0010
0001
0100
0010
1000
0100
0010
0100
1000
0010
0100
0001
,
0010
0100
1000
0001
0010
0001
0100
0010
1000
0100
0010
0100
1000
0100
0010
0001
,
1000
0010
0100
0001
0010
0001
0100
0010
1000
0100
0010
0100
1000
0010
0100
0001
,
0010
0100
1000
0001
1000
0100
0010
0001
0100
0010
1000
0001
0010
0001
0100
0001
,
0100
0001
0010
0001
1000
0100
0010
0001
0100
0010
1000
0100
0010
0100
1000
0010
,
0100
0000
0000
0001
0000
0000
0010
0000
0000
0100
0000
0000
2002
0000
0000
0000
0000
0000
0000
0000
0000
0000
0000
0000
0000
0000
0000
0000
0000
0000
0000
0000
0000
0003
0000
0000
0200
0000
0000
0000
0300
0000
0000
0000
0002
0000
0000
0000
,
0003
0000
0000
0000
0020
0000
0000
0000
0030
0000
0000
0000
0002
0000
0000
0000
0000
0000
0000
0000
0000
0000
0000
0000
0000
0000
0000
0000
0000
0000
0000
0000
0000
0003
0000
0000
3001
0000
0000
0010
0000
0000
0100
0000
0000
1000
0000
0000
,
0001
0100
0010
1000
1100
0000
0110
0000
0101
0000
0011
0000
1010
0000
0000
0000
,
0101
0000
0011
0110
1010
1100
0022
0000
,
0033
0100
0220
0000
0330
0001
0202
0000
,
0303
1000
1100
0110
0101
0011
2020
0000
,
0000
3030
0101
0110
1100
0110
0011
0000
,
0101
1000
1010
0110
0101
1100
0022
0000
,
0033
0100
0220
0000
0330
1000
2002
0000
,
3003
0001
0011
0110
1100
0011
1001
0000
,
0001
0100
0001
0100
0010
1000
0010
1000
1100
0000
0100
0000
0001
0000
0001
0000
,
0011
0000
0100
0000
1000
0100
1000
0100
0110
0000
0001
0000
0100
0000
0100
0000
,
1010
0000
0100
0000
0001
0010
0001
0010
1010
0000
0100
0000
0001
0000
0001
0000
,
1100
0100
1001
0100
1001
0100
1001
0010
,
0100
0001
0100
0000
0001
1000
0001
1000
0110
0000
0001
0000
0100
0000
0100
0000
,
1010
0000
0001
0000
1000
0010
1000
0010
0101
0000
0010
0000
0100
0000
0100
0000
,
1001
0100
0011
1000
0100
0011
1000
0100
,
0011
0100
1010
0000
0101
0011
0110
0000
,
1001
0000
0000
0000
1000
0100
1000
0100
1000
0100
1000
0100
0010
0100
0010
0100
,
0010
0100
0010
0100
1000
0001
1000
0001
1000
0001
1000
0001
0100
0001
0100
0001
,
0100
0001
0100
0001
0010
0001
0010
0001
0010
0001
0010
0001
0010
0100
0010
0100
,
0010
0100
0010
0100
1000
0010
1000
0010
1000
0010
1000
0010
1000
0010
1000
0010
,
1000
0010
1000
0010
0100
0001
0010
0100
1000
0010
0100
0010
1000
0000
0100
0010
,
0011
0000
0100
1000
0010
0100
0001
0010
0001
0100
0010
1000
0100
0000
0001
0100
,
0110
0000
1000
0100
0010
0001
0010
0100
1000
0001
0100
0010
1000
0000
0010
0100
,
0101
0000
0001
0100
0010
1000
0010
0100
0001
0010
0100
1000
0001
0010
0001
1000
,
0001
1000
0001
1000
0010
0100
0010
0100
0001
0100
0010
0100
1000
0100
0001
0100
,
1000
0100
0010
0100
0001
1000
0001
1000
0010
1000
0100
1000
0001
1000
0010
1000
,
0001
1000
0100
0010
0001
0100
0010
1000
0100
0010
0001
0100
0010
0100
0001
0010
,
0100
1000
0010
0100
0101
0000
1000
0000
0110
0000
0001
0000
1010
0000
0100
0000
,
0011
0100
1000
0100
0001
0100
0010
1000
,
0001
0010
0001
0010
0002
0000
0000
0000
1003
0010
1000
0010
0100
0001
0100
0001
,
0110
1010
0011
0101
1001
0000
0101
0000
,
1010
0011
0110
0101
2200
0000
3300
0100
,
0022
0000
0033
0001
2020
0000
3030
0100
,
0011
1100
0101
0110
2002
0000
0000
3003
,
0101
0011
0110
1100
1010
0000
1100
0000
,
0110
0011
1010
1100
2002
0000
3003
1000
,
0202
0000
0303
0001
2200
0000
3300
0010
,
0110
0000
0101
0000
1100
0000
1010
0000
1001
0000
0100
0010
0100
0010
0100
0000
,
1000
0100
0010
0001
0101
0000
0010
0000
1000
0000
1000
0000
0011
0000
0100
0000
,
0001
0010
0100
1000
1010
0000
0001
0000
0100
0000
0100
0000
0110
0000
0001
0000
,
0100
0010
1000
0001
0110
0000
0001
0000
0010
0000
0010
0000
1010
0000
0100
0000
,
1001
0000
0010
0000
1001
0000
0010
0000
1001
0000
0100
0000
0001
0010
0001
0000
,
0010
1000
0100
0010
0011
0000
1000
0000
0100
0000
0100
0000
1010
0000
0100
0000
,
0001
0100
0010
1000
0101
0000
0010
0000
0001
0000
0001
0000
1001
0000
0001
0000
,
1010
0100
0001
1010
0100
0001
1010
0100
,
0011
0100
1000
0011
0100
1000
0011
0000
,
0100
0001
0100
0001
0100
0001
0100
0001
0010
0001
0010
0001
0010
0001
0010
0001
,
1000
0100
1000
0100
1000
0100
1000
0100
0010
0100
0010
0100
0010
0100
0010
0100
,
1000
0001
1000
0001
1000
0001
1000
0001
0100
0010
0100
0010
0100
0010
0100
0010
,
1000
0010
1000
0010
1000
0010
1000
0010
1000
0010
1000
0010
1000
0100
0010
0001
,
0100
0010
1000
0100
0010
0001
0010
0100
1000
0000
0010
0100
0101
0000
0010
0100
,
0001
0010
0100
1000
0010
0100
0001
1000
0100
0000
0010
0001
0101
0000
1000
0010
,
0100
0001
1000
0010
0100
0001
0010
0100
1000
0000
0100
0001
0011
0000
0001
0010
,
0100
1000
0010
0100
0001
0010
0100
1000
0001
0000
0100
0010
1010
1010
0000
0000
,
1001
0000
0000
0000
,
1000
0100
0010
0001
1000
0100
0010
0001
0100
0010
1000
0001
0100
0001
0010
0100
,
1000
0100
0010
0100
1000
0010
0100
0010
1000
0001
0100
0001
1000
0010
1000
0100
,
0010
0001
0010
0100
1000
0001
0100
0010
1000
0100
0010
0100
1000
0001
0100
0010
,
1000
0001
0010
0100
1000
0100
0010
0001
0100
0010
1000
0001
0100
0010
1000
0100
,
0010
0001
0100
0010
1000
0001
0100
0001
1000
0100
1000
0001
0010
0001
0010
0100
,
1000
0100
0010
0100
1000
0010
0100
0001
0100
0010
1000
0010
0100
0001
0010
0001
,
0100
0001
1000
0100
0010
0100
1000
0001
0010
0100
1000
0010
0100
0010
1000
0010
,
0100
0001
1000
0010
0100
0001
0100
0001
0010
0100
0010
0100
1000
0100
1000
0100
,
0010
0001
0100
0010
1000
0001
0010
0100
1000
0010
0100
0010
1000
0001
0100
0001
,
1000
0001
1000
0001
0010
0001
0100
0010
1000
0100
1000
0010
1000
0001
1000
0100
,
1000
0100
0010
0001
0100
0001
0010
0001
0010
0100
1000
0010
0100
0001
1000
0010
,
0100
0001
0010
0100
1000
0100
0010
0001
0100
0010
1000
0001
0100
0010
1000
0010
,
0100
0010
0100
0010
1000
0100
0010
0100
1000
0010
0100
0001
1000
0010
0100
0001
,
0100
0001
0010
0001
0100
0001
1000
0001
0010
0100
1000
0010
0100
0001
0010
0100
,
0010
0001
0010
0001
0010
0001
0010
0001
0010
0001
0010
0001
0010
0001
0010
0001
,
0010
0001
0010
0001
0010
0001
0010
0001
1000
0100
0010
0001
1000
0100
0010
0001
,
0011
0100
1000
0100
0010
0100
0001
0100
0010
0100
1000
0100
,
0001
0100
0010
0100
1000
0100
0010
0100
0001
0100
1000
0010
,
1100
0001
0100
0001
0010
0001
1000
0001
0100
0001
1000
0001
,
0010
0001
1000
0001
0010
0001
0110
0000
0000
1001
0000
0000
,
0101
0010
0100
0010
1000
0010
0001
0010
0100
0010
1000
0010
,
0100
0010
0001
0010
0100
0010
1000
0010
0001
0010
0100
0000
,
0101
1000
0010
1000
0001
1000
0100
1000
0010
1000
0100
1000
,
0101
0000
0000
0000
0000
0000
0000
0000
1010
0000
0000
0000
0000
0000
0000
0000
0110
0000
0000
0000
0000
0000
0000
0000
1001
0000
0000
0100
0000
0000
0010
0000
0000
1000
0000
0000
0010
0000
0000
0100
0000
0000
0010
0000
0000
1000
0000
0000
,
0001
0000
0000
0100
0000
0000
0001
0000
0000
0010
0000
0000
0001
0000
0000
0100
0000
0000
0001
0000
0000
0010
0000
0000
0100
0000
0000
0000
1000
0000
0000
0000
0001
0000
0000
0000
1000
0000
0000
0000
0010
0000
0000
0000
1000
0000
0000
0000
,
0001
1000
0100
1000
0001
1000
0010
1000
0001
1000
0100
1000
,
0010
0100
0001
0100
1000
0100
0001
0010
0100
0010
1000
0010
,
0100
0010
0001
0010
0100
0010
0001
0010
0100
0010
1000
0010
,
0101
0000
0000
0011
0000
0000
1100
0001
0100
0001
1000
0001
,
0010
0001
1000
0001
0100
0001
0010
0001
0100
0001
1000
0001
,
0010
0100
1000
0100
0001
0100
1000
0010
0100
0010
0001
0010
,
0100
0010
1000
0010
0100
0010
0101
0000
0110
0000
1010
0000
,
1001
0100
0001
1000
0001
0100
0001
1000
0010
1000
0010
0100
0010
1000
0010
0100
,
1001
0100
0110
0001
,
1001
0000
0100
0000
1010
0000
0100
0010
,
0011
1000
0110
0001
,
2002
0000
0000
3000
1000
0000
0000
0000
,
0020
0000
0000
0030
0200
0000
0000
0300
,
1003
0100
1000
0100
0010
0100
0010
0100
1000
0001
1000
0001
0100
0001
0100
0001
,
1000
0010
1000
0010
0100
0010
0100
0010
0001
0010
0001
0010
1000
0001
1000
0001
,
0010
0100
0010
0100
1000
0100
1000
0100
0001
0100
0001
0100
0010
0100
0010
0100
,
1000
0010
0100
0001
0010
0100
1000
0010
0100
0001
1000
0001
0010
0100
1000
0010
,
0100
0010
1000
0100
0022
0000
0033
0000
2020
0000
3030
0000
1001
0000
0000
0000
,
1000
0100
0010
0000
0001
0100
0010
0000
1000
0100
0010
0000
0001
1000
0100
0000
,
0010
0100
0001
0000
0001
1000
0100
0000
0010
0100
0001
0000
1000
0010
0100
0000
,
0001
0010
1000
0000
1000
0010
0100
0000
0010
0100
0001
0000
0001
1000
0100
0000
,
1000
0100
0010
0000
0001
1000
0100
0000
0010
0100
0001
2000
0000
0000
0000
0000
,
3002
0000
0203
0000
0310
1000
0010
1000
0100
1000
0001
1000
0100
1000
0001
1000
,
0010
1000
0001
1000
0010
1000
0001
1000
0100
0010
0001
0010
1000
0010
0001
0100
,
0010
1000
0100
1000
0001
1000
0100
1000
0010
0100
0001
0100
1000
0100
0001
0100
,
0010
1000
0100
0010
0001
0100
0010
1000
0002
0000
0000
0000
0000
0000
0000
0000
,
1003
0001
0010
0001
1000
0001
0010
0001
0100
0010
1000
0010
0100
0010
1000
0010
,
0100
0001
1000
0001
0100
0001
1000
0001
1000
0100
0010
0100
1000
0010
0100
0010
,
1000
0001
0010
0001
1000
0001
0100
0001
0010
0100
1000
0001
0100
0010
1000
0001
,
1000
0100
0001
0100
1000
0010
0001
0010
1000
0100
0010
0001
1000
0100
0010
0001
,
1000
0010
0100
0001
1000
0010
0100
0001
0010
0100
1000
0100
0010
0100
1000
0001
,
0100
0010
1000
0010
0100
0010
1000
0100
0001
0100
1000
0100
0001
0100
1000
0010
,
0100
0001
1000
0001
0010
0001
1000
0010
0110
0000
1100
0000
0101
0000
0011
0000
,
1001
0000
1100
0000
0011
0110
0101
1100
,
0110
0000
0000
0001
2002
0000
3003
0010
,
0220
0000
0330
1000
1100
0011
1100
0101
,
2002
0000
0000
3003
1010
0110
0101
1100
,
0110
0000
1001
0000
0101
0110
0101
1100
,
0022
0000
0033
0100
2200
0000
3300
0001
,
0202
0000
0303
0010
1010
1100
0101
0011
,
1001
0000
0010
0000
0100
0000
0001
0000
1000
0010
1000
0010
0110
0000
0100
0000
,
0001
0000
0001
0000
1010
0000
0100
0000
0001
0100
0001
0100
0011
0000
1000
0000
,
0010
0000
0010
0000
1100
0000
0010
0000
0100
0001
0100
0001
1100
0000
0010
0000
,
0001
0001
1010
0100
0110
1000
0110
0001
,
0110
0000
1000
0000
0011
0000
0100
0000
1000
0010
0100
0001
0011
0000
1000
0000
,
0100
0000
0100
0000
1001
0000
0010
0000
0100
0001
0010
0100
1100
0000
0010
0000
,
1000
0000
1000
0000
0101
0000
0010
0000
0100
0001
1000
0001
1100
0000
0010
0000
,
0100
0100
0101
0010
1001
0100
1001
0010
,
1001
0000
0100
0000
1010
0000
1010
0000
0001
0010
0001
0010
0001
0010
0001
0010
,
0100
0010
0100
0010
0100
0010
0100
0010
0001
1000
0001
1000
0001
1000
0001
1000
,
0010
1000
0010
1000
0010
1000
0010
1000
0100
0010
0100
0010
0100
0010
0100
0010
,
1000
0010
1000
0010
1000
0010
1000
0010
0001
1000
0001
1000
0001
1000
0001
1000
,
0001
1000
0001
1000
0001
1000
0001
1000
0100
0010
0001
0100
0010
1000
0100
1000
,
0010
0100
0001
0100
0010
1000
0100
0010
0001
0010
0100
1000
0010
0100
0001
0010
,
0001
0100
0001
0100
0010
1000
0010
1000
0100
0010
0100
1000
0010
0100
0010
1000
,
0001
0100
0010
1000
0100
0010
0001
0010
0100
1000
0001
0010
1001
1001
0000
0000
,
1000
0000
0010
0100
0110
0110
0000
0000
1001
0000
0000
0000
0000
0000
0000
0000
,
0000
0000
0000
0000
0000
0000
0000
0000
0001
0100
0010
1000
0001
0100
0010
1000
,
0100
0010
0001
0010
0100
1000
0010
0100
0001
1000
0100
0010
0001
1000
0100
0010
,
0001
0100
0001
0010
0001
0100
0001
0100
0010
1000
0100
0010
0001
0100
0001
1000
,
0001
0100
0001
0010
0100
1000
0100
0010
0100
1000
0010
0100
0001
0100
0010
1000
,
0100
0010
0001
0010
0100
1000
0010
0100
0001
0010
0100
1000
0010
0100
0001
1000
,
0001
0010
0100
1000
0010
1000
0100
1000
0010
0100
0001
0100
0001
1000
0010
1000
,
0001
0100
0001
0010
0100
1000
0001
0100
0010
1000
0001
0100
0010
0100
0001
1000
,
0100
0010
0001
1000
0010
0100
0001
0100
0001
0010
0100
0010
0001
1000
0001
0010
,
0100
1000
0100
1000
0001
1000
0001
1000
0010
0100
0001
0010
0100
1000
0010
0100
,
0001
0010
0100
1000
0010
0100
0001
0010
0100
1000
0001
0100
0001
0010
0001
0100
,
0001
1000
0001
0010
0100
1000
0010
0100
0010
1000
0100
0010
0100
1000
0010
0100
,
0010
1000
0001
1000
0010
1000
0001
0100
0001
0010
0100
1000
0010
0100
0001
0010
,
0100
1000
0100
0010
0001
0010
0100
1000
0001
0100
0001
0010
0100
0010
0001
1000
,
0001
0100
0010
1000
0010
0100
0001
1000
0100
0010
0001
0100
0010
1000
0010
0100
,
0001
0010
0100
1000
0010
0100
0001
0010
0100
1000
0100
1000
0100
1000
0100
1000
,
0100
1000
0100
1000
0100
1000
0100
1000
0001
0010
0001
0010
0001
1000
0001
1000
,
0001
0100
0001
0100
0001
1000
0001
1000
0010
0100
0001
1000
0010
0100
0001
0010
,
0100
1000
0010
0100
0010
1000
0100
0010
0001
0100
0010
1000
0001
0100
0010
1000
,
0001
0010
0100
1000
0001
0100
0001
0010
0001
1000
0001
1000
0010
0100
0001
1000
,
0100
0010
0001
0100
0010
1000
0100
0010
0100
1000
0010
0100
0010
1000
0001
0100
,
0001
0010
0100
1000
0010
0100
0010
1000
0001
0100
0001
1000
0010
0100
0010
1000
,
0100
0010
0100
1000
0100
0010
0001
0010
0100
1000
0010
0100
0001
0100
0010
1000
,
0100
0010
0001
0010
0100
1000
0001
0100
0001
0010
0100
0010
0001
1000
0001
0010
,
0100
1000
0010
0100
0001
1000
0001
0100
0001
1000
0001
0010
0001
0010
0001
1000
,
0100
0010
0100
0010
0001
0010
0001
0010
0100
1000
0010
0100
0001
0010
0100
1000
,
0010
0100
0001
1000
0100
0010
0100
1000
0001
0100
0010
1000
0001
0010
0100
1000
,
0010
0100
0010
1000
0100
0010
0100
1000
0001
0100
0001
0010
0001
0100
0001
0100
,
0010
1000
0010
0100
0001
1000
0100
0010
0001
0010
0100
1000
0010
0100
0010
1000
,
0100
1000
0010
0100
0010
1000
0001
0100
0010
1000
0001
0010
0001
1000
0100
0010
,
0001
0100
0010
1000
0010
0100
0010
1000
0010
0100
0010
1000
0001
0100
0001
0010
,
0001
0100
0001
1000
0010
0100
0001
1000
0001
0100
0001
0100
0001
0100
0001
0100
,
0001
0100
0001
0100
0001
0100
0001
0100
0010
1000
0100
0010
0001
0010
0100
1000
,
0101
0110
1001
1100
,
1001
0011
1001
1100
,
1001
0110
2002
0000
,
0000
0000
0000
3003
1001
0000
0000
0000
,
1000
0100
0010
0001
1000
0100
0010
0001
1000
0010
0100
0010
0001
0010
0100
0010
,
1000
0010
0100
0010
0001
0010
0100
0001
1000
0100
0010
0100
0001
0100
0010
0100
,
1000
0100
0010
0100
0001
0100
0010
0100
1000
0010
0100
0001
1000
0100
0010
0001
,
1000
0010
0100
0001
1000
0100
0010
0001
1000
0001
0100
0001
0010
0001
0100
0001
,
1000
0100
0010
0001
0200
0010
0000
0300
0010
0001
1000
0001
0100
0001
1000
0001
,
0010
0001
1000
0001
0100
0001
1000
0001
0010
0100
1000
0100
0001
0100
1000
0100
,
0010
0100
1000
0100
0001
0100
1000
0010
1000
0100
0010
0001
1000
0100
0010
0001
,
1000
0010
0100
0001
1000
0010
0100
0001
1000
0010
0100
0001
0010
0100
1000
0010
,
0100
0001
0010
0100
2000
0000
0000
3000
0010
0100
0001
0010
0100
1000
0010
0100
,
0001
0010
0100
1000
0020
0000
0000
0030
1000
0010
0100
0001
0010
0001
1000
0001
,
0010
0100
1000
0010
0100
0001
0010
0100
1000
0010
0100
0001
0010
0001
1000
0001
,
1000
0100
0010
0001
0100
0010
1000
0001
1000
0010
0100
0001
0010
0001
1000
0001
,
0010
0100
1000
0010
0100
0001
0010
0100
1000
0100
0010
0001
0100
0010
1000
0010
,
0100
0001
0010
0100
1000
0010
0100
0001
1000
0100
0010
0001
1000
0010
0100
0001
,
0010
0100
1000
0100
0010
0001
0100
0010
2002
0000
0000
0000
0000
0000
3003
0000
,
0100
1000
0010
0100
0001
0010
1001
0000
0000
0000
0000
0000
;
