#TITLE:Sandstorm;
#SUBTITLE:;
#ARTIST:Darude;
#TITLETRANSLIT:;
#SUBTITLETRANSLIT:;
#ARTISTTRANSLIT:;
#CREDIT:;
#BANNER:Sandstorm.png;
#BACKGROUND:Sandstorm-bg.png;
#LYRICSPATH:;
#CDTITLE:!ExigeTitle.png;
#MUSIC:Sandstorm.mp3;
#OFFSET:-1.372;
#SAMPLESTART:36.540;
#SAMPLELENGTH:12.000;
#SELECTABLE:YES;
#BPMS:0.000=136.340;
#STOPS:;
#BGCHANGES:;
// cache tags:
#FIRSTBEAT:3.500;
#LASTBEAT:196.000;
#SONGFILENAME:Songs/Keyboard Collaboration II/Exige - Sandstorm/Sandstorm.sm;
#HASMUSIC:1;
#HASBANNER:1;
#MUSICLENGTH:89.861;
// end cache tags

//---------------dance-single - ----------------
#NOTES:
     dance-single:
     :
     Hard:
     12:
     1.000,1.000,1.000,0.022,1.000,564.000,141.000,2.000,0.000,0.000:  // measure 1
0000
0000
0000
0000
0000
0000
0000
0100
,  // measure 2
0010
0000
0000
0100
0000
0000
0010
0000
0100
0000
0000
0100
0000
0000
0100
0000
,  // measure 3
0010
0000
0000
0001
0000
0000
1000
0000
1000
0000
0000
0001
0000
0000
0010
0000
,  // measure 4
0100
0000
0000
1000
0000
0000
1000
0000
0100
0000
0000
0100
0000
0000
0010
0000
,  // measure 5
0001
0000
0000
1000
0000
0000
0001
0000
0010
0000
0000
0100
0000
0000
0100
0000
,  // measure 6
0010
0000
0000
1000
0000
0000
1000
0000
0010
0000
0000
0100
0000
0000
0100
0000
,  // measure 7
0010
0000
0000
0001
0000
0000
1000
0000
0010
0000
0000
0010
0000
0000
1000
0000
,  // measure 8
0100
0000
0000
0010
0000
0000
0100
0000
0010
0000
0000
1000
0000
0000
0010
0000
,  // measure 9
1001
0010
0100
0010
1001
0000
0100
0000
0100
0000
0000
0010
0000
0000
1000
0000
,  // measure 10
0010
0000
0000
0001
0000
0000
1000
0000
0001
0000
0000
0010
0000
0000
0100
0000
,  // measure 11
1010
0100
0001
0010
1100
0000
0010
0000
1000
0000
0000
0100
0000
0000
0010
0000
,  // measure 12
0001
0000
0000
1000
0000
0000
0010
0000
0100
0000
0000
0010
0000
0000
0001
0000
,  // measure 13
1100
0010
0001
0010
1100
0000
0000
0000
0011
0100
1000
0100
0011
0000
0000
0000
,  // measure 14
1001
0010
0100
1000
0110
0000
0000
0000
0011
0100
0001
0100
1001
0000
0000
0000
,  // measure 15
0101
0010
1000
0001
0010
0100
0001
1000
0001
0100
0010
0001
1000
0010
0100
0010
,  // measure 16
1000
0001
1000
0001
1000
0001
1000
0001
1000
0001
1000
0001
1000
0001
1000
0001
1000
0001
1000
0001
1000
0001
1000
0001
1000
0001
1000
0001
1000
0001
1000
0001
,  // measure 17
0110
1000
0001
1000
0011
0000
1100
0010
0100
0001
0100
1000
0011
0000
0101
0010
,  // measure 18
1000
0001
0010
0100
0011
0000
1001
0010
0100
0010
0001
1000
0110
0000
1001
0010
,  // measure 19
0100
0001
1000
0100
1010
0000
0101
0010
1000
0010
0100
0010
1100
0000
0110
0001
,  // measure 20
1000
0100
0010
1000
0110
0000
1100
0010
0001
0010
0001
0010
1100
0000
1001
0010
,  // measure 21
1000
0100
0001
0100
1010
0000
1100
0010
1000
0010
0100
0001
1010
0000
0011
0100
,  // measure 22
0010
0100
0001
0100
1001
0000
1001
0100
0010
0001
1000
0010
0101
0000
0110
1000
,  // measure 23
0001
0100
0010
0001
0110
0000
1100
0010
0100
0010
1000
0010
1001
0000
1100
0010
,  // measure 24
1000
0100
0010
0100
1010
0000
0011
1000
0010
0100
0001
0100
1010
0000
1100
0010
,  // measure 25
0001
0100
0010
0100
1010
0000
0110
1000
0100
0001
0010
0100
1010
0000
1010
0001
,  // measure 26
1000
0100
0010
0001
0110
0000
0101
0010
1000
0010
0001
0010
0101
0000
1100
0010
,  // measure 27
1000
0100
0010
0100
1010
0000
0011
0100
0010
0100
0001
0100
1010
0000
0011
1000
,  // measure 28
0010
0100
0001
0010
0101
0000
1001
0010
1000
0100
1000
0001
0110
0000
0011
1000
,  // measure 29
0100
0001
0100
0010
1001
0000
0101
1000
0001
0010
1000
0100
1001
0000
1100
0010
,  // measure 30
1000
0010
0001
0010
1100
0000
0011
0100
1000
0001
1000
0001
1010
0000
1001
0010
,  // measure 31
0001
0100
0010
1000
0101
0000
1100
0001
0010
1000
0100
0010
1001
0000
0110
0001
,  // measure 32
1000
0100
0010
0100
0011
0000
0011
0100
0010
1000
0010
0100
1010
0000
1010
0001
,  // measure 33
0010
0100
0011
0000
0010
0000
1001
0010
0100
0001
1010
0000
0100
0000
0010
0000
,  // measure 34
1010
0001
0110
0000
0010
0000
0110
0001
1000
0010
1001
0000
0010
0000
0100
0000
,  // measure 35
0101
0010
1100
0000
0100
0000
0101
0010
1000
0100
0011
0000
0100
0000
1001
0100
,  // measure 36
0010
1000
0101
0000
0010
0000
1001
0100
0010
0100
1010
0000
0100
0000
0101
0010
,  // measure 37
1000
0010
1001
0000
0001
0000
0011
0100
1000
0001
1010
0000
1000
0000
0010
0000
,  // measure 38
0011
1000
0110
0000
1000
0000
1001
0010
0100
0010
0101
0000
0001
0000
1001
0000
,  // measure 39
1010
0001
1100
0000
0010
0000
1001
0100
0001
1000
0011
0000
0100
0000
1010
0100
,  // measure 40
0010
1000
0110
0000
0001
0000
0110
0001
1000
0100
1001
0000
0010
0000
1010
0100
,  // measure 41
0001
0010
0101
0000
0001
0000
1001
0100
1000
0100
0011
0000
0001
0000
0101
0000
,  // measure 42
0011
0100
1010
0000
0100
0000
1010
0001
0010
0100
1010
0000
1000
0000
0001
0000
,  // measure 43
1010
0100
0011
0000
0001
0000
0101
1000
0010
0001
1010
0000
0100
0000
0001
0000
,  // measure 44
0101
1000
0011
0000
0100
0000
1100
0001
0010
1000
0101
0000
0010
0000
1001
0000
,  // measure 45
0011
0100
1010
0000
1000
0000
0001
0000
0110
0001
1010
0000
0001
0000
0100
0000
,  // measure 46
1001
0010
1001
0000
1000
0000
1000
0000
0011
0100
0011
0000
0100
0000
0010
0000
,  // measure 47
1001
0010
0100
0000
1001
0100
0010
0000
1001
0100
0001
0000
1010
0100
1000
0000
,  // measure 48
0010
0000
0100
0000
0010
0100
0010
0100
0010
0100
0010
0100
0010
0100
0010
0100
0010
0100
0010
0100
0010
0100
0010
0100
0010
0100
0010
0100
0010
0100
0010
0100
,  // measure 49
2002
0000
0000
0000
,  // measure 50
3003
0000
0000
0000
;
