#TITLE:WE LUV LAMA;
#SUBTITLE:;
#ARTIST:DJ SHARPNEL;
#TITLETRANSLIT:;
#SUBTITLETRANSLIT:;
#ARTISTTRANSLIT:;
#CREDIT:;
#BANNER:lama-bn.png;
#BACKGROUND:;
#LYRICSPATH:;
#CDTITLE:;
#MUSIC:12 - WE LUV LAMA - SHARPNEL SOUNDS.mp3;
#OFFSET:-0.307;
#SAMPLESTART:99.817;
#SAMPLELENGTH:12.000;
#SELECTABLE:YES;
#DISPLAYBPM:210.000;
#BPMS:0.000=210.000,31.000=420.000,33.000=210.000,47.000=420.000,49.500=210.000,50.000=210.000,61.000=420.000,63.500=210.000,79.000=420.000,81.500=210.000,95.000=420.000,96.500=210.000,111.000=420.000,113.000=210.000,113.563=210.000,143.000=420.000,143.500=420.000,145.000=210.000,189.000=420.000,191.500=210.000,389.000=105.000,428.000=210.000,732.000=420.000,735.000=210.000,748.000=420.000,750.000=210.000;
#STOPS:31.000=0.143
,32.000=0.143
,47.000=0.071
,47.500=0.071
,48.000=0.071
,48.500=0.071
,49.000=0.071
,61.000=0.107
,61.750=0.107
,62.500=0.071
,63.000=0.071
,79.000=0.071
,79.500=0.071
,80.000=0.071
,80.500=0.071
,81.000=0.071
,95.000=0.143
,96.000=0.071
,111.000=0.071
,111.500=0.071
,112.000=0.071
,112.500=0.071
,143.000=0.031
,143.250=0.031
,143.500=0.071
,144.000=0.071
,144.500=0.071
,189.000=0.143
,190.000=0.071
,190.500=0.071
,191.000=0.071
,732.000=0.071
,732.500=0.071
,733.000=0.071
,733.500=0.071
,734.000=0.143
,748.000=0.143
,749.000=0.143
;
#BGCHANGES:;
// cache tags:
#FIRSTBEAT:17.000;
#LASTBEAT:1090.000;
#SONGFILENAME:Songs/SSSC PACK/[Zarkonis] - WE LUV LAMA/WE LUV LAMA.sm;
#HASMUSIC:1;
#HASBANNER:1;
#MUSICLENGTH:326.070;
// end cache tags

//---------------dance-single - Blank----------------
#NOTES:
     dance-single:
     Blank:
     Challenge:
     16:
     1.000,1.000,0.638,0.052,1.000,2647.000,208.000,17.000,12.000,0.000:

0000
0000
0000
0000
,
0000
0000
0000
0000
,
0000
0000
0000
0000
,
0000
0000
0000
0000
,
0000
0000
0000
0000
1000
0010
0100
0000
0001
0000
0010
0000
1001
0000
0000
0000
,
1000
0010
0100
0010
1000
0000
1100
0000
,
0100
0000
0010
0000
0100
1000
0010
0000
0100
0000
0001
0000
0101
0000
0000
0000
,
0100
0000
0010
0000
1000
0001
0010
0000
0100
0000
1000
0000
1001
0000
0000
0000
,
1001
0000
0000
0000
1000
0001
0100
0000
0010
0000
0100
0000
0110
0000
0000
0000
,
0010
1000
0100
1000
0001
0000
1001
0000
,
1000
0000
0010
0000
0100
0000
0010
0100
0010
0000
0100
0000
0101
0000
0000
0000
,
0100
0000
0010
1000
0010
0000
0100
0000
0001
0000
1000
0000
1001
0000
0010
0000
,
1001
0000
0010
0000
1001
0000
0001
0010
0100
0000
1000
0000
1001
0000
0000
0000
,
0001
0100
0010
0100
0001
0000
1100
0000
,
0100
0000
0010
0000
0001
0100
0010
0000
1000
0000
0010
0000
0110
0000
0000
0000
,
0010
0000
1000
0000
0100
0000
0000
0100
0000
0000
0100
0000
0100
0000
1000
0000
,
0100
0000
0010
0000
0001
0100
0001
0000
1000
0000
0010
0000
1000
0100
0010
0000
,
0001
0000
1000
0000
0010
0000
1000
0000
0001
0000
0100
0000
0010
0100
0001
0000
,
1000
0000
0001
0000
0010
0000
0001
0010
0100
0000
1000
0000
0010
0100
0010
0000
,
0100
0000
0001
0000
1000
0010
1000
0000
0001
0000
1000
0000
1001
0000
0100
0000
,
1001
0000
0100
0000
1001
0000
0001
0010
0100
0000
1000
0000
0010
1000
0100
0000
,
0010
0000
0001
0000
0100
0010
1000
0000
0001
0000
1000
0000
0100
1000
0001
0000
,
0100
0000
0010
0000
1000
0010
0100
0000
0001
0000
0010
0000
0001
0010
0001
0000
,
1000
0000
0100
0000
0010
0100
1000
0000
0010
0000
0100
0000
1001
0000
0000
0000
,
1001
0000
1000
0000
0100
1000
0001
0000
0100
0000
0010
0000
1000
0010
0100
0000
,
0010
0000
0100
0000
0001
0000
0010
0000
0001
0000
0100
0000
0010
1000
0100
0000
,
0010
0000
0001
0000
1000
0000
0001
0100
0010
0000
1000
0000
0100
1000
0100
0000
,
0010
0000
0001
0000
0100
0010
1000
0000
0100
0000
1000
0000
1001
0000
0010
0000
,
1001
0000
0010
0000
1000
0010
0100
0001
0010
0001
1000
0100
1000
0100
0010
0001
,
0010
0001
1000
0001
1000
0010
0100
0001
0010
0001
1000
0001
1000
0100
0010
0001
,
0010
0100
1000
0001
1000
0010
0100
0001
0100
0010
0100
0001
1000
0100
0010
0001
,
0010
0001
1000
0010
0100
0001
1000
0010
0100
0001
0010
0001
1000
0100
0010
0000
,
0100
0000
1000
0000
0001
0010
0100
0000
0010
0000
0001
0000
1000
0010
0100
0000
,
0010
0000
1000
0010
0100
0001
1000
0000
0001
0000
0010
0000
0100
1000
0100
0000
,
0010
0000
0001
0010
0100
1000
0001
0000
0100
0000
0010
0000
1000
0100
1000
0000
,
0010
0000
0100
0010
1000
0010
0100
0000
0010
0000
0100
0000
0001
1000
0001
0000
,
1000
0000
0001
0000
0100
0010
1000
0000
0010
0000
0100
0000
0001
0100
0001
0000
,
1000
0000
0001
0010
0100
1000
0001
0000
0100
0000
0010
0000
1000
0010
1000
0000
,
0100
0000
1000
0010
0100
0010
1000
0000
0001
0000
0010
0000
0100
1000
0100
0000
,
1000
0000
0010
0100
0001
1000
0010
1000
0010
0000
0100
0001
0100
0000
0001
1000
,
0001
0000
1000
0000
0100
0010
0001
0000
1000
0000
0010
0000
1000
0010
0100
0000
,
0010
0000
0100
0010
1000
0001
1000
0000
0100
0000
0010
0000
0001
0010
0001
0000
,
0100
0000
0010
1000
0100
1000
0010
0000
0100
0000
0001
0000
1000
0001
1000
0000
,
0010
0000
0100
0010
0100
0001
1000
0000
0100
0000
0010
0000
0100
0010
0100
0000
,
0010
0000
0001
0010
0100
1000
0100
0000
1000
0000
0010
0000
0100
0010
0100
0000
,
0010
0000
1000
0001
0010
0001
1000
0000
0100
0000
0010
0000
0001
0010
0001
0000
,
1000
0000
0010
1000
0010
0100
0010
0000
0100
0000
0001
0000
1000
0100
0010
0000
,
0001
1000
1001
0000
1001
1001
1001
1000
,
0010
0000
0100
0000
0010
1000
0010
0000
0100
0000
0001
0000
0010
0001
0010
0000
,
0100
1000
0100
0000
0010
0000
0001
0000
0100
0000
0010
0000
1000
0010
1000
0000
,
0010
0100
0010
0000
0100
0000
0001
0000
0010
0000
0100
0000
1000
0100
1000
0000
,
0001
0010
0001
0000
0100
0000
0010
0000
1000
0000
0001
0000
1000
0100
0010
0000
,
0001
0010
0100
0000
0010
0000
0001
0000
0100
0000
0010
0000
1000
0010
0100
0000
,
0001
0100
0010
0000
1000
0000
0100
0000
0010
0000
0001
0000
1000
0001
1000
0000
,
0010
0100
0010
0000
1000
0000
0100
0000
0010
0000
0100
0000
1000
0010
0100
0000
,
0001
0100
0001
0000
1000
0000
0100
0000
1000
0000
0010
0000
0100
0010
0100
0001
,
1000
0010
0100
0001
1000
0000
0100
0000
1000
0000
0001
0000
0010
0001
0010
0000
,
0100
1000
0100
0000
1000
0000
0010
0000
0100
0000
0010
0000
1000
0010
1000
0000
,
0001
0100
0001
0000
0010
0000
0001
0000
1000
0000
0100
0000
1000
0010
1000
0000
,
0010
0100
0010
0000
0100
0000
0001
0000
0010
0000
0001
0000
0010
0001
1000
0000
,
0100
1000
0001
0000
0100
0000
0010
1000
0010
0100
0001
0000
1000
0000
0100
1000
,
0100
0010
0001
0000
0100
0000
0010
1000
0010
0100
0001
0000
1000
0000
0100
1000
,
0001
1000
0100
0000
0010
0000
0001
0010
0001
0100
0010
0000
1000
0000
0010
1000
,
0010
0100
0010
0000
0100
0000
0001
1000
0001
0000
0100
0010
0100
0000
0001
0000
,
1000
0001
1001
0000
0000
0000
0000
0000
,
0000
1001
0000
0000
,
0000
1010
1010
0010
,
0100
0010
0100
0010
0100
0000
0000
0000
0000
0000
0000
0000
0000
0000
0000
0000
,
0101
0000
0101
0000
0101
0000
0000
0000
0000
0000
0000
0000
0001
1000
0001
1000
,
0001
1000
0001
1000
0001
0000
0000
0000
0000
0000
0000
0000
0000
0000
0000
0000
,
0000
1100
1100
0100
,
0010
0100
0010
0100
0010
0000
0000
0000
0000
0000
0000
0000
0000
0000
0000
0000
,
0011
0000
0011
0000
0011
0000
0000
0000
0000
0000
0000
0000
0001
0100
0001
0100
,
0001
0100
0001
0100
0001
0000
0000
0000
0000
0000
0000
0000
0000
0000
0000
0000
,
0000
0110
0110
0010
,
1000
0010
1000
0010
1000
0000
0000
0000
0000
0000
0000
0000
0000
0000
0000
0000
,
1100
0000
1100
0000
1100
0000
0000
0000
0000
0000
0000
0000
0100
1000
0100
1000
,
0100
1000
0100
1000
0100
0000
0000
0000
0000
0000
0000
0000
0000
0000
0000
0000
,
0000
0011
0011
0001
,
0001
0100
0001
0100
0001
0000
0000
0000
0000
0000
0000
0000
0000
0000
0000
0000
,
1001
0000
1001
0000
1001
0000
0000
0000
0000
0000
0000
0000
0001
0010
0001
0010
,
0001
0010
0001
0010
0001
0000
0000
0000
0000
0000
0000
0000
0000
0000
0000
0000
,
0000
1010
1010
0010
,
0100
0010
0100
0010
0100
0000
0000
0000
0000
0000
0000
0000
0001
0000
0000
0000
,
1001
0000
1001
0000
1001
0000
0000
0000
0000
0000
0000
0000
0100
1000
0100
1000
,
0100
1000
0100
1000
0100
0000
0000
0000
0000
0000
0000
0000
0000
0000
0000
0000
,
0000
0011
0011
0001
,
1000
0001
1000
0001
1000
0000
0000
0000
0000
0000
0000
0000
0000
0000
0000
0000
,
1010
0000
1010
0000
1010
0000
0000
0000
0000
0000
0000
0000
0010
0100
0010
0100
,
0010
0100
0010
0100
0010
0000
0000
0000
0000
0000
0000
0000
0000
0000
0000
0000
,
0000
0101
0101
0001
,
1000
0100
1000
0100
1000
0000
0000
0000
0000
0000
0000
0000
0000
0000
0000
0000
,
0011
0000
0011
0000
0011
0000
0000
0000
0000
0000
0000
0000
0001
0010
0001
0010
,
0001
0010
0001
0010
0001
0000
0000
0000
0000
0000
0000
0000
0000
0000
0000
0000
,
0000
1001
1001
1000
,
0001
1000
0001
1000
0001
0000
0000
0000
0000
0000
0000
0000
0000
0000
0000
0000
,
1001
0000
1001
0000
1001
0000
0000
0000
0000
0000
0000
0000
1000
0001
1000
0001
,
1000
0001
1000
0001
2000
0000
0000
0000
0000
0000
0000
0000
0000
0000
0000
0000
,
0000
3200
0320
0032
,
0203
0320
0000
0000
,
0000
2030
0000
0000
,
3200
2300
3020
0000
0000
0000
0230
0000
,
0320
2030
0000
3002
,
0000
0003
1001
0000
0000
0000
1001
1001
,
1000
0000
0000
0000
0001
1000
0001
1000
0001
0000
0000
0000
0000
0000
0000
0000
0000
0000
0000
0000
1001
0000
1001
0000
1001
0000
0000
0000
0000
0000
0000
0000
,
1000
0001
1000
0001
1000
0001
1000
0001
2000
0000
0000
0000
0000
0000
0000
0000
0000
0000
0000
0000
0000
0000
0000
0000
0000
0000
0000
0000
0000
0000
0000
0000
,
0000
0000
0000
0000
,
301M
0000
1010
0000
0110
0000
0101
0000
0001
0010
0100
1000
0100
1000
0001
1000
,
0001
0100
0010
1000
0010
1000
0001
1000
0100
0010
0001
0100
0010
1000
0010
0100
,
0001
1000
0100
1000
0001
0010
0001
1000
0001
0100
0010
1000
0010
0100
0001
0100
,
0010
1000
0010
1000
0001
1000
0100
0010
0100
1000
0010
0100
0010
1000
0001
0100
,
0010
1000
0100
0010
0100
1000
0001
1000
0001
0100
0010
0100
0010
1000
0010
0100
,
0010
1000
0001
0100
0010
0100
0001
1000
0100
0010
0001
0010
0100
1000
0010
0100
,
0001
0010
0001
1000
0001
1000
0010
1000
0001
1000
0100
0010
0001
0010
0100
1000
,
0001
0010
0001
1000
0100
1000
0010
0100
0001
0000
1000
0010
1000
0000
0001
0100
,
0001
0000
1000
0001
1000
0000
0100
0000
1000
0100
0010
0001
0010
0100
0010
0001
,
1000
0010
0100
0001
0100
0010
0100
0001
1000
0001
0100
0001
1000
0010
0100
0010
,
1000
0100
0010
0001
1000
0001
0010
0100
1000
0001
0100
0010
0100
0001
0010
0001
,
1000
0100
1000
0001
0100
0010
0100
0001
1000
0010
0100
0010
1000
0010
0100
0001
,
0010
0001
1000
0100
1000
0100
0010
0001
0010
0100
0010
0001
1000
0001
0100
0010
,
1000
0010
0100
0001
0010
0001
1000
0100
1000
0100
0010
0001
0010
0001
1000
0001
,
0100
0010
1000
0010
0100
0001
1000
0100
0010
0001
0010
0001
0100
0010
1000
0100
,
1000
0001
0100
0010
0100
0001
1000
0100
1000
0000
0001
0100
0001
0000
1000
0010
,
1000
0000
0100
1000
0100
0000
0010
0000
0001
0010
0100
0010
0001
1000
0010
0100
,
0001
0010
0001
1000
0100
1000
0001
0010
0001
1000
0010
1000
0001
1000
0100
0010
,
0001
1000
0001
0010
0100
1000
0001
0010
0100
0010
0001
1000
0010
0100
0001
0100
,
0010
1000
0010
0100
0001
0010
0001
1000
0100
1000
0100
0010
0100
0010
0001
0010
,
0001
1000
0001
0100
0010
0100
0001
0100
0010
1000
0010
0100
0001
0010
0001
1000
,
0100
0010
0001
0010
0100
1000
0001
1000
0010
0100
0001
0010
0001
1000
0001
0100
,
0010
0100
0001
1000
0100
0010
0100
1000
0001
1000
0100
1000
0001
0100
0010
1000
,
0010
0100
0001
1000
0001
1000
0100
0010
0001
0000
1000
0100
1000
0000
0001
0010
,
0001
0000
0100
0010
0100
0000
0010
0000
1000
0010
0100
0001
1000
0010
0100
0001
,
0010
0001
1000
0100
0010
0001
1000
0100
0010
0100
1000
0001
1000
0010
0100
0010
,
1000
0010
0100
0001
1000
0001
0010
0001
0010
0100
0010
0100
1000
0100
1000
0001
,
0100
0010
0100
0001
1000
0010
0100
0001
0010
0001
0100
0010
1000
0010
0100
0001
,
1000
0100
0010
0001
0010
0100
1000
0001
0010
0001
1000
0001
1000
0010
1000
0010
,
0100
0001
0100
0010
0100
0001
1000
0010
0100
0001
0010
0001
1000
0100
0010
0100
,
1000
0001
0010
0100
0010
0001
1000
0100
1000
0010
0100
0001
1000
0010
0100
0001
,
0100
0010
0100
0001
0010
0001
1000
0100
1000
0000
0000
1010
0000
0000
0010
0000
,
0010
0000
0000
0110
0000
0000
0010
0000
1000
0100
0010
0001
0010
0100
1000
0010
,
0100
0001
0100
0010
0100
0001
1000
0001
1000
0100
0010
0001
0010
0001
1000
0001
,
0100
0001
0100
0010
0100
0010
1000
0010
1000
0001
1000
0100
0010
0001
0010
0001
,
0100
0010
1000
0100
1000
0001
0100
0010
0100
0001
1000
0100
0010
0100
1000
0010
,
0100
0001
0010
0001
1000
0001
0100
0010
0100
0001
0100
0010
1000
0010
0100
0001
,
1000
0100
0010
0100
1000
0001
0100
0010
0100
0001
1000
0010
0100
0001
1000
0100
,
0010
0001
1000
0100
0010
0001
1000
0001
0100
0010
0100
0001
1000
0001
1000
0010
,
1000
0100
0010
0001
1000
0010
0100
0001
1000
0000
0010
1000
0010
0000
0100
0001
,
0100
0000
0001
0010
0001
0000
1000
0000
0001
0010
0100
0010
0001
1000
0010
0100
,
0001
0100
0010
0100
0001
1000
0010
1000
0010
0100
0001
0100
0001
0010
0001
0010
,
0100
1000
0100
1000
0100
0010
0100
1000
0100
0010
0001
1000
0001
0010
0100
0010
,
0001
1000
0010
0100
0010
1000
0001
0100
0010
0100
0001
0010
0001
1000
0100
0010
,
0001
0010
0100
1000
0001
0100
0010
0100
0001
0010
0001
0100
0010
1000
0100
1000
,
0001
0100
0010
0100
0001
1000
0010
0100
0010
1000
0001
0100
0010
0100
0001
0010
,
0001
1000
0100
0010
0001
0010
0100
0010
0001
1000
0010
0100
0001
0100
0010
0100
,
0001
1000
0001
0100
0010
0100
0010
1000
0010
0000
0100
0001
0100
0000
0010
1000
,
0010
0000
1000
0100
1000
0000
0100
0000
0010
0000
0000
0001
0000
0000
0100
0000
,
0101
0000
0000
0010
0000
0000
1000
0000
1100
0000
0000
0100
0000
0000
0010
0000
,
0011
0000
0000
0001
0000
0000
1000
0000
1001
0000
0000
0001
0000
0000
0100
0000
,
0110
0000
0000
0010
0000
0000
1000
0000
1010
0000
0000
0010
0000
0000
0100
0000
,
0101
0000
0000
0001
0000
0000
0010
0000
0011
0000
0000
0001
0000
0000
1000
0000
,
1010
0000
0000
0010
0000
0000
0100
0000
0110
0000
0000
0010
0000
0000
1000
0000
,
1100
0000
0000
0010
0000
0000
0001
0000
1001
0000
0000
1000
0000
0000
0100
0000
,
1100
0000
0000
1000
0000
0000
0001
0000
0011
0000
0010
0100
0010
0000
0100
1000
,
0100
0000
1000
0001
1000
0000
0010
0000
0100
0000
0001
0000
0010
0000
0001
0000
,
0100
0010
1000
0100
0010
0100
1000
0010
,
0100
0001
0010
0001
1000
0010
0100
0010
,
1000
0100
0010
0001
0010
0100
1000
0001
,
0100
0000
0010
0000
1000
0000
0100
0000
0110
0000
0000
0011
0000
0000
1001
0000
,
0101
0000
0000
0110
0000
0000
1010
0000
0101
0000
0000
0011
0000
0000
1100
0000
,
1001
0000
0000
0101
0000
0000
0110
0000
1010
0000
0000
1100
0000
0000
0110
0000
,
0011
0000
0000
1001
0000
0000
1010
0000
0101
0000
0000
0011
0000
0000
1100
0000
,
1001
0000
0000
0101
0000
0000
0011
0000
0010
0001
1000
0000
0100
0000
1000
0000
,
0010
0100
0001
0000
1000
0000
0010
1000
0010
0100
0001
0000
0010
0000
0001
0000
,
1000
0100
1000
0000
0010
0000
0100
0010
1000
0010
0100
0000
0001
0000
0010
0000
,
0001
0010
0001
0000
1000
0000
0010
1000
0010
0100
0001
0000
1000
0000
0100
0000
,
0010
0001
1000
0000
0001
0000
0100
0010
0100
0001
1000
0000
0010
0000
0100
0000
,
0010
1000
0010
0000
0100
0000
0001
0010
0001
0100
0010
0000
1000
0000
0010
0000
,
0100
0010
0100
0000
0001
0000
0010
0100
1000
0100
0010
0000
0001
0000
1000
0000
,
0010
1000
0010
0000
0100
0000
0001
1000
0001
0100
0010
0000
0100
0000
0010
0000
,
1001
1000
0001
1000
0001
0000
1000
0000
,
1010
0000
0010
0100
0001
1000
0001
0000
,
1001
0000
0000
0000
1000
0000
0100
0000
0010
0000
0100
0010
0100
0000
0010
0000
,
0001
0000
1000
0010
1000
0100
0010
0100
,
1001
0100
1001
0100
1001
0000
1000
0100
,
0010
0000
0110
0000
0010
0001
1000
0000
,
1001
0000
1000
0010
0110
0000
0010
0100
,
0101
0000
0000
0000
0001
0000
0100
0000
0010
0000
1000
0010
0100
0000
0001
0000
,
1001
0000
0000
0000
1001
0000
0000
0000
0001
1000
0001
0000
0010
0000
0100
0000
,
1000
0100
1000
0000
0010
0000
1000
0001
0010
0100
1000
0000
0001
0000
0100
0000
,
0010
0100
0010
0000
1000
0000
0010
0100
0001
0010
0001
0000
1000
0000
0100
0000
,
0010
0100
0010
0000
0001
0000
1000
0010
0100
0001
0100
0000
0010
0000
1000
0000
,
0100
1000
0100
0000
0010
0000
0001
0010
0100
1000
0100
0000
0010
0000
0001
0000
,
1000
0010
0100
0000
0010
0000
0100
0010
0100
0001
1000
0000
0100
0000
0010
0000
,
0001
0010
0001
0000
1000
0000
0010
0100
0010
1000
0001
0000
0010
0000
0100
0000
,
1000
0010
1000
0000
0001
0000
0010
0001
0100
0010
1000
0000
0100
0000
0010
0000
,
0001
0010
0001
0000
0100
0000
0010
0100
0001
0100
0010
0000
1000
0000
0100
0000
,
1000
0100
1000
0000
0001
0000
0010
0001
0010
0100
1000
0000
0010
0000
0100
0000
,
0010
0100
0010
0000
1000
0000
0001
0010
0100
1000
0100
0000
1000
0000
0001
0000
,
0010
0100
0010
0000
0001
0000
0010
0001
0100
0001
0010
0000
0001
0000
1000
0000
,
0010
0100
0010
0000
1000
0000
0001
0100
0010
0100
0001
1000
0010
0100
0001
0000
,
0010
0001
0010
0000
0100
0000
1000
0010
0100
0001
0010
0001
1000
0010
0100
0000
,
0010
0100
0001
0000
0010
0000
0001
0010
0100
1000
0100
0010
0001
1000
0010
0000
,
0100
0010
0100
0000
0010
0000
1000
0010
0100
0010
1000
0100
0010
0100
0010
0001
,
1000
0010
0100
0001
1000
0000
0100
0000
1000
0000
0000
1000
0000
0000
0100
0000
,
0100
0000
0000
0010
0000
0000
0001
0000
0001
0000
0000
1000
0000
0000
0010
0000
,
0010
0000
0000
0100
0000
0000
0001
0000
0001
0000
0000
0100
0000
0000
0010
0000
,
0010
0000
0000
1000
0000
0000
0100
0000
0100
0000
0000
1000
0000
0000
0010
0000
,
0010
0000
0000
0100
0000
0000
0001
0000
0001
0000
0000
0010
0000
0000
0100
0000
,
0100
0000
0000
1000
0000
0000
0010
0000
0010
0000
0000
0100
0000
0000
0001
0000
,
0001
0000
0000
0010
0000
0000
0100
0000
0100
0000
0000
0010
0000
0000
0001
0000
,
0001
0000
0000
1000
0000
0000
0010
0000
0010
0000
0000
0000
0100
0000
0000
0000
,
0010
0000
0100
0000
0001
0000
1000
0000
0010
0000
0000
0100
0000
0000
0001
0000
,
0001
0000
0000
0010
0000
0000
0100
0000
0100
0000
0000
1000
0000
0000
0010
0000
,
0010
0000
0000
0100
0000
0000
0001
0000
0001
0000
0000
0010
0000
0000
0100
0000
,
0100
0000
0000
0010
0000
0000
0001
0000
0001
0000
0000
0100
0000
0000
0010
0000
,
0010
0000
0000
0100
0000
0000
0001
0000
0001
0000
0000
0010
0000
0000
0100
0000
,
0100
0000
0000
1000
0000
0000
0001
0000
0001
0000
0000
1000
0000
0000
0100
0000
,
0100
0000
0000
0010
0000
0000
0001
0000
0001
0000
0000
1000
0000
0000
0010
0000
,
0010
0000
0000
0100
0000
0000
0001
0000
0001
0000
0000
1000
0000
0000
0100
0000
,
0100
0000
0000
0010
0000
0000
0001
0000
0101
0000
0000
0100
0000
0000
0010
0000
,
1010
0000
0000
1000
0000
0000
0001
0000
0011
0000
0000
0100
0000
0000
1000
0000
,
1010
0000
0000
0010
0000
0000
0100
0000
0101
0000
0000
0001
0000
0000
0100
0000
,
0110
0000
0000
0010
0000
0000
1000
0000
1001
0000
0000
1000
0000
0000
0100
0000
,
1100
0000
0000
0010
0000
0000
0001
0000
0011
0000
0000
0001
0000
0000
0100
0000
,
0110
0000
0000
0010
0000
0000
1000
0000
1100
0000
0000
0100
0000
0000
0010
0000
,
0011
0000
0000
0001
0000
0000
1000
0000
1001
0000
0000
0001
0000
0000
0100
0000
,
0110
0000
0000
0010
0000
0000
1000
0000
1100
0000
0100
0010
0100
0000
0010
0001
,
0010
0000
0001
0000
1000
0000
0010
0000
0100
0000
0000
0001
0000
0000
1000
0000
,
1010
0000
0000
0010
0000
0000
0100
0000
0101
0000
0000
0001
0000
0000
0010
0000
,
0011
0000
0000
0100
0000
0000
1000
0000
1010
0000
0000
0001
0000
0000
0010
0000
,
0011
0000
0000
0100
0000
0000
1000
0000
1100
0000
0000
0100
0000
0000
1000
0000
,
1001
0000
0000
0001
0000
0000
0100
0000
0110
0000
0000
0010
0000
0000
1000
0000
,
1100
0000
0000
0100
0000
0000
0010
0000
0011
0000
0000
0001
0000
0000
0100
0000
,
0110
0000
0000
0010
0000
0000
1000
0000
1001
0000
0000
0001
0000
0000
1000
0000
,
1010
0000
0000
0010
0000
0000
0100
0000
0101
0000
0001
1000
0001
0000
0100
0010
,
0100
0000
0010
1000
0010
0000
0100
0000
0001
0010
0001
0100
0010
1000
0001
1000
,
0100
0010
0001
0010
0100
1000
0100
0010
0100
1000
0010
0100
0010
0100
0001
0100
,
0010
1000
0010
0100
0001
1000
0100
0010
0001
0010
0100
1000
0001
0010
0001
1000
,
0010
0100
0001
0100
0010
0100
0010
1000
0010
0100
0001
0010
0100
0010
0001
1000
,
0100
0010
0100
1000
0001
1000
0010
0100
0010
1000
0001
1000
0100
0010
0001
0010
,
0100
1000
0001
0100
0010
0100
0001
1000
0100
0010
0001
0010
0001
1000
0001
1000
,
0010
1000
0010
0100
0001
0100
0010
1000
0001
1000
0100
0010
0001
0010
0100
1000
,
0001
0100
0010
0100
0001
1000
0100
0010
0100
0000
1000
0100
1000
0000
0001
0010
,
0001
0000
1000
0010
1000
0000
0100
0000
0010
0001
0010
0100
0010
0001
1000
0010
,
0100
0001
0100
0010
0100
0010
1000
0001
0100
0010
0100
0001
0010
0001
0100
0010
,
1000
0100
0010
0001
0010
0100
0010
0001
1000
0001
0100
0010
0100
0001
1000
0100
,
0010
0100
1000
0001
0010
0100
0010
0001
0010
0001
1000
0001
1000
0010
0100
0010
,
1000
0010
0100
0001
0010
0001
1000
0010
0100
0001
0010
0001
1000
0100
0010
0001
,
0010
0100
1000
0001
1000
0010
0100
0001
0010
0001
1000
0100
1000
0001
1000
0001
,
0100
0010
0100
0010
1000
0001
0100
0010
1000
0001
0100
0010
0100
0001
1000
0100
,
0010
0100
1000
0010
0100
0001
0010
0001
1000
0000
0010
1000
0010
0000
0100
0001
,
0100
0000
0001
1000
0001
0000
1000
0000
0010
1000
0010
0100
0001
1000
0001
0100
,
0010
0100
0001
1000
0100
0010
0001
1000
0001
0010
0100
1000
0001
0010
0001
1000
,
0100
1000
0010
0100
0001
0100
0010
1000
0010
0100
0001
1000
0100
0010
0001
0010
,
0100
1000
0001
0010
0001
1000
0100
1000
0001
0100
0010
0100
0001
1000
0100
0010
,
0100
1000
0001
1000
0010
0100
0010
1000
0001
0100
0010
1000
0100
1000
0010
0100
,
0001
1000
0001
0010
0001
1000
0100
0010
0001
0010
0100
1000
0100
1000
0100
0010
,
0001
0010
0001
1000
0001
1000
0010
0100
0001
1000
0100
0010
0001
1000
0100
1000
,
0001
0010
0001
1000
0010
1000
0010
0100
0001
0000
1000
0010
1000
0000
0001
0010
,
0001
0000
1000
0100
1000
0000
0010
0000
0100
0010
0100
0001
0010
0001
1000
0100
,
1000
0010
0100
0001
0100
0010
1000
0100
0010
0001
0010
0001
1000
0001
1000
0010
,
1000
0010
0100
0001
1000
0010
0100
0001
1000
0100
0010
0001
0010
0100
0010
0001
,
1000
0010
0100
0010
1000
0001
0010
0001
1000
0010
0100
0001
0100
0010
1000
0010
,
0100
0000
0000
0110
0000
0000
0101
0000
1001
0000
0000
1100
0000
0000
0110
0000
,
0011
0000
0000
0101
0000
0000
0110
0000
0101
0000
0000
1001
0000
0000
1100
0000
,
0110
0000
0000
0011
0000
0000
1001
0000
1001
0000
0000
1010
0000
0000
0110
0000
,
0110
0000
0000
0101
0000
0000
1001
0000
1001
0000
0000
1100
0000
0000
0110
0000
,
0110
0000
0000
0011
0000
0000
1001
0000
1001
0000
0000
1010
0000
0000
0110
0000
,
1001
0000
0000
0101
0000
0000
1001
0000
1100
0000
0000
0011
0000
0000
0110
0000
,
1001
0000
0000
0011
0000
0000
0101
0000
0011
0000
0000
1100
0000
0000
1010
0000
,
1100
0000
0000
0110
0000
0000
0011
0000
1100
0000
0000
1010
0000
0000
0110
0000
,
0101
0000
0000
0000
0000
0000
0000
0000
0000
1001
0000
0000
0000
0000
0000
0000
0000
0000
0110
0000
0000
0000
0000
0000
2002
0000
0000
0000
0M00
0000
0000
0000
00M0
0000
0000
0000
0M00
0000
0000
0000
00M0
0000
0000
0000
0M00
0000
0000
0000
,
00M0
0M00
00M0
0M00
00M0
0M00
3003
0000
0000
0000
0000
0000
;
