#TITLE:Viool Tello;
#SUBTITLE:;
#ARTIST:Jeroen Tel;
#TITLETRANSLIT:;
#SUBTITLETRANSLIT:;
#ARTISTTRANSLIT:;
#CREDIT:;
#BANNER:banner.jpg;
#BACKGROUND:;
#LYRICSPATH:;
#CDTITLE:plaag.png;
#MUSIC:Jeroen Tel - Viool Tello.mp3;
#OFFSET:0.000;
#SAMPLESTART:48.000;
#SAMPLELENGTH:12.000;
#SELECTABLE:YES;
#BPMS:0.000=125.000;
#STOPS:;
#BGCHANGES:;
// cache tags:
#FIRSTBEAT:0.000;
#LASTBEAT:208.000;
#SONGFILENAME:Songs/hard shit/(Plaag) Viool Tello/Jeroen Tel - Viool Tello.sm;
#HASMUSIC:1;
#HASBANNER:1;
#MUSICLENGTH:99.892;
// end cache tags

//---------------dance-single - Blank----------------
#NOTES:
     dance-single:
     Blank:
     Medium:
     10:
     0.778,0.598,0.090,0.140,1.000,513.000,9.000,14.000,0.000,0.000:



1000
0100
0001
0000
0010
0000
0001
0100
0000
0000
1000
0100
0010
0001
0010
0100
,
1000
0000
1000
0000
0100
0000
0100
0200
0000
0000
0000
0000
0000
0000
0000
0300
,
1000
0100
0001
0010
0100
0010
0100
0001
0010
1000
0100
0010
0001
0100
1000
0010
,
0100
0000
0100
0000
0010
0000
0010
0020
0000
0000
0000
0000
0000
0000
0000
0030
,
0001
0010
1000
0100
0010
0100
0010
1000
0100
0001
0010
0100
1000
0010
0001
0100
,
1000
0000
1000
0000
0001
0000
0001
0002
0000
0000
0000
0000
0000
0000
0000
0003
,
1000
0100
0010
0100
0010
0001
0010
0001
0010
0100
1000
0010
0001
1000
0100
0010
,
0001
0000
0001
0000
1000
0000
1000
2000
0000
0000
0000
0000
0000
0000
0000
3000
,
0001
0100
0010
1000
0001
0100
0100
0001
0100
0001
1000
0010
0000
0001
0100
0001
,
0040
0000
0000
0000
0000
0000
0000
0000
0000
0000
0000
0000
0130
1000
0100
0001
,
0010
1000
0100
0100
1000
0000
0100
0001
0010
0001
0100
0001
1000
0100
0001
0010
,
1000
0001
0001
0100
0004
0000
0000
0000
0000
0000
0000
0000
4003
0000
0000
0000
,
3000
0100
0010
1000
0001
0100
0100
1000
0010
1000
0100
0001
0100
1000
0010
1000
,
0400
0000
0000
0000
0000
0000
0000
0000
0000
0000
0000
0000
0310
0100
0010
0001
,
1000
0100
0001
0100
0010
0010
0100
0001
0100
0010
1000
1000
0010
0100
0001
0010
,
1000
0001
0001
0010
0400
0000
0000
0000
0000
0000
0000
0000
0304
0000
0000
0000
,
1003
0010
0100
0000
0010
0000
1000
0010
0000
0000
0001
0010
0100
1000
0100
0010
,
0001
0000
0001
0000
0010
0000
0010
0020
0000
0000
0000
0000
0000
0000
0000
0030
,
0001
0010
1000
0100
0010
0100
0010
1000
0100
0001
0010
0100
1000
0010
0001
0100
,
0010
0000
0010
0000
0100
0000
0100
0200
0000
0000
0000
0000
0000
0000
0000
0300
,
1000
0100
0001
0010
0100
0010
0100
0001
0010
1000
0100
0010
0001
0100
1000
0010
,
0001
0000
0001
0000
1000
0000
1000
2000
0000
0000
0000
0000
0000
0000
0000
3000
,
0001
0010
0100
0010
0100
1000
0100
1000
0100
0010
0001
0100
1000
0001
0010
0100
,
1000
0000
1000
0000
0001
0000
0001
0002
0000
0000
0000
0000
0000
0000
0000
0003
,
1000
0010
0100
0001
1000
0010
0010
1000
0010
0010
0001
1000
0001
0100
0010
1000
,
0400
0000
0000
0000
0000
0000
0000
0000
0000
0000
0000
0000
1300
0100
0010
0001
,
0100
0010
0010
0001
0100
0100
0001
1000
1000
0100
0001
0001
0100
1000
0001
0010
,
0100
1000
1000
0100
4000
0000
0000
0000
0000
0000
0000
0000
3004
0000
0000
0000
,
1003
0100
0010
1000
0001
0001
1000
0100
1000
1000
0001
0001
1000
0010
1000
0010
,
0400
0000
0000
0000
0000
0000
0000
0000
0000
0000
0000
0000
0301
0100
0010
0001
,
1000
0100
0100
0001
0010
0010
1000
0001
0001
0010
1000
1000
0010
0100
0001
0010
,
1000
0001
0001
0100
0004
0000
0000
0000
0000
0000
0000
0000
0403
0000
0000
0000
,
0310
0001
0010
0000
1000
0000
0010
0001
0000
0000
0100
0001
1000
0010
1000
0001
,
0100
0000
0100
0000
0001
0000
0001
0002
0000
0000
0000
0000
0000
0000
0000
0003
,
0100
0001
0010
1000
0001
1000
0001
0010
1000
0100
0001
1000
0010
0001
0100
1000
,
0001
0000
0001
0000
1000
0000
1000
2000
0000
0000
0000
0000
0000
0000
0000
3000
,
0010
1000
0100
0001
1000
0001
1000
0100
0001
0010
1000
0001
0100
1000
0010
0001
,
0100
0000
0100
0000
0010
0000
0010
0020
0000
0000
0000
0000
0000
0000
0000
0030
,
0100
0001
1000
0001
1000
0010
1000
0010
1000
0001
0100
1000
0010
0100
0001
1000
,
0010
0000
0010
0000
0100
0000
0100
0200
0000
0000
0000
0000
0000
0000
0000
0300
,
0010
0001
1000
0100
0010
0100
0001
0010
0001
0010
1000
0010
0100
0010
0100
0010
,
0400
0000
0000
0000
0000
0000
0000
0000
0000
0000
0000
0000
1300
0001
1000
0010
,
0001
1000
0100
0010
0001
0010
0001
0100
1000
0010
0001
0010
0001
0100
0010
1000
,
0100
0001
0010
0100
0004
0000
0000
0000
0000
0000
0000
0000
0000
0000
0000
0000
,
0003
0010
1000
0100
0010
0001
0100
0001
1000
0100
0001
0100
0001
1000
0001
1000
,
0040
0000
0000
0000
0000
0000
0000
0000
0000
0000
0000
0000
0130
0001
1000
0010
,
0100
0001
0010
0001
1000
0100
1000
0010
0001
1000
0100
1000
0100
0001
0010
1000
,
0100
0010
0001
0001
4000
0000
0000
0000
0000
0000
0000
0000
3040
0000
0000
0000
,
0030
0100
0001
0000
0010
0000
0001
0100
0000
0000
1000
0100
0010
0001
0010
0100
,
1000
0000
1000
0000
0100
0000
0100
0200
0000
0000
0000
0000
0000
0000
0000
0300
,
1000
0100
0001
0010
0100
0010
0100
0001
0010
1000
0100
0010
0001
0100
1000
0010
,
0100
0000
0100
0000
0010
0000
0010
0020
0000
0000
0000
0000
0000
0000
0000
0030
;

//---------------dance-single - Blank----------------
#NOTES:
     dance-single:
     Blank:
     Hard:
     13:
     1.000,1.000,0.000,0.140,1.000,873.000,0.000,14.000,0.000,0.000:






1000
0100
0001
0000
0010
0000
0001
0100
0000
0000
1000
0100
0010
0001
0010
0100
,
1000
0000
1000
0000
0100
0000
0100
0200
0000
0000
0000
0000
0000
0000
0000
0300
,
1000
0100
0001
0010
0100
0010
0100
0001
0010
1000
0100
0010
0001
0100
1000
0010
,
0100
0000
0100
0000
0010
0000
0010
0020
0000
0000
0000
0000
0000
0000
0000
0030
,
0001
0010
1000
0100
0010
0100
0010
1000
0100
0001
0010
0100
1000
0010
0001
0100
,
1000
0000
1000
0000
0001
0000
0001
0002
0000
0000
0000
0000
0000
0000
0000
0003
,
1000
0100
0010
0100
0010
0001
0010
0001
0010
0100
1000
0010
0001
1000
0100
0010
,
0001
0000
0001
0000
1000
0000
1000
2000
0000
0000
0000
0000
0000
0000
0000
3000
,
0001
0000
0100
0000
0010
0000
1000
0000
0001
0010
0100
1000
0100
0000
0001
0000
0100
0010
0001
0000
1000
0000
0010
0100
1000
0100
0010
0001
0010
0100
1000
0100
,
0010
0001
0010
0100
1000
0100
0010
0001
0010
0100
1000
0100
0010
0001
0010
0100
1000
0100
0010
0001
0010
0100
1000
0000
0010
0000
0100
0000
0010
0000
0001
0000
,
0100
0000
0010
0100
1000
0000
0001
0000
0100
0010
0001
0000
0100
0000
1000
0100
0010
0000
0001
0000
0100
0010
0001
0000
0100
0000
1000
0000
0001
0000
0010
0000
,
1000
0000
0100
0010
0001
0000
0100
0000
0010
0100
0010
0100
0010
0100
0010
0100
0010
0100
0010
0100
0010
0100
0010
0100
0001
0010
0100
1000
0001
0010
0100
1000
,
0001
0000
0100
0000
0010
0000
1000
0000
0001
0010
0100
0000
1000
0000
0100
0000
0010
0100
1000
0000
0100
0010
0001
0000
0001
0010
0100
1000
0100
0010
0001
0010
,
0100
1000
0100
0010
0001
0010
0100
1000
0100
0010
0001
0010
0100
1000
0100
0010
0001
0010
0100
1000
0100
0010
0001
0000
0010
0000
0100
0000
0010
0000
0001
0000
,
1000
0000
0100
0010
0001
0000
0100
0000
0010
0100
1000
0000
0010
0000
0001
0010
0100
0000
0010
0000
1000
0100
0010
0000
1000
0000
0100
0000
0001
0000
0010
0000
,
1000
0000
0001
0010
0100
0000
0001
0000
1000
0100
0010
0001
0010
0100
1000
0100
0010
0001
0010
0100
1000
0100
0010
0001
0010
0100
1000
0100
0010
0001
0100
0000
,
0001
0010
1000
0000
0100
0000
1000
0010
0000
0000
0001
0010
0100
1000
0100
0010
,
0001
0000
0001
0000
0010
0000
0010
0020
0000
0000
0000
0000
0000
0000
0000
0030
,
0001
0010
1000
0100
0010
0100
0010
1000
0100
0001
0010
0100
1000
0010
0001
0100
,
0010
0000
0010
0000
0100
0000
0100
0200
0000
0000
0000
0000
0000
0000
0000
0300
,
1000
0100
0001
0010
0100
0010
0100
0001
0010
1000
0100
0010
0001
0100
1000
0010
,
0001
0000
0001
0000
1000
0000
1000
2000
0000
0000
0000
0000
0000
0000
0000
3000
,
0001
0010
0100
0010
0100
1000
0100
1000
0100
0010
0001
0100
1000
0001
0010
0100
,
1000
0000
1000
0000
0001
0000
0001
0002
0000
0000
0000
0000
0000
0000
0000
0003
,
1000
0000
0010
0000
0100
0000
0001
0000
1000
0100
0010
0001
0010
0000
1000
0000
0010
0100
0010
0000
0001
0000
0100
1000
0001
0010
0100
1000
0001
0010
0100
1000
,
0001
0010
0100
1000
0001
0010
0100
1000
0001
0010
0100
1000
0001
0010
0100
1000
0001
0010
0100
1000
0001
0010
0100
0000
1000
0000
0100
0000
0010
0000
0001
0000
,
0100
0000
0010
0100
0010
0000
0001
0000
0100
0010
0100
0000
0001
0000
1000
0100
1000
0000
0100
0000
0001
0010
0001
0000
0100
0000
1000
0000
0001
0000
0010
0000
,
0100
0000
1000
0010
1000
0000
0100
0000
0001
0010
0001
0010
0001
0010
0001
0010
0001
0010
0001
0010
0001
0010
0001
0010
0001
0010
0100
1000
0001
0010
0100
1000
,
0001
0000
0100
0000
0010
0000
1000
0000
0001
0100
0001
0000
1000
0000
0100
0000
1000
0001
1000
0000
0001
1000
0001
0000
1000
0100
0010
0001
1000
0100
0010
0001
,
1000
0100
0010
0001
1000
0100
0010
0001
1000
0100
0010
0001
1000
0100
0010
0001
1000
0100
0010
0001
1000
0100
0010
0000
0001
0000
0100
0000
0010
0000
0001
0000
,
1000
0000
0100
0010
0100
0000
0001
0000
0010
0100
0010
0000
1000
0000
0001
0100
0001
0000
0010
0000
1000
0010
1000
0000
0010
0000
0100
0000
0001
0000
0010
0000
,
1000
0000
0001
0010
0001
0000
0010
0000
0001
0010
0100
1000
0001
0010
0100
1000
0001
0010
0100
1000
0001
0010
0100
1000
0001
0010
0100
1000
0001
0010
0100
0000
,
1000
0001
0010
0000
1000
0000
0010
0001
0000
0000
0100
0001
1000
0010
1000
0001
,
0100
0000
0100
0000
0001
0000
0001
0002
0000
0000
0000
0000
0000
0000
0000
0003
,
0100
0001
0010
1000
0001
1000
0001
0010
1000
0100
0001
1000
0010
0001
0100
1000
,
0001
0000
0001
0000
1000
0000
1000
2000
0000
0000
0000
0000
0000
0000
0000
3000
,
0010
1000
0100
0001
1000
0001
1000
0100
0001
0010
1000
0001
0100
1000
0010
0001
,
0100
0000
0100
0000
0010
0000
0010
0020
0000
0000
0000
0000
0000
0000
0000
0030
,
0100
0001
1000
0001
1000
0010
1000
0010
1000
0001
0100
1000
0010
0100
0001
1000
,
0010
0000
0010
0000
0100
0000
0100
0200
0000
0000
0000
0000
0000
0000
0000
0300
,
0010
0000
0001
0000
1000
0000
0100
0000
0010
0001
0100
1000
0001
0000
0010
0000
0001
1000
0010
0000
1000
0000
0010
0001
0100
1000
0010
0001
0100
1000
0010
0001
,
0100
1000
0010
0001
0100
1000
0010
0001
0100
1000
0010
0001
0100
1000
0010
0001
0100
1000
0010
0001
0100
1000
0001
0000
1000
0000
0001
0000
1000
0000
0010
0000
,
0001
0000
1000
0001
0100
0000
0010
0000
0001
1000
0010
0000
0001
0000
0100
0001
1000
0000
0010
0000
0001
1000
0010
0000
0001
0000
0100
0000
0010
0000
1000
0000
,
0100
0000
0001
1000
0010
0000
0100
0000
0001
1000
0001
1000
0001
1000
0001
1000
0001
1000
0001
1000
0001
1000
0001
1000
0001
0010
1000
0100
0001
0010
1000
0100
,
0001
0000
0010
0000
1000
0000
0100
0000
0010
1000
0001
0000
0100
0000
0001
0000
1000
0001
0100
0000
0001
1000
0100
0000
0001
0010
1000
0100
0001
0010
1000
0100
,
0001
0010
1000
0100
0001
0010
1000
0100
0001
0010
1000
0100
0001
0010
1000
0100
0001
0010
1000
0100
0001
0010
1000
0000
0010
0000
0001
0000
1000
0000
0010
0000
,
0100
0000
0001
1000
0010
0000
0001
0000
1000
0001
0100
0000
1000
0000
0010
1000
0001
0000
1000
0000
0100
0001
1000
0000
0100
0000
0001
0000
0010
0000
1000
0000
,
0100
0000
0010
1000
0001
0000
0001
0000
1000
0100
0001
0010
1000
0100
0001
0010
1000
0100
0001
0010
1000
0100
0001
0010
1000
0100
0010
0001
1000
0100
0010
0001
,
1000
0100
0001
0000
0010
0000
0001
0100
0000
0000
1000
0100
0010
0001
0010
0100
,
1000
0000
1000
0000
0100
0000
0100
0200
0000
0000
0000
0000
0000
0000
0000
0300
,
1000
0100
0001
0010
0100
0010
0100
0001
0010
1000
0100
0010
0001
0100
1000
0010
,
0100
0000
0100
0000
0010
0000
0010
0020
0000
0000
0000
0000
0000
0000
0000
0030
;

//---------------dance-single - Blank----------------
#NOTES:
     dance-single:
     Blank:
     Edit:
     18:
     1.000,1.000,1.000,0.140,1.000,1044.000,562.000,14.000,0.000,48.000:

1001
0110
1001
0010
0101
0010
1001
0110
0001
0010
1001
0110
1001
0110
1001
0110
,
0101
1000
0110
1000
0101
1000
0100
1002
0100
1000
0100
1000
0100
1000
0100
1003
,
0101
1010
0101
1010
0101
1010
0101
1010
0101
1010
0101
1010
0101
1010
0101
1010
,
0101
0010
0101
0010
1001
0010
1001
2010
0001
0010
0001
0010
0001
0010
0001
3010
,
1001
0110
1001
0110
1001
0110
1001
0110
1001
0110
1001
0110
1001
0110
1001
0110
,
1001
0100
1001
0100
1010
0100
1010
0120
1000
0100
1000
0100
1000
0100
1000
0130
,
0011
1100
0011
1100
0011
1100
0011
1100
0011
1100
0011
1100
0011
1100
0011
1100
,
0011
0100
0011
0100
1010
0100
1010
2100
0010
0100
0010
0100
0010
0100
0010
3100
,
1001
0000
0110
0000
0010
0000
0101
0000
1101
0010
0100
1000
0110
0000
0101
0000
1100
0010
0101
0000
1000
0000
0011
0100
1011
0100
0010
0001
1010
0100
1010
0100
,
1010
0001
0110
0100
1000
0100
0011
0001
1110
0100
1000
0100
1010
0001
1010
0100
1001
0100
1010
0001
0010
0100
1010
0000
1011
0000
0100
0000
1010
0000
0101
0000
,
0110
0000
1010
0100
1000
0000
0011
0000
1101
0010
0001
0000
0110
0000
1001
0100
1010
0000
0101
0000
0100
0010
1001
0000
0111
0000
1000
0000
0101
0000
1010
0000
,
1100
0000
0101
0010
0001
0000
1100
0000
1011
0100
0010
0100
0011
0100
0011
0100
0011
0100
0011
0100
0010
0100
1010
0100
1011
0010
0100
1000
0101
0010
0110
1000
,
0101
0000
1100
0000
0010
0000
1010
0000
1101
0010
0100
0000
1010
0000
0101
0000
1010
0100
1010
0000
0100
0010
1001
0000
1101
0010
0100
1000
0101
0010
1001
0010
,
0101
1000
0101
0010
0001
0010
0101
1000
1101
0010
0001
0010
1100
1000
0101
0010
1001
0010
0101
1000
0100
0010
0101
0000
1011
0000
0100
0000
1010
0000
0101
0000
,
1010
0000
0101
0010
0001
0000
1100
0000
1011
0100
1000
0000
0110
0000
1001
0010
0101
0000
0110
0000
1000
0100
0011
0000
1011
0000
0100
0000
1001
0000
0110
0000
,
1010
0000
0101
0010
0100
0000
0101
0000
1011
0100
0010
0001
1010
0100
1010
0100
1010
0001
1010
0100
1000
0100
1010
0001
1011
0100
1000
0100
1010
0001
0110
0000
,
0110
1001
0110
1000
0011
1000
0110
1001
0010
1000
0110
1001
0110
1001
0110
1001
,
0011
0100
1001
0100
0011
0100
0001
0120
0001
0100
0001
0100
0001
0100
0001
0130
,
0011
1100
0011
1100
0011
1100
0011
1100
0011
1100
0011
1100
0011
1100
0011
1100
,
0011
1000
0011
1000
0110
1000
0110
1200
0010
1000
0010
1000
0010
1000
0010
1300
,
0110
1001
0110
1001
0110
1001
0110
1001
0110
1001
0110
1001
0110
1001
0110
1001
,
0110
0001
0110
0001
1100
0001
1100
2001
0100
0001
0100
0001
0100
0001
0100
3001
,
1010
0101
1010
0101
1010
0101
1010
0101
1010
0101
1010
0101
1010
0101
1010
0101
,
1010
0001
1010
0001
1100
0001
1100
0201
1000
0001
1000
0001
1000
0001
1000
0301
,
0110
0000
1001
0000
1000
0000
0011
0000
0111
1000
0001
0100
1001
0000
0011
0000
0101
1000
0011
0000
0100
0000
1010
0001
1110
0001
1000
0010
1100
0001
1100
0001
,
1100
0010
1001
0001
0100
0001
1010
0010
1101
0001
0100
0001
1100
0010
1100
0001
0110
0001
1100
0010
1000
0001
1100
0000
1110
0000
0001
0000
1100
0000
0011
0000
,
1001
0000
1100
0001
0100
0000
1010
0000
0111
1000
0010
0000
1001
0000
0110
0001
1100
0000
0011
0000
0001
1000
0110
0000
1011
0000
0100
0000
0011
0000
1100
0000
,
0101
0000
0011
1000
0010
0000
0101
0000
1110
0001
1000
0001
1010
0001
1010
0001
1010
0001
1010
0001
1000
0001
1100
0001
1110
1000
0001
0100
0011
1000
1001
0100
,
0011
0000
0101
0000
1000
0000
1100
0000
0111
1000
0001
0000
1100
0000
0011
0000
1100
0001
1100
0000
0001
1000
0110
0000
0111
1000
0001
0100
0011
1000
0110
1000
,
0011
0100
0011
1000
0010
1000
0011
0100
0111
1000
0010
1000
0101
0100
0011
1000
0110
1000
0011
0100
0001
1000
0011
0000
1110
0000
0001
0000
1100
0000
0011
0000
,
1100
0000
0011
1000
0010
0000
0101
0000
1110
0001
0100
0000
1001
0000
0110
1000
0011
0000
1001
0000
0100
0001
1010
0000
1110
0000
0001
0000
0110
0000
1001
0000
,
1100
0000
0011
1000
0001
0000
0011
0000
1110
0001
1000
0010
1100
0001
1100
0001
1100
0010
1100
0001
0100
0001
1100
0010
1110
0001
0100
0001
1100
0010
1001
0000
,
1001
0110
1001
0100
1010
0100
1001
0110
1000
0100
1001
0110
1001
0110
1001
0110
,
1010
0001
0110
0001
1010
0001
0010
2001
0010
0001
0010
0001
0010
0001
0010
3001
,
1010
0101
1010
0101
1010
0101
1010
0101
1010
0101
1010
0101
1010
0101
1010
0101
,
1010
0100
1010
0100
1001
0100
1001
0102
1000
0100
1000
0100
1000
0100
1000
0103
,
1001
0110
1001
0110
1001
0110
1001
0110
1001
0110
1001
0110
1001
0110
1001
0110
,
1001
0010
1001
0010
0101
0010
0101
0210
0001
0010
0001
0010
0001
0010
0001
0310
,
1100
0011
1100
0011
1100
0011
1100
0011
1100
0011
1100
0011
1100
0011
1100
0011
,
1100
0010
1100
0010
0101
0010
0101
0012
0100
0010
0100
0010
0100
0010
0100
0013
,
1001
0000
0110
0000
0100
0000
1010
0000
1011
0100
0010
0001
0110
0000
1010
0000
0011
0100
1010
0000
0001
0000
1100
0010
1101
0010
0100
1000
0101
0010
0101
0010
,
0101
1000
0110
0010
0001
0010
1100
1000
0111
0010
0001
0010
0101
1000
0101
0010
1001
0010
0101
1000
0100
0010
0101
0000
1101
0000
0010
0000
0101
0000
1010
0000
,
0110
0000
0101
0010
0001
0000
1100
0000
1011
0100
1000
0000
0110
0000
1001
0010
0101
0000
1010
0000
0010
0100
1001
0000
1110
0000
0001
0000
1010
0000
0101
0000
,
0011
0000
1010
0100
1000
0000
0011
0000
1101
0010
0100
0010
1100
0010
1100
0010
1100
0010
1100
0010
0100
0010
0101
0010
1101
0100
0010
0001
1010
0100
0110
0001
,
1010
0000
0011
0000
0100
0000
0101
0000
1011
0100
0010
0000
0101
0000
1010
0000
0101
0010
0101
0000
0010
0100
1001
0000
1011
0100
0010
0001
1010
0100
1001
0100
,
1010
0001
1010
0100
1000
0100
1010
0001
1011
0100
1000
0100
0011
0001
1010
0100
1001
0100
1010
0001
0010
0100
1010
0000
1101
0000
0010
0000
0101
0000
1010
0000
,
0101
0000
1010
0100
1000
0000
0011
0000
1101
0010
0001
0000
0110
0000
1001
0100
1010
0000
0110
0000
0001
0010
1100
0000
1101
0000
0010
0000
1001
0000
0110
0000
,
0101
0000
1010
0100
0010
0000
1010
0000
1101
0010
0100
1000
0101
0010
0101
0010
0101
1000
0101
0010
0001
0010
0101
1000
1101
0010
0001
0010
0101
1000
0110
1000
,
0110
1001
0110
0001
1100
0001
0110
1001
0100
0001
0110
1001
0110
1001
0110
1001
,
1100
0010
1001
0010
1100
0010
1000
0210
1000
0010
1000
0010
1000
0010
1000
0310
,
1100
0011
1100
0011
1100
0011
1100
0011
1100
0011
1100
0011
1100
0011
1100
0011
,
1100
0001
1100
0001
0110
0001
0110
0021
0100
0001
0100
0001
0100
0001
0100
0031
,
0100
0000
0000
0000
;
