#TITLE:Midnight Sun;
#SUBTITLE:;
#ARTIST:Roy Gates;
#TITLETRANSLIT:;
#SUBTITLETRANSLIT:;
#ARTISTTRANSLIT:;
#CREDIT:;
#BANNER:Midnight Sun-banner.png;
#BACKGROUND:Midnight Sun-bg.png;
#LYRICSPATH:;
#CDTITLE:Mathias.png;
#MUSIC:Midnight Sun.ogg;
#OFFSET:0.000;
#SAMPLESTART:14.207;
#SAMPLELENGTH:12.000;
#SELECTABLE:YES;
#BPMS:0.000=135.000;
#STOPS:;
#BGCHANGES:;
// cache tags:
#FIRSTBEAT:16.000;
#LASTBEAT:208.000;
#SONGFILENAME:Songs/toune 2/Midnight Sun/Midnight Sun.sm;
#HASMUSIC:1;
#HASBANNER:1;
#MUSICLENGTH:95.999;
// end cache tags

//---------------dance-single - ----------------
#NOTES:
     dance-single:
     :
     Hard:
     9:
     0.448,0.488,0.167,0.083,0.417,277.000,16.000,8.000,37.000,0.000:

0000
0000
0000
0000
,
0000
0000
0000
0000
,
0000
0000
0000
0000
,
0000
0000
0000
0000
,
1000
0000
0000
0100
0000
0000
0010
0000
0000
0100
0000
0000
0011
0000
0000
0000
,
1000
0000
0000
0010
0000
0000
0100
0000
0000
0001
0000
0000
1010
0000
0000
0100
,
0001
0000
0000
0010
0000
0000
0001
0000
0000
1000
0000
0000
0110
0000
0000
0000
,
2002
0000
0000
3003
,
1000
0000
0001
0010
0001
0100
0010
1000
,
0100
1000
0000
0001
0000
1000
0010
0000
,
1000
0010
1000
0010
0100
0001
0010
0001
,
0100
0000
0010
1000
0000
0000
1000
0100
,
0000
0000
0100
0001
0000
0000
0100
1000
,
0000
0000
0100
0001
0000
0000
0100
1000
,
0001
0000
0000
1000
0000
0000
0010
0000
0000
0010
0000
0000
0101
0000
0000
0000
,
1000
0000
0000
0001
0000
0000
0100
0000
0000
0100
0000
0000
0010
0000
0000
1000
,
0001
0000
1000
0010
1000
0000
0001
0100
,
0001
0010
0000
0100
0000
0001
0001
0000
,
1000
0010
1000
0100
1000
0100
1000
0001
,
0010
0000
0000
0100
0000
0000
0010
0000
0001
0000
0000
1000
0000
0000
0010
0000
,
0100
0010
1000
0010
0001
0010
1000
0010
,
0100
0000
0001
0000
0100
0000
1000
0000
0100
0000
0001
0000
0100
0000
0000
0001
,
0010
0100
1000
0100
0010
0001
1000
0000
,
1100
0000
0011
0000
1000
0002
0000
2000
,
0M00
0000
0000
0M00
00M0
0000
0000
00M0
0M00
0000
0000
0M00
00M0
0000
0000
00M0
,
0M00
0000
0000
0M00
00M0
0000
0000
00M0
0M00
0000
0000
0M00
00M3
0000
0000
00M0
,
0M01
0000
0000
0M00
00M1
0000
0000
00M0
0M01
0000
0000
0M00
00MM
0000
0000
00M0
,
0M01
0000
0000
0M00
00M1
0000
0000
00M0
0M01
0000
0000
0M00
30MM
0000
0000
0000
,
0001
0000
0000
1000
0000
0000
0010
0000
0000
2000
0000
0000
0002
0000
0000
0000
,
3000
M003
000M
0000
,
0100
0000
0000
0010
0000
0000
1000
0000
0000
2000
0000
0000
0200
0000
0000
0000
,
3000
M300
0M00
0000
,
1000
0000
0000
0010
0000
0000
1000
0000
0000
0001
0000
0000
1000
0000
0000
0000
,
0001
0000
0000
1000
0000
0000
1000
0000
0010
0100
0000
0100
0010
0000
1000
0000
,
0001
0000
0000
0100
0000
0000
0001
0000
0000
1000
0000
0000
0100
0000
0000
0000
,
1000
0000
0000
0000
0000
0000
0000
0000
0000
0100
0000
0000
0000
0000
0000
0000
0000
0000
0010
0000
0000
0000
0000
0000
0001
0000
0000
0000
0010
0000
0000
0000
0100
0000
0000
0000
1000
0000
0000
0000
0000
0000
0001
0000
0000
0000
0000
0000
,
1000
0001
0000
0100
0000
0000
0001
0000
1000
0010
0000
0000
0100
0000
0000
0000
,
0010
1000
0000
0100
0000
0000
0010
0000
0100
0001
0000
0001
0100
0000
1000
0000
,
0010
0100
0000
0001
0000
0000
1000
0000
0001
0010
0000
0000
0001
0000
0000
0000
,
1000
0000
0000
0010
0000
0000
0000
0000
0000
0100
0000
0000
0000
0000
0000
0000
0000
0000
0001
0000
0000
0000
0000
0000
1000
0000
0000
0000
0001
0000
0000
0000
1000
0000
0000
0000
0001
0000
0000
0000
0000
0000
0100
0000
0000
0000
0000
0000
,
0010
1000
0000
0100
0000
0000
1000
0000
0001
0100
0000
0000
0010
0000
0000
0000
,
0100
0010
0000
0001
0000
0000
1000
0000
0010
0001
0000
0001
0010
0000
0100
0000
,
0001
0010
0000
1000
0000
0000
0010
0000
1000
0010
0000
0000
0001
0000
0000
0000
,
0100
0000
0000
0010
0000
0000
0000
0000
0000
1000
0000
0000
0000
0000
0000
0000
0000
0000
0001
0000
0000
0000
0000
0000
0100
0000
0000
0000
0010
0000
0000
0000
1000
0000
0000
0000
0010
0000
0000
0000
0000
0000
1000
0000
0000
0000
0000
0000
,
0001
0100
0001
0000
1100
0000
0101
0000
,
0010
0000
1000
0000
0100
0000
0010
0000
0100
1000
0000
1000
0100
0000
0010
0000
,
0001
0100
0001
0000
1010
0000
0101
0000
,
1000
0000
0000
0010
0000
0000
0100
0000
0000
0001
0000
0000
1000
0000
0100
0000
0010
0000
0001
0000
0000
1000
0000
0000
,
0100
0010
0001
0000
1100
0000
0011
0000
,
1000
0000
0100
0000
0010
0000
0100
0000
0010
0001
0000
0001
0010
0000
1000
0000
,
0010
0100
0001
0000
1010
0000
0101
0000
,
1000
0000
0000
0010
0000
0000
0100
0000
0000
0001
0000
0000
1000
0000
0001
0000
1000
0000
0001
0000
0000
1000
0000
0000
,
0110
0000
0000
0000
;

//---------------dance-single - ----------------
#NOTES:
     dance-single:
     :
     Medium:
     5:
     0.320,0.406,0.115,0.125,0.016,192.000,11.000,12.000,0.000,0.000:


0000
0000
0000
0000
,
0000
0000
0000
0000
,
0000
0000
0000
0000
,
0000
0000
0000
0000
,
0001
0100
0001
1010
,
0100
0010
0001
1010
,
0100
0010
0001
1100
,
2002
0000
0000
3003
,
1000
0000
0001
1000
0001
0000
1000
0010
,
1000
0000
0002
0000
0000
0000
2000
0000
0000
0003
0000
0000
3000
0000
0000
0000
,
0010
0000
0100
0001
0100
0000
0010
1000
,
0010
0000
1000
0001
0000
0000
1000
0001
,
1000
0000
0000
0001
0000
0000
0100
0000
,
0001
0000
0000
1000
0000
0000
0100
0000
,
1000
0000
0000
0010
0000
0000
0100
0000
,
0010
0000
0000
0100
0000
0000
0001
0000
,
1000
0010
0001
0100
,
1000
0000
0001
1000
0001
0000
1000
0000
,
0100
0001
0010
1000
,
0001
0000
1000
0010
1000
0000
0101
0000
,
1000
0000
0000
0010
0000
0000
0100
0000
,
0010
0000
0000
1000
0000
0000
0100
0000
,
1000
0000
0000
0100
0000
0000
0010
0000
,
0001
0000
0000
0000
0100
0010
0000
2002
,
0000
0000
0000
0000
,
0000
0000
0000
0000
0000
0000
0000
3003
,
1000
0010
0010
1000
,
0001
0100
0100
0001
,
1000
0000
0000
0100
0000
0000
1000
0000
,
0000
0000
0000
0000
,
0001
0000
0000
1000
0000
0000
0010
0000
,
0000
0000
0000
0000
,
0100
0000
0000
0010
0000
0000
1000
0000
,
0001
0000
1000
0000
0100
0010
0100
0010
,
0100
1000
0001
0100
,
0001
0000
1000
0000
0201
0000
0010
0300
,
1000
0000
0001
0000
0100
0010
0100
0000
,
0001
0000
1000
0000
0100
0010
0001
0010
,
0100
1000
0001
0100
,
0010
0000
0100
0000
2001
0000
0010
3000
,
0100
0001
1000
0001
,
0010
0000
0100
0000
0010
0100
1000
0100
,
0010
0001
1000
0001
,
0100
0000
0001
0000
1020
0000
0100
0030
,
0001
1000
0001
0000
1000
0001
1000
0000
,
0010
0100
0010
0000
2000
0000
0100
3000
,
0010
0001
0010
0000
1000
0100
1000
0000
,
0010
0001
0010
0000
1200
0000
0010
0300
,
0001
1000
0001
0000
1000
0001
1000
0000
,
0010
0100
0010
0000
2001
0000
0100
3000
,
0010
0100
0010
0000
1000
0010
1000
0000
,
0001
0000
0000
0000
0000
0000
0000
0000
0000
1000
0000
0000
0000
0000
0000
0000
0000
0000
0001
0000
0000
0000
0000
0000
1000
0000
0000
0000
0001
0000
0000
0000
1000
0000
0000
0000
0001
0000
0000
0000
0000
0000
1000
0000
0000
0000
0000
0000
,
0001
0000
0000
0000
;

//---------------dance-single - ----------------
#NOTES:
     dance-single:
     :
     Easy:
     3:
     0.174,0.271,0.031,0.021,0.000,112.000,3.000,2.000,0.000,0.000:


0000
0000
0000
0000
,
0000
0000
0000
0000
,
0000
0000
0000
0000
,
0000
0000
0000
0000
,
0000
0000
0000
0000
,
0000
0000
0000
0000
,
0000
0000
0000
0000
,
0000
0000
0000
0000
,
1000
0000
0001
0000
,
0010
0000
0000
0001
0000
0000
1000
0000
,
0010
0000
1000
0000
,
0100
0000
0000
0010
0000
0000
0000
0000
,
0001
0010
0100
1000
,
0001
0010
0100
1000
,
0001
1000
0001
1000
,
0001
0100
0001
1000
,
0110
0000
0010
0000
,
1000
0000
0000
0001
0000
0000
0000
0000
,
0100
0000
0001
0000
,
1000
0000
0000
0100
0000
0000
0000
0000
,
1000
0100
1000
0001
,
1000
0100
1000
0001
,
1000
0001
1000
0001
,
1001
0000
0000
0000
1000
0001
0000
0001
,
1000
0000
0001
0000
,
0001
0000
0001
0000
,
0010
0000
0010
0000
,
0010
0000
0010
0000
,
0002
0000
0000
0100
0000
0000
0003
0000
,
0000
0000
0000
0000
,
0020
0000
0000
1000
0000
0000
0030
0000
,
0000
0000
0000
0000
,
0001
0000
0000
1000
0000
0000
0000
0000
,
0001
0000
0100
0100
,
0001
0000
0000
0010
0000
0000
0000
0000
,
0001
0000
1000
1000
,
0010
0000
0000
1000
0000
0000
0000
0000
,
0010
0000
1000
0001
,
1000
0000
0000
0100
0000
0000
0000
0000
,
1000
0000
0001
0100
,
0001
0000
0000
1000
0000
0000
0000
0000
,
0010
0000
0100
0100
,
0100
0000
0000
0010
0000
0000
0000
0000
,
1000
0000
0100
0010
,
0100
0000
1000
0000
,
0100
0000
0001
0000
,
0100
0000
0010
0000
,
0001
0010
0100
1000
,
0001
0000
0100
0000
,
1000
0000
0010
0000
,
0001
0000
0100
0000
,
0001
0010
0100
1000
,
0110
0000
0000
0000
;

//---------------dance-single - ----------------
#NOTES:
     dance-single:
     :
     Beginner:
     1:
     0.098,0.135,0.073,0.000,0.000,59.000,7.000,0.000,0.000,0.000:


0000
0000
0000
0000
,
0000
0000
0000
0000
,
0000
0000
0000
0000
,
0000
0000
0000
0000
,
0000
0000
0000
0000
,
0000
0000
0000
0000
,
0000
0000
0000
0000
,
0000
0000
0000
0000
,
1000
0000
1000
0000
,
1000
0000
0000
0000
,
0001
0000
0001
0000
,
0001
0000
0000
0000
,
1000
0000
0000
0000
,
1001
0000
0000
0000
,
0001
0000
0000
0000
,
1001
0000
0000
0000
,
0100
0000
0100
0000
,
0100
0000
0000
0000
,
0010
0000
0010
0000
,
0010
0000
0000
0000
,
0100
0000
0000
0000
,
0110
0000
0000
0000
,
0010
0000
0000
0000
,
0110
0000
0000
0000
,
1001
0000
0000
0000
,
0000
0000
0000
0000
,
0000
0000
0000
0000
,
0000
0000
0000
0000
,
1000
0000
0000
0001
,
0000
0000
0000
0000
,
1000
0000
0000
0001
,
0000
0000
0000
0000
,
1000
0000
0000
0001
,
1000
0000
0000
0001
,
1000
0000
0000
0000
,
1001
0000
0000
0000
,
1000
0000
0010
0000
,
0010
0000
0000
0000
,
0100
0000
0100
0000
,
0001
0000
0000
0000
,
1000
0000
0010
0000
,
0010
0000
0000
0000
,
0100
0000
0001
0000
,
0001
0000
0000
0000
,
1000
0000
0000
0001
,
0010
0000
0000
0010
,
0100
0000
0000
0100
,
1000
0000
0000
1000
,
0001
0000
0000
0001
,
0010
0000
0000
0010
,
0100
0000
0000
0100
,
1000
0000
0000
0000
,
1001
0000
0000
0000
;

//---------------dance-single - ----------------
#NOTES:
     dance-single:
     :
     Challenge:
     11:
     0.740,0.894,0.365,0.104,1.000,452.000,35.000,10.000,32.000,6.000:


0000
0000
0000
0000
,
0000
0000
0000
0000
,
0000
0000
0000
0000
,
0000
0000
0000
0000
,
1010
0000
0000
0110
0000
0000
0101
0000
0000
0110
0000
0000
1010
0000
0000
0000
,
0101
0000
0000
0110
0000
0000
1100
0000
0000
0110
0000
0000
0101
0000
0000
1000
,
0011
0000
0000
0110
0000
0000
1100
0000
0000
0110
0000
0000
0011
0000
0000
0000
,
2000
0000
0000
0010
0000
0000
0100
0000
0000
0010
3000
0000
1000
0000
0000
0001
,
1000
0010
1000
0010
0000
1000
0010
1000
0001
0100
0001
0100
0000
0010
1000
0010
,
0100
0001
0100
0010
0000
1000
0100
0010
0001
1000
0001
1000
0000
0001
0010
0100
,
1000
0001
1000
0001
0000
1000
0100
1000
0100
0010
0001
1000
0000
0001
0010
0100
,
1000
0001
1000
0010
0000
1000
0001
0010
0100
1000
0001
1000
0000
0001
1000
0001
,
1000
0100
0010
0001
1000
0100
0010
0001
1000
0100
1000
0001
1000
0100
1000
0001
,
1000
0001
0100
0001
1000
0001
0100
0001
0100
0010
0100
0001
0100
0010
0100
0001
,
1000
0100
1000
0001
0100
0001
1000
0100
1000
0001
0100
0001
1000
0100
0010
0001
,
1000
0100
1000
0001
0100
0001
1000
0100
1000
0001
0100
0001
1000
0100
0010
0001
,
1000
0100
1000
0100
0000
1000
0001
0100
0001
0100
0001
0100
0000
0001
1000
0010
,
1000
0010
1000
0010
0000
1000
0001
0100
0001
0100
0001
0100
0000
0010
1000
0100
,
1000
0100
1000
0001
0000
1000
0001
0010
0001
0100
0001
0010
0000
0001
1000
0100
,
1000
0001
0100
0001
0000
1000
0010
0100
0010
1000
0001
1000
0000
0001
0010
0001
,
1000
0010
0100
0001
1000
0010
0100
0001
0010
0001
1000
0001
0010
0001
1000
0001
,
1000
0100
1000
0001
1000
0100
1000
0001
0100
0010
0100
0001
0100
0010
0100
0001
,
1000
0100
1000
0001
0100
0001
1000
0100
1000
0001
0100
0001
1000
0100
0010
0001
,
1000
0100
1000
0001
0100
0001
1000
0100
1000
0001
0100
0001
1000
0100
0010
0002
,
2000
0000
0000
0000
,
0000
0000
0000
0000
,
0000
0000
0000
0000
,
0000
0000
0000
3003
,
1010
0000
0000
0100
0000
0000
0101
0000
0000
0010
0000
0000
0101
0000
0000
0000
,
M000
0M00
00M0
000M
00M0
0M00
M000
0M00
00M0
000M
00M0
0M00
M000
0M00
00M0
000M
,
1010
0000
0000
0100
0000
0000
1001
0000
0000
0100
0000
0000
1010
0000
0000
0000
,
000M
00M0
0M00
M000
0M00
00M0
000M
00M0
0M00
M000
0M00
00M0
000M
00M0
0M00
M000
,
0101
0000
0000
1000
0000
0000
0011
0000
0000
1000
0000
0000
0101
0000
0000
0000
,
1010
0000
0000
0100
0000
0000
0101
0000
1000
0010
0000
0010
1000
0000
0001
0000
,
0200
0000
0000
0020
0000
0000
2300
0000
0000
0032
0000
0000
3020
0000
0000
0000
,
0230
0000
0000
0000
0000
0000
0000
0000
0000
2003
0000
0000
0000
0000
0000
0000
0000
0000
3301
0000
0000
0000
0000
0000
1000
0000
0000
0000
0001
0000
0000
0000
1000
0000
0000
0000
0001
0000
0000
0000
0000
0000
1000
0000
0000
0000
0000
0000
,
0001
0100
0000
0010
0000
1000
0010
0000
0010
0100
0000
0000
1001
0000
0000
0000
,
0010
0100
0000
0001
0000
1000
0010
0000
1000
0010
0000
0010
0001
0000
0010
0000
,
0100
0010
0000
0100
0000
0010
1000
0000
1000
0001
0000
0000
0110
0000
0000
0000
,
0001
0000
0000
0010
0000
0000
0000
0000
0000
0100
0000
0000
0000
0000
0000
0010
0000
0000
0001
0000
0000
0000
0000
0000
1000
0000
0000
0000
0100
0000
0000
0000
0010
0000
0000
0000
0001
0000
0000
0000
0000
0000
1000
0000
0000
0000
0000
0000
,
0100
1000
0000
1000
0000
0100
0010
0000
0001
0010
0000
0000
1100
0000
0000
0000
,
0001
0100
0000
0010
0000
1000
0010
0000
1000
0001
0000
0001
0100
0000
0010
0000
,
1000
0001
0000
1000
0000
0100
0010
0000
0001
1000
0000
0000
0110
0000
0000
0000
,
0001
0000
0000
1000
0000
0000
0000
0000
0000
0010
0000
0000
0000
0000
0000
0100
0000
0000
0010
0000
0000
0000
0000
0000
1000
0000
0000
0000
0001
0000
0000
0000
0100
0000
0000
0000
0010
0000
0000
0000
0000
0000
1000
0000
0000
0000
0000
0000
,
0001
1000
0000
1000
0001
0000
0001
0100
0000
0100
0010
0000
1001
0000
0000
0000
,
0010
1000
0000
1000
0100
0000
0010
0001
0010
0001
0000
0001
0010
0000
0001
0000
,
1000
0001
0000
0001
0100
0000
0010
1000
0000
1000
0010
0000
0101
0000
0000
0000
,
1000
0000
0000
0010
0000
0000
0000
0000
0000
0010
0000
0000
0100
0000
0000
0000
0000
0000
0010
0000
0000
1000
0000
0000
0001
0000
0000
0000
1000
0000
0000
0000
0001
0000
0000
0000
0100
0000
0000
0000
0000
0000
0001
0000
0000
0000
0000
0000
,
1000
0100
0000
0100
0010
0000
0010
0001
0000
0001
1000
0000
0110
0000
0000
0000
,
0001
0010
0000
0010
0100
0000
0100
1000
0001
1000
0000
1000
0001
0000
0010
0000
,
1000
0100
0000
0100
0010
0000
0010
0001
0000
0001
1000
0000
1001
0000
0000
0000
,
0100
0000
0000
0010
0000
0000
0000
0000
0000
0010
0000
0000
1000
0000
0000
0000
0000
0000
1000
0000
0000
0001
0000
0000
1000
0000
0000
0000
0010
0000
0000
0000
1000
0000
0000
0000
0010
0000
0000
0000
0000
0000
0100
0000
0000
0000
0000
0000
,
1001
0000
0000
0000
;
