#TITLE:Only Ash Remains;
#SUBTITLE:;
#ARTIST:Necrophagist;
#TITLETRANSLIT:;
#SUBTITLETRANSLIT:;
#ARTISTTRANSLIT:;
#CREDIT:;
#BANNER:ASH-BN.png;
#BACKGROUND:ASH-BG.PNG;
#LYRICSPATH:;
#CDTITLE:;
#MUSIC:Necrophagist - Only Ash Remains.ogg;
#OFFSET:0.000;
#SAMPLESTART:49.440;
#SAMPLELENGTH:12.000;
#SELECTABLE:YES;
#DISPLAYBPM:240.000;
#BPMS:0.000=240.000,422.000=160.000,423.000=240.000,873.000=100.000,943.500=129.999;
#STOPS:;
#BGCHANGES:;
// cache tags:
#FIRSTBEAT:1.000;
#LASTBEAT:875.750;
#SONGFILENAME:Songs/SSSC Pack 2/Only Ash Remains [Zarkonis]/only ash remains.sm;
#HASMUSIC:1;
#HASBANNER:1;
#MUSICLENGTH:227.370;
// end cache tags

//---------------dance-single - Zarkonis----------------
#NOTES:
     dance-single:
     Zarkonis:
     Challenge:
     17:
     1.000,1.000,0.150,0.567,1.000,2323.000,34.000,129.000,30.000,0.000:

0000
0000
0000
0001
0010
0100
0010
0001
1000
0010
0100
0001
,
1000
0010
0100
0010
1000
0001
0010
0100
1000
0002
0000
0000
,
0000
1000
0000
1003
,
1100
0000
0000
0100
0010
0001
1000
0010
0100
0001
1000
0001
,
2000
0000
0000
0100
0000
0000
0000
0000
0000
3100
0010
0001
,
0200
0000
0000
0010
0000
0000
0000
0000
0000
0310
1000
0001
,
0010
0100
1000
0001
0010
0100
0010
0001
1000
0010
0100
0001
,
2002
0000
3003
0000
0000
0000
0000
0000
0000
1000
0100
0010
,
0100
1000
0001
0010
0100
0010
0100
1000
0100
1000
0001
1000
,
0010
0100
0001
0100
0001
1000
0010
0100
0001
0100
0001
1000
,
0100
1000
0100
1000
0001
0010
0100
1000
0001
0010
0100
0010
,
0001
1000
0010
0100
0001
0010
0001
0100
0010
1000
0100
1000
,
0001
0010
0001
1000
0010
0100
0001
0010
0100
1000
0100
0010
,
0001
0100
0010
0100
0001
1000
0001
0100
0010
1000
0001
0010
,
0100
1000
0100
1000
0100
0010
0001
0100
0010
1000
0010
1000
,
0100
0010
0001
0010
0100
1000
0001
0100
0001
0100
0010
1000
,
0001
0010
0100
1000
0100
0010
0001
0100
0010
1000
0010
0100
,
0001
1000
0001
1000
0001
1000
0001
0010
0100
1000
0001
0010
,
0100
1000
0010
0100
0001
0010
0001
0100
0010
1000
0001
0010
,
0001
0000
0000
0000
0100
0000
0000
0000
0001
0000
0000
0000
1000
0000
0000
0000
0010
0000
0000
0000
1000
0000
0000
0000
0001
0000
0000
0000
0010
0000
0000
0000
0001
0000
0000
0000
2000
0000
0000
3000
0000
0000
0000
0000
0000
0000
0000
0000
,
0000
0000
0000
0000
0001
1000
0001
1000
0001
0000
0010
0000
0200
0000
1300
0000
,
0001
0010
0001
0000
0200
0000
0301
0000
2000
3001
1000
0000
0200
0000
1300
0000
,
0020
1030
0001
0001
0020
0031
0001
0001
,
0200
0000
0310
0000
2000
3010
1000
0000
0001
0000
0010
0000
0100
0000
1000
0000
,
0010
0100
0010
0000
2000
0000
3001
0000
2000
0000
3001
0000
0200
0000
0301
0000
,
0020
0000
0031
0000
1000
0000
1000
0000
0200
0000
1300
0000
0001
1000
0001
0000
,
0020
0130
1000
1000
0002
1003
0100
0100
,
0020
0130
1000
1000
0020
0130
0001
0001
,
0020
0130
1000
1000
0002
1003
0100
0100
,
0010
M00M
0001
0001
0200
0310
1000
1000
,
0200
0310
0001
0001
2000
3010
0100
0100
,
0001
1000
0001
0000
0010
0000
0100
1000
0100
1000
0001
0010
0100
1000
0001
1000
,
0020
0000
0000
0000
0000
0000
0030
0000
0000
0000
0000
0000
0220
0000
0000
0000
0000
0000
0330
0000
0000
0000
0000
0000
0010
0000
0000
0000
1000
0000
0000
0000
0001
0000
0000
0000
1000
0000
0000
0010
0000
0000
1000
0000
0000
0001
0000
0000
,
1000
0100
0010
0001
1000
0001
1000
0010
0100
0010
1000
0001
0010
0100
0010
0001
,
1000
0100
1000
0100
1000
0100
1000
0100
1000
0001
0100
0010
1000
0001
0010
0001
,
1000
0010
1000
0001
0100
0001
1000
0100
0010
0001
0010
0100
1000
0001
0100
0001
,
1000
0001
0100
0001
1000
0100
0010
0001
0010
0001
1000
0010
1000
0001
1000
0100
,
0010
0001
1000
0001
0010
0100
1000
0001
0010
0001
1000
0001
1000
0100
0010
0001
,
1000
0001
1000
0001
1000
0001
1000
0001
1000
0100
1000
0100
0010
0001
1000
0010
,
1000
0001
0010
0001
1000
0010
1000
0001
0010
0100
1000
0001
1000
0010
0100
0001
,
1000
0000
0000
0000
1100
0000
0000
0000
0110
0000
0000
0000
0001
0010
0100
1000
,
0001
1000
0010
1000
0001
1000
0010
1000
0001
0010
0100
1000
0001
1000
0010
1000
,
0001
0100
0001
0100
0001
0100
0001
0100
0001
1000
0100
0010
0001
0010
0001
1000
,
0010
1000
0001
0010
0001
1000
0001
0010
0100
1000
0001
1000
0010
0100
0001
1000
,
0001
0000
0000
0000
0011
0000
0000
0000
1100
0000
0000
0000
1000
0001
1000
0001
,
0010
0001
1000
0001
1000
0100
0010
0001
1000
0001
1000
0010
0100
0010
0100
0001
,
1000
0100
1000
0100
1000
0100
1000
0100
1000
0001
0010
0100
1000
0001
0100
0010
,
0100
0001
1000
0010
1000
0001
1000
0100
1000
0001
0010
0100
1000
0001
0010
0001
,
1000
0000
0000
0000
0000
0000
0001
0000
0000
0000
0000
0000
0010
0000
0000
0100
0000
0000
0010
0000
0000
0000
0000
0000
0001
0000
0000
1000
0000
0000
0001
0000
0000
0000
0000
0000
1100
0000
0000
0000
0000
0000
0000
0000
0110
0000
0000
0000
,
0000
0000
0000
0000
0011
0000
0000
0000
0000
0000
0000
0000
0000
0000
0000
0000
0000
0000
0000
0000
0000
0000
0000
0000
0001
0000
0000
0010
0000
0000
0001
0000
0000
0010
0000
0000
0001
0000
0000
0010
0000
0000
0100
0000
0000
1000
0000
0000
,
0001
0100
0001
0100
0010
1000
0010
1000
0001
1000
0001
1000
0001
1000
0010
1000
,
0010
1000
0001
1000
0001
1000
0001
0010
0100
1000
0100
1000
0001
0100
0001
0100
,
0010
1000
0010
1000
0001
0010
0001
1000
0010
1000
0010
1000
0010
0100
0010
0100
,
0001
0100
0001
0100
0001
1000
0001
0010
0100
1000
0001
0100
0001
1000
0010
1000
,
0001
0010
0100
1000
0001
1000
0100
1000
0001
1000
0010
0100
0001
1000
0001
1000
,
0100
0010
0001
1000
0001
0010
0100
1000
0001
1000
0001
0100
0010
0100
0001
1000
,
0100
1000
0100
0010
0001
0010
0100
1000
0001
0000
0100
0000
0010
0100
0010
0000
,
1000
0001
1000
0000
0001
0010
0001
0000
0100
0000
0010
0000
0010
0000
1000
0000
,
0001
0000
0010
0000
0100
0000
1000
0000
0010
0000
0100
0000
0001
0100
0001
0000
,
2000
3200
0320
0032
0103
0010
0010
1000
,
0001
0000
0100
0000
0001
0000
1000
0000
0001
0010
0001
0010
0100
1000
0100
1000
,
0001
0100
0001
0100
0010
1000
0010
1000
0001
0000
0010
0000
0010
0000
0100
0000
,
1000
0000
0010
0000
1000
0000
0001
0000
0010
0000
0100
0000
1000
0100
2000
0000
,
3020
0000
0230
0000
0302
0000
2003
0000
3001
0010
0100
0010
0001
0010
0100
0010
,
0001
1000
0010
1000
0001
1000
0010
1000
0001
0010
0100
1000
0001
1000
0010
0100
,
0001
0100
0001
1000
0100
0010
0001
0010
0001
0000
0000
0000
1001
0000
0000
0000
,
1001
0000
0000
0000
0000
0000
0000
0000
0000
0000
0000
0000
1000
0000
0000
0000
0100
0000
0000
0000
0010
0000
0000
0000
0100
0000
0000
1000
0000
0000
0001
0000
0000
1000
0000
0000
0001
0000
0000
0010
0000
0000
0100
0000
0000
0010
0000
0000
,
0001
1000
0001
0100
0010
1000
0001
0010
0001
1000
0100
1000
0001
0010
0001
0010
,
0001
0010
0001
0010
0001
1000
0010
0100
0001
0100
0010
0100
0001
1000
0100
1000
,
0001
1000
0001
0010
0100
1000
0100
0010
0001
1000
0010
1000
0001
1000
0010
1000
,
0001
0010
0100
1000
0100
1000
0001
1000
0001
0010
0001
0010
0100
1000
0001
1000
,
0100
0010
0001
1000
0010
0100
0010
0100
0001
0100
0010
1000
0001
1000
0001
1000
,
0001
1000
0001
1000
0001
0010
0001
0010
0100
1000
0001
0010
0001
1000
0010
1000
,
0001
0100
0001
1000
0100
0010
0001
1000
0001
0100
0010
1000
0001
0000
0000
0000
,
0011
0000
0000
0000
0110
0000
0000
0000
1000
0100
0010
0001
1000
0001
0100
0001
,
1000
0001
0100
0001
1000
0100
0010
0001
1000
0001
0100
0001
1000
0010
1000
0010
,
1000
0010
1000
0010
1000
0001
0010
0100
1000
0100
1000
0001
0100
0010
1000
0001
,
1000
0001
1000
0100
0010
0001
1000
0001
0100
0010
1000
0001
1000
0000
0000
0000
,
1100
0000
0000
0000
0011
0000
0000
0000
0001
1000
0001
0100
0010
1000
0001
1000
,
0001
0010
0001
0010
0100
1000
0001
0100
0010
0100
0010
1000
0001
0010
0001
0010
,
0001
0010
0001
0010
0001
1000
0100
0010
0001
1000
0010
0100
0010
1000
0001
0100
,
0001
1000
0001
0010
0001
1000
0100
0010
0001
1000
0010
1000
0001
0000
1000
0000
,
0100
0000
0000
0010
0000
0000
0100
0000
0000
0000
0000
0000
1000
0000
0000
0001
0000
0000
1000
0000
0000
0000
0000
0000
0011
0000
0000
0000
0000
0000
0000
0000
0110
0000
0000
0000
0000
0000
0000
0000
1100
0000
0000
0000
0000
0000
0000
0000
,
0000
0000
0000
0001
0100
0001
1000
0100
1000
0001
0010
0001
,
1000
0010
1000
0001
0010
0001
1000
0100
1000
0010
0100
0010
,
1000
0010
0100
0001
0100
0010
1000
0100
0010
0001
0010
0100
,
100M
00M0
0M00
M001
0010
0001
1000
0010
1000
0001
0100
0001
,
1000
0100
1000
0001
0100
0001
1000
0010
1000
0100
0010
0100
,
1000
0100
0010
0001
0010
0100
1000
0010
0100
0001
0100
0010
,
1000
0010
1000
0001
0010
0001
1000
0100
1000
0001
0100
0001
,
1000
0100
1000
0001
0010
0001
0100
0010
0100
0001
0100
0010
,
1000
0010
0100
0001
0010
0100
1000
0100
0010
M001
0M00
00M0
,
100M
0100
1000
0010
0100
0010
1000
0100
1000
0001
0010
0001
,
0100
0010
0100
0001
0010
0001
1000
0010
1000
0001
0010
0001
,
1000
0100
1000
0001
0100
0001
1000
0100
0010
0001
0000
0000
,
1000
2000
3100
0010
,
0020
0031
0200
0310
,
1000
0100
0010
0001
0010
0100
1000
0000
0000
0001
0000
0000
,
0100
0200
0310
1000
,
2000
3001
0020
0031
,
0100
0010
1000
0001
0010
0100
1000
0000
0000
0001
0000
0000
,
0002
0013
0100
0200
,
1300
0000
0000
0020
0000
0000
0130
0000
0000
0001
0010
0100
,
1000
0010
0100
0001
0000
0000
1000
0000
0000
0200
0000
0000
,
0320
0031
0100
0020
,
0130
0020
0030
2002
,
0000
0000
0000
0003
0200
0300
3000
0000
,
0000
0202
0000
0000
,
0000
0000
0000
0300
2000
0000
0000
0000
,
0003
0000
0200
0000
0000
3000
0000
0000
,
0000
0000
0000
0000
0000
0000
0000
0000
0000
0000
0000
0000
0000
0000
0000
0000
0000
0000
0000
0000
0000
0000
0000
0000
0000
0000
0000
0000
0000
0000
0000
0000
0000
0000
0000
0000
0000
0000
0000
0000
0000
0000
0000
0000
0000
0000
0000
0000
0000
0000
0000
0000
0000
0000
0000
0000
0000
0000
0000
0000
0000
0000
0000
0000
0000
0000
0000
0000
0000
0000
0000
0000
0000
0000
0000
0000
0000
0000
0000
0000
0000
0000
0000
0000
0000
0000
0000
0000
0000
0000
0000
0000
0000
0000
0000
0000
0010
0300
0000
0000
0000
0000
0000
0000
0000
0000
0000
0000
0000
0000
0000
0000
0000
0000
0000
0000
0000
0000
0000
0000
0000
0000
0000
0000
0000
0000
0000
0000
0000
0000
0000
0000
0000
0000
0000
0000
0000
0000
0000
0000
0000
0000
0000
0000
0000
0000
0000
0000
0000
0000
0000
0000
0000
0000
0000
0000
0000
0000
0000
0000
0000
0000
0000
0000
0000
0000
0000
0000
0000
0000
0000
0000
0000
0000
0000
0000
0000
0000
0000
0000
0000
0000
0000
0000
0000
0000
0000
0000
0000
0000
0000
0000
,
0000
0000
0001
0100
0020
0000
0000
0000
,
1030
0010
0100
0000
0002
0000
0000
0000
0000
0000
0000
0000
0000
0000
0000
0000
,
2003
0000
0000
0000
0000
0000
0000
0000
0000
3000
0100
0000
0010
0000
0001
0000
0010
0000
0100
0000
1000
0000
0010
0000
,
0200
0000
0000
0000
0301
0100
0010
0000
1000
0000
0001
0010
0100
1000
0100
0010
,
0001
1000
0001
1000
0001
0100
0010
0100
0001
1000
0010
0100
0010
1000
0001
1000
,
0001
0010
0100
1000
0001
0010
0100
0010
0001
1000
0100
1000
0001
0010
0100
1000
,
0001
1000
0002
0000
0000
0000
0103
0010
1000
0001
0010
0100
,
1000
0100
0010
0001
0100
0010
0100
0001
1000
0010
0100
0001
,
1000
0100
0010
0100
1000
0010
0100
0001
0010
0001
0100
0001
,
1000
0100
0010
0001
1000
0001
0010
0100
1000
0001
0010
0100
,
0010
0001
1000
0010
0100
0010
1000
0010
0100
0001
0100
0010
,
1000
0100
0010
0001
0010
0100
1000
0010
0100
0001
1000
0100
,
1000
0000
0000
0000
0000
0000
0001
0000
0000
0000
0000
0000
0010
0000
0000
0000
0001
0000
0000
0000
0010
0000
0000
0000
0100
0000
0000
1000
0000
0000
0100
0000
0000
0010
0000
0000
0001
0000
0000
0000
0100
0000
0000
0000
0010
0000
0000
0000
,
1000
0000
0000
0000
0010
0000
0000
0000
0100
0000
0000
0000
0002
0000
0000
0000
0000
0000
0023
0000
0000
0000
0000
0000
0230
0000
0000
0000
0000
0000
0310
0000
0000
0001
0000
0000
1000
0000
0000
0000
0000
0000
0010
0000
0000
0100
0000
0000
,
0001
0100
0010
1000
0010
0100
0001
1000
0020
0000
0230
0000
0302
0000
0023
0000
,
0130
1000
0100
0010
0100
1000
0010
0100
0001
0100
0010
1000
,
0010
0100
0001
0010
0100
1000
0001
0100
0010
1000
0100
0010
,
0001
0010
0100
1000
0010
0100
0010
1000
0001
0010
0100
0010
,
0001
0000
1000
0000
0010
0000
0200
0000
0000
0302
0000
0000
0203
0000
0000
0000
0000
0000
0000
0000
0000
0000
0000
0000
,
0302
0023
0000
0000
0000
0000
0000
0230
,
2300
3020
2030
3020
0230
0302
2003
3200
,
0000
0000
0000
0000
0000
0000
1300
0010
1000
0001
0010
0001
,
1000
0010
1000
0002
0000
0000
0043
0000
0000
0000
0000
0000
,
0000
0000
0000
0031
0100
0001
1000
0100
1000
0001
0010
0001
,
1000
0010
1000
0001
0010
0100
1000
0010
0100
0001
0010
0001
,
1000
0010
1000
0001
0010
0100
1000
0100
0010
0001
0100
0010
,
1000
0010
0100
0001
1000
0100
0010
0001
1000
0010
1000
0001
,
0010
0000
0000
0000
0001
0000
0000
0000
1000
0000
0000
0000
0100
0000
0000
0000
0010
0000
0000
0000
0001
0000
0000
0000
2000
0000
0000
0000
0000
0000
3001
0000
0000
0000
0000
0000
1000
0000
0000
0001
0000
0000
1000
0000
0000
0000
0000
0000
,
0020
0230
0302
0023
0230
0000
0000
2300
,
3200
0000
0000
0310
0001
1000
0010
0100
,
0001
0000
1000
0000
0100
0000
1000
0000
0001
0000
0100
0000
0010
1000
0010
0000
,
0100
0001
0010
0001
1000
0010
0220
0000
,
0330
0000
0000
0000
1001
0000
0000
0000
0001
0010
0100
1000
0001
0100
0001
1000
,
0100
0010
0001
1000
0010
1000
0001
0010
0001
1000
0010
0100
0001
1000
0001
1000
,
0100
0000
0000
0010
0000
0000
0001
0000
0000
1000
0000
0000
0001
0000
0000
0000
0100
0000
0000
0000
0001
0000
0000
0000
1000
0000
0000
0000
0100
0000
0000
0000
1000
0000
0000
0000
0001
0000
0000
0000
0010
0000
0000
0000
0001
0000
0000
0000
,
1000
0000
0010
0000
1000
0000
0001
0000
0000
0010
0000
0000
0001
0000
0000
0100
0000
0000
0010
0000
0000
1000
0000
0000
,
0100
0000
0000
1000
0000
0000
0001
0000
0000
0020
0000
0000
0000
0000
0000
0130
0000
1000
0000
0001
0000
0100
0000
0010
,
0000
0000
1000
0000
0000
0000
0001
0000
0000
0000
0010
0000
0000
0000
0100
0000
0000
0000
1000
0000
0000
0001
0000
0000
1000
0000
0000
0000
0000
0000
0010
0000
0000
0000
0000
0000
0100
0000
0000
0000
0000
0000
0001
0000
0000
0000
0000
0000
,
1000
0100
0010
0001
0100
0010
1000
0010
0100
0002
0000
0000
,
0000
0000
0000
0000
0000
0000
0000
0000
0000
1003
0100
0010
,
0001
0100
0010
1000
0100
1000
0001
0100
0001
1000
0100
0010
,
0001
0000
0010
0000
0100
0000
1000
0000
0010
0000
0100
0000
0001
0000
0100
0000
0010
0000
1000
0000
0000
0001
0000
0000
,
0010
0200
0000
0000
0000
1300
0020
0000
,
0000
0000
0000
0000
0130
0001
0100
0010
,
1000
0100
0010
0100
1000
0001
0100
0020
,
0000
0000
0000
0000
0000
1030
0100
0010
,
0001
1000
0002
0013
0100
0100
1000
0010
,
0100
0100
0001
0001
1000
1000
0100
0010
,
0001
0010
0100
0100
1000
0000
1001
0001
,
0100
0000
0000
0010
0000
0000
0010
0000
0000
1000
0000
0000
0100
0000
0000
0100
0000
0000
0010
0000
0001
0000
0010
0000
,
0100
0000
1000
0000
0100
0000
1000
0000
0001
0000
1000
0000
0001
0000
0100
0000
0010
0000
2000
0000
0000
3000
0000
0000
,
2002
0000
0000
0000
0000
0000
3003
0000
0000
0000
0000
0000
0001
0000
0000
0000
0100
0000
0000
0000
0010
0000
0000
0000
1000
0000
0000
0100
0000
0000
1000
0000
0000
0001
0000
0000
1000
0000
0000
0010
0000
0000
0100
0000
0000
0001
0000
0000
,
1000
0001
1000
0100
0010
0100
1000
0001
0100
0010
0100
0001
1000
0010
1000
0010
,
1000
0010
1000
0010
1000
0001
0010
0100
1000
0001
0100
0001
1000
0100
1000
0001
,
0010
0001
1000
0010
0100
0001
0100
0010
1000
0001
0010
0001
1000
0001
0010
0001
,
1000
0010
0100
0001
0100
0001
1000
0100
1000
0001
1000
0010
0100
0001
1000
0001
,
0100
0010
1000
0001
0100
0001
1000
0001
1000
0010
0100
0001
1000
0001
1000
0001
,
1000
0001
1000
0001
1000
0010
1000
0010
0100
0001
1000
0100
1000
0001
0100
0001
,
1000
0100
1000
0001
0100
0010
1000
0001
1000
0100
0010
0001
1000
0000
0000
0000
,
1010
0000
0000
0000
0110
0000
0000
0000
0001
0100
0010
1000
0001
1000
0100
1000
,
0001
1000
0100
1000
0001
0100
0010
1000
0001
1000
0100
1000
0001
0010
0001
0010
,
0001
0010
0001
0010
0001
1000
0010
0100
0001
0100
0001
1000
0100
1000
0001
0100
,
0001
1000
0001
0100
0010
1000
0001
1000
0100
0010
0001
1000
0001
0000
0000
0000
,
0101
0000
0000
0000
1010
0000
0000
0000
1000
0001
1000
0001
0100
0001
1000
0001
,
1000
0010
0100
0001
1000
0001
1000
0100
0010
0100
0010
0001
1000
0010
1000
0010
,
1000
0010
1000
0010
1000
0001
0100
0010
1000
0001
0010
0100
0010
0001
1000
0100
,
1000
0001
1000
0010
1000
0001
0100
0010
1000
0001
0100
0001
1000
0000
0001
0000
,
0100
0000
0000
0010
0000
0000
0100
0000
0000
0000
0000
0000
0001
0000
0000
1000
0000
0000
0001
0000
0000
0000
0000
0000
1010
0000
0000
0000
0000
0000
0000
0000
0110
0000
0000
0000
0000
0000
0000
0000
0101
0000
0000
0000
0000
0000
0000
0000
,
0000
0000
0000
0000
0001
0100
0001
0100
0001
0100
0010
1000
0001
0010
0001
0010
,
0100
1000
0100
1000
0001
1000
0001
1000
0001
1000
0100
1000
0100
1000
0001
1000
,
0001
1000
0001
0100
0010
1000
0010
1000
0001
0010
0001
0010
0100
1000
0100
1000
,
0001
0100
0001
1000
0100
1000
0100
1000
0100
0010
0100
0010
0001
0010
0001
0010
,
0001
1000
0001
0100
0010
1000
0001
0010
0001
1000
0100
1000
0001
0100
0010
1000
,
0001
1000
0010
1000
0001
1000
0100
0010
0001
1000
0001
1000
0010
0100
0001
1000
,
0001
0100
0010
1000
0001
1000
0001
0010
0100
0010
0001
1000
0010
1000
0010
0100
,
0001
0100
0010
1000
0001
0000
0010
0000
0100
0010
0100
0000
1000
0001
1000
0000
,
0001
0100
0001
0000
0010
0000
0100
0000
0100
0000
1000
0000
0001
0000
0100
0000
,
0010
0000
1000
0000
0100
0000
0010
0000
0001
0010
0001
0000
2000
0000
3020
0000
,
0230
0302
0013
0100
0100
1000
0001
0010
,
0001
0000
1000
0000
0001
0100
0001
0100
0010
1000
0010
1000
0001
0010
0001
0010
,
0100
1000
0100
1000
0001
0000
0100
0000
0001
0000
0001
0000
0010
0000
0100
0000
,
1000
0000
0001
0000
0100
0000
0010
0000
1000
0010
2000
0000
3200
0000
0320
0000
,
0032
0000
2003
0000
3001
1000
0010
1000
0001
0010
0001
1000
0001
0010
0100
1000
,
0001
1000
0010
1000
0001
0010
0100
1000
0001
1000
0010
0100
0001
0100
0001
1000
,
0100
0000
0000
0010
0000
0000
0001
0000
0000
0010
0000
0000
0001
0000
0000
0000
0000
0000
0000
0000
0000
0000
0000
0000
0001
0000
0000
0000
0010
0000
0000
0000
0001
0000
0000
0000
1000
0000
0000
0000
0010
0000
0000
0000
1000
0000
0000
0000
,
0001
0100
0001
1000
0100
1000
0001
0100
0001
1000
0100
1000
,
0010
0100
0010
1000
0100
0010
0001
0100
0010
1000
0100
0010
,
0001
0100
0010
100M
00M0
0M00
M001
0100
0001
1000
0100
1000
,
0001
0010
0001
1000
0010
1000
0001
0010
0001
1000
0100
1000
,
0010
0100
0010
1000
0010
0100
0001
0100
0010
1000
0100
0010
,
0001
0010
0100
1000
0100
1000
0001
0100
0001
1000
0010
1000
,
0001
0010
0001
1000
0010
1000
0001
0100
0001
0010
0100
0010
,
0001
0010
0100
1000
0100
0010
0001
0100
0010
1000
0010
0100
,
M001
0M00
00M0
100M
0010
1000
0100
0010
0100
1000
0010
1000
,
0001
0100
0001
0010
0100
0010
0001
0100
0001
1000
0100
1000
,
0001
0100
0001
1000
0010
1000
0001
0010
0001
1000
0010
0100
,
0001
1000
2000
3010
,
0100
0200
0301
0020
,
0130
0000
0000
1000
0010
0100
0001
0100
0010
1000
0000
0000
,
0001
0010
0020
0130
,
1000
2000
3001
0200
,
0301
0000
0000
0010
0100
1000
0001
0100
0010
1000
0000
0000
,
0001
0002
0103
0010
,
0020
1030
0200
0310
,
0001
0100
0010
1000
0100
0010
0001
0000
0000
1000
0000
0000
,
0200
0320
0031
0100
,
0020
0000
0000
0130
0001
1000
0100
0010
0001
0010
0100
1000
,
0001
0000
0000
0000
2002
0000
0000
0000
3003
0000
0000
0000
0000
0000
0000
MMMM
0000
0000
0000
0000
0000
0000
MMMM
0000
0000
0000
0000
0000
0000
0000
MMMM
0000
;
