#TITLE:Encoder;
#SUBTITLE:;
#ARTIST:Pendulum;
#TITLETRANSLIT:;
#SUBTITLETRANSLIT:;
#ARTISTTRANSLIT:;
#CREDIT:;
#BANNER:encoderbn.png;
#BACKGROUND:encoderbg.png;
#LYRICSPATH:;
#CDTITLE:;
#MUSIC:encoder.ogg;
#OFFSET:0.009;
#SAMPLESTART:104.825;
#SAMPLELENGTH:22.070;
#SELECTABLE:YES;
#BPMS:0.000=174.000;
#STOPS:;
#BGCHANGES:;
// cache tags:
#FIRSTBEAT:28.000;
#LASTBEAT:528.000;
#SONGFILENAME:Songs/Pendulum/Encoder/encoder.sm;
#HASMUSIC:1;
#HASBANNER:1;
#MUSICLENGTH:182.000;
// end cache tags

//---------------dance-single - I. Pyles----------------
#NOTES:
     dance-single:
     I. Pyles:
     Beginner:
     1:
     0.023,0.035,0.000,0.000,0.000,29.000,0.000,0.000,0.000,0.000:

0000
0000
0000
0000
,
0000
0000
0000
0000
,
0000
0000
0000
0000
,
0000
0000
0000
0000
,
0000
0000
0000
0000
,
0000
0000
0000
0000
,
0000
0000
0000
0000
,
1000
0000
0000
0000
,
0000
0000
0000
0000
,
0000
0000
0000
0000
,
0000
0000
0000
0000
,
0000
0000
0000
0000
,
1000
0000
0000
0000
,
0000
0000
0000
0000
,
0000
0000
0000
0000
,
0000
0000
0000
0000
,
0100
0000
0000
0000
,
0000
0000
0000
0000
,
0000
0000
0000
0000
,
0000
0000
0000
0000
,
0010
0000
0000
0000
,
0000
0000
0000
0000
,
0000
0000
0000
0000
,
0000
0000
0000
0000
,
0100
0000
0000
0000
,
0000
0000
0000
0000
,
0000
0000
0000
0000
,
0000
0000
0000
0000
,
0001
0000
0000
0000
,
0000
0000
0000
0000
,
0000
0000
0000
0000
,
0000
0000
0000
0000
,
0100
0000
0000
0000
,
0000
0000
0000
0000
,
0000
0000
0000
0000
,
0000
0000
0000
0000
,
1000
0000
0000
0000
,
0000
0000
0000
0000
,
0000
0000
0000
0000
,
0000
0000
0000
0000
,
0001
0000
0000
0000
,
0000
0000
0000
0000
,
0000
0000
0000
0000
,
0000
0000
0000
0000
,
0100
0000
0000
0000
,
0000
0000
0000
0000
,
0000
0000
0000
0000
,
0000
0000
0000
0000
,
0001
0000
0000
0000
,
0000
0000
0000
0000
,
0000
0000
0000
0000
,
0000
0000
0000
0000
,
0100
0000
0000
0000
,
0000
0000
0000
0000
,
0000
0000
0000
0000
,
0000
0000
0000
0000
,
0000
0000
0000
0000
,
0000
0000
0000
0000
,
0000
0000
0000
0000
,
0000
0000
0000
0000
,
0000
0000
0000
0000
,
0000
0000
0000
0000
,
0000
0000
0000
0000
,
0000
0000
0000
0000
,
1000
0000
0000
0000
,
0000
0000
0000
0000
,
0000
0000
0000
0000
,
0000
0000
0000
0000
,
0100
0000
0000
0000
,
0000
0000
0000
0000
,
0000
0000
0000
0000
,
0000
0000
0000
0000
,
1000
0000
0000
0000
,
0000
0000
0000
0000
,
0000
0000
0000
0000
,
0000
0000
0000
0000
,
0001
0000
0000
0000
,
0000
0000
0000
0000
,
0000
0000
0000
0000
,
0000
0000
0000
0000
,
0001
0000
0000
0000
,
0000
0000
0000
0000
,
0000
0000
0000
0000
,
0000
0000
0000
0000
,
0100
0000
0000
0000
,
0000
0000
0000
0000
,
0000
0000
0000
0000
,
0000
0000
0000
0000
,
0001
0000
0000
0000
,
0000
0000
0000
0000
,
0000
0000
0000
0000
,
0000
0000
0000
0000
,
0100
0000
0000
0000
,
0000
0000
0000
0000
,
0000
0000
0000
0000
,
0000
0000
0000
0000
,
0100
0000
0000
0000
,
0000
0000
0000
0000
,
0000
0000
0000
0000
,
0000
0000
0000
0000
,
0001
0000
0000
0000
,
0000
0000
0000
0000
,
0000
0000
0000
0000
,
0000
0000
0000
0000
,
0100
0000
0000
0000
,
0000
0000
0000
0000
,
0000
0000
0000
0000
,
0000
0000
0000
0000
,
1000
0000
0000
0000
,
0000
0000
0000
0000
,
0000
0000
0000
0000
,
0000
0000
0000
0000
,
0010
0000
0000
0000
,
0000
0000
0000
0000
,
0000
0000
0000
0000
,
0000
0000
0000
0000
,
0001
0000
0000
0000
,
0000
0000
0000
0000
,
0000
0000
0000
0000
,
0000
0000
0000
0000
,
0010
0000
0000
0000
,
0000
0000
0000
0000
,
0000
0000
0000
0000
,
0000
0000
0000
0000
,
1000
0000
0000
0000
,
0000
0000
0000
0000
,
0000
0000
0000
0000
,
0000
0000
0000
0000
,
0010
0000
0000
0000
;

//---------------dance-single - I. Pyles----------------
#NOTES:
     dance-single:
     I. Pyles:
     Easy:
     3:
     0.230,0.435,0.209,0.462,0.008,171.000,38.000,84.000,62.000,0.000:



0000
0000
0000
0000
,
0000
0000
0000
0000
,
0000
0000
0000
0000
,
0000
0000
0000
0000
,
0000
0000
0000
0000
,
0000
0000
0000
0000
,
0000
0000
0000
0000
,
2002
3003
0000
0000
0000
0000
2002
0000
3003
0000
0000
0000
0220
0000
0000
0000
,
0330
0000
0000
0000
,
0000
0000
0000
0000
,
0000
0000
0000
0000
,
0000
0000
0000
0000
,
2002
3003
0000
0000
1000
0000
0000
0000
,
0001
0000
0100
0000
,
1001
0000
0001
0000
,
1000
0000
0020
0030
0200
0300
0020
0030
,
2002
3003
0000
0000
0001
0000
0000
0000
,
1000
0000
0010
0000
,
1001
0000
1000
0000
,
0001
0000
0200
0300
0020
0030
0200
0300
,
2002
3003
0000
0000
1000
0000
0000
0000
,
0001
0000
0100
0000
,
1001
0000
0001
0000
,
1000
0000
0020
0030
0200
0300
0020
0030
,
2002
3003
0000
0000
0001
0000
0000
0000
,
1000
0000
0010
0000
,
1001
0000
1000
0000
,
0001
1000
0001
1000
,
1002
0000
0003
0002
0000
0003
0002
0000
,
0003
1000
0000
0001
,
2000
0000
3000
2000
0000
3000
2000
0000
,
3000
0001
0000
1000
,
2001
0000
3000
2000
0000
3000
2000
0000
,
3000
0001
0000
1000
,
0002
0000
0003
0002
0000
0003
0002
0000
,
0003
1000
0000
0001
,
1002
0000
0003
0002
0000
0003
0002
0000
,
0003
1000
0000
0001
,
2000
0000
3000
2000
0000
3000
2000
0000
,
3000
0001
0000
1000
,
2001
0000
3000
2000
0000
3000
2000
0000
,
3000
0001
0000
1000
,
0002
0000
0003
0002
0000
0003
0002
0000
,
0003
1000
0000
0001
,
1001
0000
0000
0000
,
1100
0000
0000
0000
,
1001
0000
0000
0000
,
0000
0000
0000
0000
,
0101
0000
0000
0000
,
1010
0000
0000
0000
,
0110
0000
0000
0000
,
0000
0000
0000
0000
,
2002
0000
0000
0000
0000
3000
0000
0000
,
0000
0000
0000
0000
,
0000
0000
0000
0000
,
0000
0000
0000
0000
,
0000
0000
0000
0000
,
0000
0000
0000
0000
,
0000
0000
0000
0000
,
0000
0000
0000
0000
0000
0000
0000
0000
0000
0000
0000
0000
0000
0000
0000
0000
0000
0000
0000
0000
0000
0000
0000
0000
0003
0000
0000
M000
0M00
00M0
000M
0000
,
0000
0000
0000
0000
,
0000
0000
0000
0000
,
M000
0000
0000
0000
,
M000
0000
0000
0000
,
0M00
0000
0M00
0000
,
00M0
0000
00M0
0000
,
000M
0000
000M
0000
,
000M
0000
000M
0000
,
0M00
0M00
0M00
0M00
,
00M0
00M0
00M0
00M0
,
M000
M000
M000
M000
,
M000
M000
M000
M000
,
0M00
0M00
0M00
0M00
0M00
0M00
0M00
0M00
,
00M0
00M0
00M0
00M0
00M0
00M0
00M0
00M0
,
000M
000M
M000
0M00
0M00
0M00
0M00
0M00
,
0M00
0M00
0M00
0M00
0M00
0M00
0M00
0M00
,
1001
0000
1001
0000
,
0001
0100
0001
0000
,
1100
0000
1100
0000
,
1000
0001
1000
0000
,
1001
0000
1001
0000
,
1000
0010
1000
0000
,
0011
0000
0011
0000
,
0001
1000
0001
1000
,
1001
0000
1001
0000
,
0001
0100
0001
0000
,
1100
0000
1100
0000
,
1000
0001
1000
0000
,
1001
0000
1001
0000
,
1000
0010
1000
0000
,
0011
0000
0011
0000
,
0001
1000
0001
0000
,
2000
0000
0000
0000
,
3200
0000
0000
0000
,
0320
0000
0000
0000
,
0000
0000
0000
0000
,
0032
0000
0000
0000
,
0203
0000
0000
0000
,
0320
0000
1030
0200
0000
0000
0000
0000
,
0000
0000
0000
0000
,
2300
0000
0000
0000
,
3020
0000
0000
0000
,
0230
0000
0000
0000
,
0000
0000
0000
0000
,
0302
0000
0000
0000
,
0023
0000
0000
0000
,
0230
0000
1300
0020
0000
0000
0000
0000
,
0000
0000
0000
0000
,
2030
0000
0000
0000
,
3200
0000
0000
0000
,
0320
0000
0000
0000
,
0000
0000
0000
0000
,
0032
0000
0000
0000
,
0203
0000
0000
0000
,
0320
0000
1030
0200
0000
0000
0000
0000
,
0000
0000
0000
0000
,
2300
0000
0000
0000
,
3020
0000
0000
0000
,
0230
0000
0000
0000
,
0000
0000
0000
0000
,
0302
0000
0000
0000
,
0023
0000
0000
0000
,
0230
0000
1300
0020
0000
0000
0000
0000
,
0000
0000
0000
0000
,
2030
0000
0000
0000
,
3200
0000
0000
0000
,
0320
0000
0000
0000
,
0000
0000
0000
0000
,
0032
0000
0000
0000
,
0203
0000
0000
0000
,
0320
0000
1030
0200
0000
0000
0000
0000
,
0000
0000
0000
0000
,
0300
0000
0000
0000
;

//---------------dance-single - I. Pyles----------------
#NOTES:
     dance-single:
     I. Pyles:
     Medium:
     6:
     0.312,0.544,0.220,0.462,0.008,273.000,40.000,84.000,78.000,0.000:





0000
0000
0000
0000
,
0000
0000
0000
0000
,
0000
0000
0000
0000
,
0000
0000
0000
0000
,
0000
0000
0000
0000
,
0000
0000
0000
0000
,
0000
0000
0000
0000
,
2002
3003
0000
0000
0000
0000
2002
0000
3003
0000
0000
0000
0220
0000
0000
0000
,
0330
0000
0000
0000
,
0000
0000
0000
0000
,
0000
0000
0000
0000
,
0000
0000
0000
0000
,
2MM2
3003
0000
1000
0000
0001
1000
0000
,
1000
0000
0000
0001
0000
1000
0001
0000
,
1MM1
0000
0000
0001
0000
1000
0001
0000
,
1000
0000
0020
0030
0200
0300
0020
0030
,
2MM2
3003
0000
1000
0000
0001
1000
0000
,
1000
0000
0000
0001
0000
1000
0001
0000
,
1MM1
0000
0000
0001
0000
1000
0001
0000
,
1000
0000
0020
0030
0200
0300
0020
0030
,
2MM2
3003
0000
1000
0000
0001
1000
0000
,
1000
0000
0000
0001
0000
1000
0001
0000
,
1MM1
0000
0000
0001
0000
1000
0001
0000
,
1000
0000
0020
0030
0200
0300
0020
0030
,
2MM2
3003
0000
1000
0000
0001
1000
0000
,
1000
0000
0000
0001
0000
1000
0001
0000
,
1MM1
0000
0000
0001
0000
1000
0001
0000
,
1000
0010
1000
0001
,
1002
0000
0003
0002
0000
0003
0002
0000
,
0003
1000
0100
0000
0010
0000
0100
0000
,
2000
0000
3000
2000
0000
3000
2000
0000
,
3000
0001
0000
0001
1000
0000
0001
0000
,
2001
0000
3000
2000
0000
3000
2000
0000
,
3000
0001
0010
0000
0100
0000
0010
0000
,
0002
0000
0003
0002
0000
0003
0002
0000
,
0003
1000
0000
1000
0001
0000
1000
0000
,
1002
0000
0003
0002
0000
0003
0002
0000
,
0003
1000
0100
0000
0010
0000
0100
0000
,
2000
0000
3000
2000
0000
3000
2000
0000
,
3000
0001
0000
0001
1000
0000
0001
0000
,
2001
0000
3000
2000
0000
3000
2000
0000
,
3000
0001
0010
0000
0100
0000
0010
0000
,
0002
0000
0003
0002
0000
0003
0002
0000
,
0003
1000
0000
1000
0001
0000
1000
0000
,
0001
1000
0000
1000
0100
0000
0010
0000
,
0100
1000
0000
1000
0001
0000
0100
0000
,
0010
1000
0000
1000
0001
0000
0100
0010
,
0000
0010
0000
0010
1000
0000
0001
0000
,
1000
0001
0000
0001
0010
0000
0100
0000
,
0010
0001
0000
0001
1000
0000
0010
0000
,
0100
0001
0000
0001
1000
0000
0010
0100
,
0000
0100
0000
0100
0001
0000
1000
0000
,
2002
0000
0000
0000
0000
3000
0000
0000
,
0000
0000
0000
0000
,
0000
0000
0000
0000
,
0000
0000
0000
0000
,
0000
0000
0000
0000
,
0000
0000
0000
0000
,
0000
0000
0000
0000
,
0000
0000
0000
0000
0000
0000
0000
0000
0000
0000
0000
0000
0000
0000
0000
0000
0000
0000
0000
0000
0000
0000
0000
0000
0003
0000
0000
M000
0M00
00M0
000M
0000
,
0000
0000
0000
0000
,
0000
0000
0000
0000
,
M000
0000
0000
0000
,
M000
0000
0000
0000
,
0M00
0000
0M00
0000
,
00M0
0000
00M0
0000
,
000M
0000
000M
0000
,
000M
0000
000M
0000
,
0M00
0M00
0M00
0M00
,
00M0
00M0
00M0
00M0
,
M000
M000
M000
M000
,
M000
M000
M000
M000
,
0M00
0M00
0M00
0M00
0M00
0M00
0M00
0M00
,
00M0
00M0
00M0
00M0
00M0
00M0
00M0
00M0
,
000M
000M
M000
0M00
0M00
0M00
0M00
0M00
,
0M00
0M00
0M00
0M00
0M00
0M00
0M00
0M00
,
1001
0110
1001
0001
,
0010
0100
1000
0100
,
1100
0110
1100
1000
,
0001
0100
0010
1000
,
1001
0110
1001
0001
,
0100
0010
1000
0001
,
0101
0000
0110
0000
0101
0000
0001
1000
,
0000
1000
0001
1000
0001
0000
0001
0000
,
1001
0110
1001
0001
,
0010
0100
1000
0100
,
1100
0110
1100
1000
,
0001
0100
0010
1000
,
1001
0110
1001
0001
,
0100
0010
1000
0001
,
0101
0000
0110
0000
0101
0000
0001
1000
,
0000
1000
0001
1000
0001
0000
1000
0001
,
2000
0000
0000
0000
,
3200
0000
0000
0000
,
0320
0000
0000
0000
,
0000
0000
0000
0000
,
0032
0000
0000
0000
,
0203
0000
0000
0000
,
0320
0000
1030
0200
0000
0000
0000
0000
,
0000
0000
0000
0000
,
2300
0000
0000
0000
,
3020
0000
0000
0000
,
0230
0000
0000
0000
,
0000
0000
0000
0000
,
0302
0000
0000
0000
,
0023
0000
0000
0000
,
0230
0000
1300
0020
0000
0000
0000
0000
,
0000
0000
0000
0000
,
2030
0000
0000
0000
,
3200
0000
0000
0000
,
0320
0000
0000
0000
,
0000
0000
0000
0000
,
0032
0000
0000
0000
,
0203
0000
0000
0000
,
0320
0000
1030
0200
0000
0000
0000
0000
,
0000
0000
0000
0000
,
2300
0000
0000
0000
,
3020
0000
0000
0000
,
0230
0000
0000
0000
,
0000
0000
0000
0000
,
0302
0000
0000
0000
,
0023
0000
0000
0000
,
0230
0000
1300
0020
0000
0000
0000
0000
,
0000
0000
0000
0000
,
2030
0000
0000
0000
,
3200
0000
0000
0000
,
0320
0000
0000
0000
,
0000
0000
0000
0000
,
0032
0000
0000
0000
,
0203
0000
0000
0000
,
0320
0000
1030
0200
0000
0000
0000
0000
,
0000
0000
0000
0000
,
0300
0000
0000
0000
;

//---------------dance-single - I. Pyles----------------
#NOTES:
     dance-single:
     I. Pyles:
     Hard:
     9:
     0.447,0.762,0.412,0.401,0.019,420.000,75.000,73.000,90.000,5.000:









0000
0000
0000
0000
,
0000
0000
0000
0000
,
0000
0000
0000
0000
,
0000
0000
0000
0000
,
0000
0000
0000
0000
,
0000
0000
0000
0000
,
0000
0000
0000
0000
,
2002
3003
0000
0000
0000
0000
2002
0000
3003
0000
0000
0000
2022
0000
0000
0000
,
3033
0000
0000
0000
,
0000
0000
0000
0000
,
0000
0000
0000
0000
,
0000
0000
0000
0000
,
2MM2
3003
0000
1000
0000
0001
0400
0000
,
1300
0010
0000
0010
0000
0100
0001
1000
,
1MM1
0000
0001
0100
0000
0010
0100
0100
,
0010
0000
0000
0000
1000
0000
0000
0000
0002
0000
0000
0003
0001
0000
0000
0000
0020
0000
0000
0030
0010
0000
0000
0000
0002
0000
0000
0003
0001
0000
0000
0000
,
2MM2
3003
0000
1000
0000
0001
0400
0000
,
1300
0010
0000
0010
0000
0100
0001
1000
,
1MM1
0000
0000
0000
0001
0000
0100
0000
0000
0000
0010
0000
0100
0000
0100
0001
,
0010
0000
0000
0000
0001
0000
0000
0000
2000
0000
0000
3000
1000
0000
0000
0000
0020
0000
0000
0030
0010
0000
0000
0000
2000
0000
0000
3000
1000
0000
0000
0000
,
2MM2
3003
0000
0001
0000
1000
0400
0000
,
0301
0010
0000
0010
0000
0100
1000
0001
,
1MM1
0000
1000
0100
0000
0010
0100
0100
,
0010
0000
0000
0000
0001
0000
0000
0000
2000
0000
0000
3000
1000
0000
0000
0000
0020
0000
0000
0030
0010
0000
0000
0000
2000
0000
0000
3000
1000
0000
0000
0000
,
2MM2
3003
0000
0001
0000
1000
0400
0000
,
0301
0010
0000
0010
0000
0100
1000
0001
,
1MM1
0000
0000
0000
1000
0000
0100
0000
0000
0000
0010
0000
0100
0000
0100
1000
,
0010
1000
0001
0001
0010
0010
0100
0100
,
1002
0000
0103
0002
0000
0103
0001
0100
,
0000
0100
0010
0010
1000
0000
0000
0001
,
2000
0000
3100
2000
0000
3100
1000
0100
,
0000
0100
0000
0010
0100
1000
0000
1000
,
2001
0000
3010
2000
0000
3010
1000
0010
,
0000
0010
0100
0100
0001
0000
0000
1000
,
0002
0000
0013
0002
0000
0013
0001
0010
,
0000
0010
0000
0100
0010
0001
0000
0001
,
1002
0000
0103
0002
0000
0103
0001
0100
,
0000
0100
0010
0010
1000
0000
0000
0001
,
2000
0000
3100
2000
0000
3100
1000
0100
,
0000
0100
0000
0010
0100
1000
0000
1000
,
2001
0000
3010
2000
0000
3010
1000
0010
,
0000
0010
0100
0100
0001
0000
0000
1000
,
0002
0000
0013
0002
0000
0013
0001
0010
,
0000
0010
0000
0001
0010
0000
0100
0000
,
MM11
0001
0000
1000
1100
0000
0101
0000
,
1M1M
0010
0000
0010
0110
0000
0101
0000
,
11MM
0100
0000
0100
0110
0100
1100
1001
,
0000
0000
0001
1000
0010
0000
0010
0000
0100
0000
0100
0000
0001
0000
0001
0000
,
M1M1
0001
0000
1000
1010
0000
0011
0000
,
11MM
0100
0000
0100
0110
0000
0011
0000
,
1M1M
0000
0010
0000
0000
0000
0010
0000
0110
0000
0010
0000
1010
0000
0010
1000
,
0001
0001
0010
0010
0100
0100
1000
1000
,
2002
0000
0000
0000
0000
3000
0000
0000
,
0000
0000
0000
0000
,
0000
0000
0000
0000
,
0000
0000
0000
0000
,
0000
0000
0000
0000
,
0000
0000
0000
0000
,
0000
0000
0000
0000
,
0000
0000
0000
0000
0000
0000
0000
0000
0000
0000
0000
0000
0000
0000
0000
0000
0000
0000
0000
0000
0000
0000
0000
0000
0003
0000
0000
M000
0M00
00M0
000M
0000
,
0000
0000
0000
0000
,
0000
0000
0000
0000
,
M000
0000
0000
0000
,
M000
0000
0000
0000
,
0M00
0000
0M00
0000
,
00M0
0000
00M0
0000
,
000M
0000
000M
0000
,
000M
0000
000M
0000
,
0M00
0M00
0M00
0M00
,
00M0
00M0
00M0
00M0
,
M000
M000
M000
M000
,
M000
M000
M000
M000
,
0M00
0M00
0M00
0M00
0M00
0M00
0M00
0M00
,
00M0
00M0
00M0
00M0
00M0
00M0
00M0
00M0
,
000M
000M
M000
0M00
0M00
0M00
0M00
0M00
,
0M00
0M00
0M00
0M00
0M00
0M00
0M00
0M00
,
1001
0000
0110
0000
1001
0000
0001
0100
,
0000
0010
0100
0100
0001
0010
0000
0100
,
1100
0000
0110
0000
1100
0100
1000
0010
,
0100
0100
0010
0010
1000
0000
0010
1000
,
1001
0000
0110
0000
1001
0000
1000
0100
,
0000
0010
0100
0100
1000
0010
0000
0100
,
0101
0000
0110
0000
0101
0100
0001
0010
,
0100
0100
0010
0010
0001
0000
0010
0001
,
1001
0000
0110
0000
1001
0000
1000
0010
,
0000
0100
0010
0010
1000
0100
0000
0010
,
0011
0000
0110
0000
0011
0010
0001
0100
,
0010
0010
0100
0100
0001
0000
0100
0001
,
1001
0000
0110
0000
1001
0000
0001
0010
,
0000
0100
0010
0010
0001
0100
0000
0010
,
1010
0000
0110
0000
1010
0010
1000
0100
,
0010
0010
0100
0100
1000
0000
1000
0001
,
2000
0000
0000
0000
,
3020
0000
0000
0000
,
1031
0000
0110
0000
1001
0001
1000
0010
,
0100
0100
0010
0010
1000
0000
0010
1000
,
0002
0000
0000
0000
,
0203
0000
0000
0000
,
0320
0000
1030
0200
0000
0000
0000
0000
,
0000
0000
0000
0000
,
2300
0000
0000
0000
,
3020
0000
0000
0000
,
1031
0000
0110
0000
1001
1000
0001
0100
,
0010
0010
0100
0100
0001
0000
0100
0001
,
2000
0000
0000
0000
,
3020
0000
0000
0000
,
0230
0000
0301
0020
0000
0000
0000
0000
,
0000
0000
0000
0000
,
0032
0000
0000
0000
,
0203
0000
0000
0000
,
1301
0000
0110
0000
1001
0001
1000
0010
,
0100
0100
0010
0010
1000
0000
0010
1000
,
0002
0000
0000
0000
,
0203
0000
0000
0000
,
0320
0000
1030
0200
0000
0000
0000
0000
,
0000
0000
0000
0000
,
2300
0000
0000
0000
,
3020
0000
0000
0000
,
1031
0000
0110
0000
1001
1000
0001
0100
,
0010
0010
0100
0100
0001
0000
0100
0001
,
2000
0000
0000
0000
,
3020
0000
0000
0000
,
0230
0000
0301
0020
0000
0000
0000
0000
,
0000
0000
0000
0000
,
0230
0000
0000
0000
,
2300
0000
0000
0000
,
3020
0000
0000
0000
,
0000
0000
0000
0000
,
0230
0000
0000
0000
,
0302
0000
0000
0000
,
0203
0000
0310
2000
0000
0000
0000
0000
,
0000
0000
0000
0000
,
3000
0000
0000
0000
;

//---------------dance-single - I. Pyles----------------
#NOTES:
     dance-single:
     I. Pyles:
     Challenge:
     13:
     0.758,1.000,0.346,0.269,0.723,853.000,63.000,49.000,90.000,1.000:












0000
0000
0000
0000
,
0000
0000
0000
0000
,
0000
0000
0000
0000
,
0000
0000
0000
0000
,
0000
0000
0000
0000
,
0000
0000
0000
0000
,
0000
0000
0000
0000
,
2002
3003
0000
0000
0000
0000
2002
0000
3003
0000
0000
0000
2022
0000
0000
0000
,
3033
0000
0000
0000
,
0000
0000
0000
0000
,
0000
0000
0000
0000
,
0000
0000
0000
0000
,
2MM2
3003
0000
1000
0000
0001
0400
0000
,
1300
0010
0000
0010
0000
0100
0001
1000
,
1MM1
0000
0001
0100
0000
0010
0100
0100
,
0010
0000
0000
0000
1000
0000
0000
0000
0002
0000
0000
0003
0001
0000
0000
0000
0020
0000
0000
0030
0010
0000
0000
0000
0002
0000
0000
0003
0001
0000
0000
0000
,
2MM2
3003
0000
1000
0000
0001
0400
0000
,
1300
0010
0000
0010
0000
0100
0001
1000
,
1MM1
0000
0000
0000
0001
0000
0100
0000
0000
0000
0010
0000
0100
0000
0100
0001
,
0010
0000
0000
0000
0001
0000
0000
0000
2000
0000
0000
3000
1000
0000
0000
0000
0020
0000
0000
0030
0010
0000
0000
0000
2000
0000
0000
3000
1000
0000
0000
0000
,
2MM2
3003
0000
0001
0000
1000
0400
0000
,
0301
0010
0000
0010
0000
0100
1000
0001
,
1MM1
0000
1000
0100
0000
0010
0100
0100
,
0010
0000
0000
0000
0001
0000
0000
0000
2000
0000
0000
3000
1000
0000
0000
0000
0020
0000
0000
0030
0010
0000
0000
0000
2000
0000
0000
3000
1000
0000
0000
0000
,
2MM2
3003
0000
0001
0000
1000
0400
0000
,
0301
0010
0000
0010
0000
0100
1000
0001
,
1MM1
0000
0000
0000
1000
0000
0100
0000
0000
0000
0010
0000
0100
0000
0100
1000
,
0010
1000
0001
0001
0010
0010
0100
0100
,
1002
0000
0103
0002
0000
0103
0001
0100
,
0000
0100
0010
0010
1000
0000
0000
0001
,
2000
0000
3100
2000
0000
3100
1000
0100
,
0000
0100
0000
0010
0100
1000
0000
1000
,
2001
0000
3010
2000
0000
3010
1000
0010
,
0000
0010
0100
0100
0001
0000
0000
1000
,
0002
0000
0013
0002
0000
0013
0001
0010
,
0000
0010
0000
0100
0010
0001
0000
0001
,
1002
0000
0103
0002
0000
0103
0001
0100
,
0000
0100
0010
0010
1000
0000
0000
0001
,
2000
0000
3100
2000
0000
3100
1000
0100
,
0000
0100
0000
0010
0100
1000
0000
1000
,
2001
0000
3010
2000
0000
3010
1000
0010
,
0000
0010
0100
0100
0001
0000
0000
1000
,
0002
0000
0013
0002
0000
0013
0001
0010
,
0000
0010
0000
0001
0010
0000
0100
0000
,
MM11
0001
0000
1000
1100
0000
0101
0000
,
1M1M
0010
0000
0010
0110
0000
0101
0000
,
11MM
0100
0000
0100
0110
0100
1100
1001
,
0000
0000
0001
1000
0010
0000
0010
0000
0100
0000
0100
0000
0001
0000
0001
0000
,
M1M1
0001
0000
1000
1010
0000
0011
0000
,
11MM
0100
0000
0100
0110
0000
0011
0000
,
1M1M
0000
0010
0000
0000
0000
0010
0000
0110
0000
0010
0000
1010
0000
0010
1000
,
0001
0001
0010
0010
0100
0100
1000
1000
,
2002
0000
0000
0000
0000
3000
0000
0000
,
0000
0000
0000
0000
,
0000
0000
0000
0000
,
0000
0000
0000
0000
,
0000
0000
0000
0000
,
0000
0000
0000
0000
,
0000
0000
0000
0000
,
0000
0000
0000
0000
0000
0000
0000
0000
0000
0000
0000
0000
0000
0000
0000
0000
0000
0000
0000
0000
0000
0000
0000
0000
0003
0000
0000
M000
0M00
00M0
000M
0000
,
0000
0000
0000
0000
,
0000
0000
0000
0000
,
M000
0000
0000
0000
,
M000
0000
0000
0000
,
0M00
0000
0M00
0000
,
00M0
0000
00M0
0000
,
000M
0000
000M
0000
,
000M
0000
000M
0000
,
0M00
0M00
0M00
0M00
,
00M0
00M0
00M0
00M0
,
M000
M000
M000
M000
,
M000
M000
M000
M000
,
0M00
0M00
0M00
0M00
0M00
0M00
0M00
0M00
,
00M0
00M0
00M0
00M0
00M0
00M0
00M0
00M0
,
000M
000M
M000
0M00
0M00
0M00
0M00
0M00
,
0M00
0M00
0M00
0M00
0M00
0M00
0M00
0M00
,
1001
0000
0110
0000
1001
0000
0001
0100
,
0000
0010
0100
0100
0001
0010
0000
0100
,
1100
0000
0110
0000
1100
0100
1000
0010
,
0100
0100
0010
0010
1000
0000
0010
1000
,
1001
0000
0110
0000
1001
0000
1000
0100
,
0000
0010
0100
0100
1000
0010
0000
0100
,
0101
0000
0110
0000
0101
0100
0001
0010
,
0100
0100
0010
0010
0001
0000
0010
0001
,
1001
0000
0110
0000
1001
0000
1000
0010
,
0000
0100
0010
0010
1000
0100
0000
0010
,
0011
0000
0110
0000
0011
0010
0001
0100
,
0010
0010
0100
0100
0001
0000
0100
0001
,
1001
0000
0110
0000
1001
0000
0001
0010
,
0000
0100
0010
0010
0001
0100
0000
0010
,
1010
0000
0110
0000
1010
0010
1000
0100
,
0010
0010
0100
0100
1000
0001
0010
0001
,
1000
0100
0010
0001
1000
0010
1000
0001
1000
0100
0010
0001
1000
0010
1000
0001
,
0010
0100
1000
0001
1000
0010
1000
0001
0010
0100
1000
0001
1000
0010
1000
0001
,
0100
0001
0010
0100
1000
0001
1000
0100
1000
0001
0100
0001
1000
0001
0010
0001
,
1000
0010
1000
0001
1000
0100
1000
0001
0100
0001
1000
0001
0010
0001
1000
0001
,
1000
0100
0010
0001
1000
0010
1000
0001
1000
0100
0010
0001
1000
0010
1000
0001
,
0010
0100
1000
0001
1000
0010
1000
0001
0010
0100
1000
0001
1000
0010
1000
0001
,
0100
0001
0010
0100
0010
0001
0100
0010
1000
0001
1000
0100
1000
0001
1000
0010
,
1000
0001
0010
0001
1000
0001
0100
0001
1000
0100
1000
0001
1000
0010
1000
0001
,
1000
0010
0100
0001
1000
0100
1000
0001
1000
0010
0100
0001
1000
0100
1000
0001
,
0100
0010
1000
0001
1000
0100
1000
0001
0100
0010
1000
0001
1000
0100
1000
0001
,
0010
0001
0100
0010
1000
0001
1000
0010
1000
0001
0010
0001
1000
0001
0100
0001
,
1000
0100
1000
0001
1000
0010
1000
0001
0010
0001
1000
0001
0100
0001
1000
0001
,
1000
0010
0100
0001
1000
0100
1000
0001
1000
0010
0100
0001
1000
0100
1000
0001
,
0100
0010
1000
0001
1000
0100
1000
0001
0100
0010
1000
0001
1000
0100
1000
0001
,
0010
0001
0100
0010
0100
0001
0010
0100
1000
0001
1000
0010
1000
0001
1000
0100
,
1000
0001
0100
0001
1000
0001
0010
0001
1000
0010
1000
0001
1000
0100
1000
0001
,
1000
0100
0010
0001
1000
0010
1000
0001
1000
0100
0010
0001
1000
0010
1000
0001
,
0010
0100
1000
0001
1000
0010
1000
0001
0010
0100
1000
0001
1000
0010
1000
0001
,
0100
0001
0010
0100
1000
0001
1000
0100
1000
0001
0100
0001
1000
0001
0010
0001
,
1000
0010
1000
0001
1000
0100
1000
0001
0100
0001
1000
0001
0010
0001
1000
0001
,
1000
0100
0010
0001
1000
0010
1000
0001
1000
0100
0010
0001
1000
0010
1000
0001
,
0010
0100
1000
0001
1000
0010
1000
0001
0010
0100
1000
0001
1000
0010
1000
0001
,
0100
0001
0010
0100
0010
0001
0100
0010
1000
0001
1000
0100
1000
0001
1000
0010
,
1000
0001
0010
0001
1000
0001
0100
0001
1000
0100
1000
0001
1000
0010
1000
0001
,
1000
0010
0100
0001
1000
0100
1000
0001
1000
0010
0100
0001
1000
0100
1000
0001
,
0100
0010
1000
0001
1000
0100
1000
0001
0100
0010
1000
0001
1000
0100
1000
0001
,
0010
0001
0100
0010
1000
0001
1000
0010
1000
0001
0010
0001
1000
0001
0100
0001
,
1000
0100
1000
0001
1000
0010
1000
0001
0010
0001
1000
0001
0100
0001
1000
0001
,
1000
0010
0100
0001
1000
0100
1000
0001
1000
0010
0100
0001
1000
0100
1000
0001
,
0100
0010
1000
0001
1000
0100
1000
0001
0100
0010
1000
0001
1000
0100
1000
0001
,
0010
0001
0100
0010
0100
0001
0010
0100
1000
0001
1000
0010
1000
0001
1000
0100
,
1000
0001
0100
0001
1000
0001
0010
0001
1000
0010
1000
0001
1000
0100
1000
0001
,
0200
0000
0000
0000
,
0302
0000
0000
0000
,
0023
0000
0000
0000
,
0000
0000
0000
0000
,
0230
0000
0000
0000
,
2300
0000
0000
0000
,
3020
0000
0130
0002
0000
0000
0000
0000
,
0000
0000
0000
0000
,
0003
0000
0000
0000
;
