#TITLE:Kick-ass Kung-fu Carnival;
#SUBTITLE:;
#ARTIST:t+pazolite;
#TITLETRANSLIT:;
#SUBTITLETRANSLIT:;
#ARTISTTRANSLIT:;
#CREDIT:;
#BANNER:BN.png;
#BACKGROUND:BG.png;
#LYRICSPATH:;
#CDTITLE:../CDTitleOV1.png;
#MUSIC:Kick-ass Kung-fu Carnival.ogg;
#OFFSET:-0.227;
#SAMPLESTART:148.584;
#SAMPLELENGTH:29.999;
#SELECTABLE:YES;
#BPMS:0.000=110.000,16.000=220.000,672.000=210.000,673.000=200.000,674.000=190.000,675.000=185.000,676.000=180.000,677.000=170.000,678.000=160.000,679.000=150.000,680.000=140.000,681.000=130.000,682.000=90.000,683.000=102.000,684.000=53.250,685.000=70.000,686.000=100.000,687.000=150.000,688.000=146.667,689.000=91.244,690.000=97.000,691.000=91.000,692.000=85.000,693.000=34.600,694.000=114.000,702.000=123.000,705.000=130.000,706.000=140.000,711.000=150.000,716.000=140.000,720.000=149.000,728.000=160.000,732.000=170.000,739.000=165.000,746.000=180.000,747.000=190.000,748.000=200.000,751.000=210.000,755.000=215.000,756.000=220.000;
#STOPS:;
#BGCHANGES:;
// cache tags:
#FIRSTBEAT:3.688;
#LASTBEAT:1034.000;
#SONGFILENAME:Songs/owenviau1 Simfiles 07_final/Kick-ass Kung-fu Carnival - [owenviau1] v1.0.7/Kick-ass Kung-fu Carnival.sm;
#HASMUSIC:1;
#HASBANNER:1;
#MUSICLENGTH:301.296;
// end cache tags

//---------------dance-single - owenviau1----------------
#NOTES:
     dance-single:
     owenviau1:
     Challenge:
     20:
     1.000,1.000,0.060,0.269,1.000,3151.000,18.000,81.000,164.000,1.000:
0000
0000
0000
0000
0000
0000
0000
0000
0000
0000
0000
0000
0000
0000
0000
0000
0000
0000
0000
0000
0000
0000
0000
0000
0000
0000
0000
0000
0000
0000
0000
0000
0000
0000
0000
0000
0000
0000
0000
0000
0000
0000
0000
0000
0000
0000
0000
0000
0000
0000
0000
0000
0000
0000
0000
0000
0000
0000
0000
MMMM
M000
M000
M000
M000
,
M000
M000
M000
M000
MMMM
000M
000M
000M
000M
000M
000M
000M
000M
MMMM
0000
0000
0000
0000
0000
0000
0000
0000
0000
0000
0000
0000
0000
0000
0000
M00M
M00M
M00M
M00M
M00M
M00M
M00M
M00M
M00M
MMMM
000M
000M
000M
000M
000M
000M
000M
000M
000M
0000
0000
0000
0000
0000
0000
0000
0000
0000
0000
0000
0000
0000
0000
0000
0000
,
0000
0MM0
0000
M00M
000M
000M
000M
000M
000M
000M
0MMM
000M
000M
000M
000M
000M
000M
M00M
0000
0MM0
0000
0000
0000
0000
0000
0000
0000
0000
0000
0000
0000
0000
MMMM
000M
000M
000M
000M
000M
000M
000M
000M
MMMM
M000
M000
M000
M000
M000
M000
M000
M000
MMMM
0000
0000
0000
0000
0000
0000
0000
0000
0000
0000
0000
0000
0000
,
00M0
00M0
00M0
00M0
00M0
00M0
00M0
00M0
00M0
00M0
00M0
00M0
00M0
00M0
00M0
00M0
00M0
00M0
00M0
0000
0000
0000
0000
0000
0000
0000
0000
0000
0000
0000
0000
0000
0000
0000
0000
0000
0000
0000
0000
0000
0000
0000
0000
0000
0000
0000
0000
0000
0000
0000
0000
0000
0000
0000
0000
0000
0000
0000
0000
0000
0000
0000
0000
0000
,
1000
0100
0010
0000
0001
0000
0100
0010
1000
0000
0001
0000
0010
0100
1000
0000
,
0010
0000
0100
0001
1000
0000
0100
0000
0010
0001
0100
0010
1000
0000
0001
0000
,
0100
0010
1000
0000
0100
0000
0010
0001
1000
0000
0010
0000
0100
0001
1000
0000
,
0100
0000
0010
0001
0100
0000
0010
0000
1000
0100
1000
0001
0100
0000
0010
0000
,
1000
0100
0010
0000
0001
0000
0010
0100
1000
0000
0010
0000
0100
0001
1000
0000
,
0100
0000
0010
0001
0100
0000
0010
0000
1000
0000
0100
0000
0010
0001
0100
0010
,
1000
0010
0100
0000
0001
0000
0100
0010
1000
0000
0001
0000
0010
0100
1000
0000
,
0010
0000
0100
0001
1000
0000
0100
0000
0010
0001
0100
0010
1000
0000
0001
0000
,
0100
0010
1000
0000
0100
0000
0010
0001
1000
0000
0010
0000
0100
0001
1000
0000
,
0100
0000
0010
0001
0100
0000
0010
0000
1000
0100
1000
0001
0100
0000
0010
0000
,
1000
0100
0010
0000
0001
0000
0010
0100
1000
0000
0010
0000
0100
0001
1000
0000
,
0100
0000
0010
0001
0100
0000
0010
0000
1000
0000
0100
0000
0010
0001
0100
0010
,
1000
0100
0010
0000
0001
0000
0100
0010
1000
0000
0001
0000
0010
0100
1000
0000
,
0010
0000
0100
0001
1000
0000
0100
0000
0010
0001
0100
0010
1000
0000
0001
0000
,
0101
0000
0000
0110
0000
0000
1010
0000
1001
0000
0000
0011
0000
0000
0110
0000
,
1100
1000
0001
0100
0020
0030
2000
3000
,
0001
0010
0100
1000
0010
0100
0001
0100
0010
1000
0001
1000
0100
0010
0001
0100
,
0010
1000
0010
0100
0001
0010
0001
0100
0010
1000
0100
0010
0001
1000
0010
1000
,
0001
0100
0010
1000
0100
0010
0001
0100
0010
1000
0001
0010
0001
0100
0010
1000
,
0100
0000
0010
0000
0001
0000
0100
0000
0010
1000
0001
0000
0010
0000
0100
0000
,
1000
0010
0100
0010
1000
0001
0100
0001
0010
0100
1000
0010
0100
0001
0100
0010
,
1000
0001
1000
0100
0010
0001
0100
0010
1000
0001
0010
0100
1000
0001
0010
0001
,
0100
0010
1000
0001
0100
0010
1000
0100
0010
0001
0100
0010
1000
0010
0100
0001
,
1000
0000
0010
0000
0100
0001
0010
0000
0100
0000
1000
0010
0100
0000
0001
0000
,
1000
0100
0010
0001
0100
0010
0100
0001
1000
0010
0100
0010
1000
0001
0010
0001
,
0100
0010
1000
0100
0010
0001
1000
0010
1000
0100
0010
0001
0100
0010
1000
0001
,
0100
0001
0010
0100
1000
0010
0100
0001
1000
0100
0010
0001
0010
0100
1000
0001
,
0100
0000
0010
0000
1000
0000
0100
0000
0010
0001
0100
0000
0010
0000
1000
0000
,
0001
0010
0100
1000
0010
0100
0001
0100
0010
1000
0100
0010
0001
0100
0010
1000
,
0001
0010
0001
0100
0010
1000
0100
0010
0001
1000
0010
1000
0001
0100
0010
1000
,
0100
0010
0001
1000
0010
1000
0001
0100
0010
1000
0001
0010
0001
0100
0010
1000
,
0001
0000
0010
0000
0100
0000
1000
0000
0010
0000
0100
0001
0010
0000
0100
0000
,
1000
0100
0010
0001
0100
0010
0100
0001
1000
0010
0100
0010
1000
0001
0010
0001
,
0100
0010
1000
0100
0010
0001
1000
0010
1000
0100
0010
0001
0100
0010
1000
0001
,
1000
0100
0010
0001
0100
0010
0100
0001
1000
0100
0010
0001
0100
0010
0100
0001
,
1000
0010
0100
0010
1000
0001
0010
0001
0100
0010
1000
0100
0010
0001
1000
0010
,
1000
0100
0010
0001
0100
0010
1000
0001
0100
0001
0010
0100
1000
0010
0100
0001
,
1000
0100
0010
0001
0010
0100
1000
0001
0100
0010
0100
0001
0010
0100
1000
0001
,
0100
0010
1000
0100
0010
0001
0100
0001
0010
0100
1000
0010
0100
0001
1000
0100
,
0010
0000
0001
0000
0100
0000
0010
0000
2000
3000
0010
0000
0200
0300
0001
0000
,
1000
0100
0010
0001
0100
0010
0100
0001
1000
0010
0100
0010
1000
0001
0010
0001
,
0100
0010
1000
0100
0010
0001
1000
0010
1000
0100
0010
0001
0100
0010
1000
0001
,
1000
0100
0010
0001
0100
0010
0100
0001
1000
0100
0010
0001
0100
0010
0100
0001
,
1000
0010
0100
0010
1000
0001
0010
0001
0100
0010
1000
0100
0010
0001
1000
0010
,
1000
0100
0010
0001
0100
0010
1000
0001
0100
0001
0010
0100
1000
0010
0100
0001
,
1000
0100
0010
0001
0010
0100
1000
0001
0100
0010
0100
0001
0010
0100
1000
0001
,
0100
0010
1000
0100
0010
0001
0100
0001
1000
0100
0010
0001
0100
0010
0100
0001
,
1000
0010
0100
0010
1000
0001
0010
0001
0100
0010
1000
0100
0010
0001
1000
0010
,
1000
0100
0010
0001
0100
0010
1000
0001
1000
0100
0010
0001
0100
0010
0100
0001
,
1000
0100
0010
0001
0100
0010
0100
0001
1000
0010
0100
0010
1000
0001
0010
0001
,
0100
0010
1000
0100
0010
0001
1000
0010
1000
0100
0010
0001
0100
0010
1000
0001
,
0100
0001
0010
0100
1000
0010
0100
0001
1000
0100
0010
0001
0010
0100
1000
0001
,
0100
0010
0100
0001
0010
0100
1000
0001
1000
0100
0010
0001
0100
0010
0100
0001
,
1000
0010
0100
0010
1000
0001
0010
0001
0100
0010
1000
0100
0010
0001
1000
0010
,
1000
0100
0010
0001
0100
0010
1000
0001
1000
0100
0010
0001
0100
0010
0100
0001
,
1000
0100
0010
0001
0100
0010
0100
0001
1000
0010
0100
0010
1000
0001
0010
0001
,
0100
0010
1000
0100
0010
0001
1000
0010
1000
0100
0010
0001
0100
0010
1000
0001
,
0100
0001
0010
0100
1000
0010
0100
0001
1000
0100
0010
0001
0010
0100
1000
0001
,
0100
0010
0100
0001
0010
0100
1000
0001
0100
0010
1000
0100
1000
0010
0100
0001
,
0010
0100
1000
0001
1000
0010
0100
0010
1000
0001
0010
0001
0100
0010
1000
0100
,
0010
0001
1000
0010
1000
0100
0010
0001
0100
0010
1000
0001
1000
0100
0010
0001
,
0100
0010
0100
0001
1000
0100
0010
0001
0100
0010
0100
0001
1000
0010
0100
0010
,
1000
0001
0010
0000
0100
0000
1000
0010
0100
0000
0001
1000
0100
0000
0010
0000
,
0001
0000
0100
0010
1000
0000
0001
0000
0100
0000
0010
0000
1000
0000
0100
0000
,
0010
0001
0100
0010
1000
0010
0100
0001
0010
0100
1000
0001
0100
0010
1000
0100
,
0010
0001
0100
0001
0010
0100
1000
0010
1000
0100
0010
0001
0100
0010
0100
0001
,
1000
0010
0100
0010
1000
0001
0010
0001
0100
0010
1000
0100
0010
0001
1000
0010
,
1000
0100
0010
0001
0100
0010
1000
0001
1000
0100
0010
0001
0100
0010
0100
0001
,
1000
0100
0010
0001
0100
0010
0100
0001
1000
0010
0100
0010
1000
0001
0010
0001
,
0100
0010
1000
0100
0010
0001
1000
0010
1000
0100
0010
0001
0100
0010
1000
0001
,
0100
0001
0010
0100
1000
0010
0100
0001
1000
0100
0010
0001
0010
0100
1000
0001
,
0100
0010
0100
0001
0010
0000
0100
0000
1000
0000
0010
0000
0100
0000
0001
0000
,
1000
0010
0100
0001
0010
0100
1000
0001
0100
0010
1000
0100
0010
0001
0100
0001
,
0010
0100
1000
0010
1000
0100
0010
0001
0100
0010
0100
0001
1000
0010
0100
0001
,
1000
0010
0100
0001
0010
0100
1000
0001
0100
0010
1000
0100
0010
0001
0100
0001
,
0010
0100
1000
0010
1000
0100
0010
0001
0100
0010
0100
0001
1000
0010
0100
0010
,
1000
0001
0010
0001
0100
0010
1000
0100
0010
0001
1000
0010
1000
0100
0010
0001
,
0100
0010
1000
0001
1000
0100
0010
0001
0100
0010
0100
0001
1000
0100
0010
0001
,
0100
0010
0100
0001
1000
0010
0100
0010
1000
0001
0010
0001
0100
0010
1000
0100
,
0010
0001
1000
0010
1000
0100
0010
0001
0100
0010
1000
0001
0100
0001
0010
0100
,
2000
0000
3020
0000
0230
0302
0000
2003
,
0000
3020
0230
0302
2003
3002
0023
0000
,
0230
0000
2300
0000
3002
0203
0000
0320
,
2030
0000
0000
0000
0000
0000
0000
3002
,
0023
0000
0230
0000
2300
0000
3020
0230
,
0000
0302
0000
2003
3200
0320
0032
0203
,
0320
0000
2030
0000
3002
0000
2003
3200
,
0000
0000
0320
0000
,
0032
0000
2003
0000
3020
0230
0000
0302
,
0000
0023
0230
0320
0032
2003
3200
0000
,
0320
0000
0032
0000
0203
0320
0000
2030
,
3200
0000
0000
0000
0000
0000
0000
0320
,
0032
0000
2003
0000
3020
0000
2030
3200
,
0000
0320
0000
0032
0203
0320
2030
3200
,
0320
0000
0032
0000
0203
0320
2030
3002
,
0000
0000
0000
0000
,
1MM3
0100
0010
0001
0100
0010
1000
0010
,
0100
0001
1000
0001
0010
0100
1000
0010
,
0100
0001
1000
0100
1000
0001
0010
0100
,
1000
0010
0100
0001
0100
0010
1000
0001
,
1000
0100
0010
0001
0100
0010
1000
0001
,
0010
0100
1000
0100
0010
0001
1000
0010
,
1000
0001
0010
0001
0100
0010
1000
0100
,
0010
0001
0100
0010
1000
0001
0100
0010
,
1001
1000
0010
0100
0001
0010
0001
1000
,
0010
0100
0001
1000
0100
0010
0001
0100
,
0010
0100
0001
1000
0001
0010
0100
1000
,
0010
0100
0001
1000
0100
1000
0001
0010
,
0001
0100
0010
1000
0001
0100
0001
0010
,
0100
1000
0010
0100
0001
1000
0100
0010
,
0001
1000
0010
1000
0100
0010
0001
0100
,
0010
0000
1000
0000
0001
0000
0010
0000
0100
1000
0010
0100
0001
0000
1000
0000
,
0001
0010
0100
1000
0010
0100
0001
0100
0010
1000
0100
0010
0001
0100
0010
1000
,
0001
0010
0001
0100
0010
1000
0100
0010
0001
1000
0010
1000
0001
0100
0010
1000
,
0100
0010
0001
1000
0010
1000
0001
0100
0010
1000
0001
0010
0001
0100
0010
1000
,
0001
0010
0100
1000
0010
0100
0001
0100
0010
1000
0100
0010
0001
0100
0010
1000
,
0001
0010
0100
1000
0010
0100
0001
0100
0010
1000
0100
0010
0001
0100
0010
1000
,
0001
0010
0001
0100
0010
1000
0100
0010
0001
1000
0010
1000
0001
0100
0010
1000
,
0100
0010
0001
1000
0010
1000
0001
0100
0010
1000
0001
0010
0001
0100
0010
1000
,
0001
0000
0010
0000
0100
0000
1000
0000
0010
0100
0001
1000
0100
0010
0001
0100
,
0010
1000
0010
0100
0001
1000
0100
0010
0001
0100
0010
1000
0001
0010
0100
1000
,
0010
0100
0001
0100
0010
1000
0001
1000
0100
0010
0001
0100
0010
1000
0001
0010
,
0001
0100
0010
0100
0001
1000
0010
0100
0010
1000
0001
0100
0001
0010
0100
1000
,
0010
0100
0001
1000
0100
0010
0001
1000
0010
1000
0001
0100
0001
0010
0100
1000
,
0010
0100
0001
1000
0100
0010
0001
1000
0010
1000
0100
0010
0001
0100
0010
1000
,
0010
0100
0001
0010
0001
1000
0100
0010
0001
0100
0010
1000
0001
0100
0001
1000
,
0010
1000
0100
0010
0001
0100
0010
1000
0001
0010
0100
1000
0010
0100
0001
1000
,
0100
0000
0010
0001
0100
0010
0100
0001
1000
0000
0100
0010
0001
0000
1000
0000
,
0010
0100
0001
1000
0100
0010
0001
0100
0010
1000
0010
0100
0001
1000
0100
0010
,
0001
0100
0010
1000
0001
0010
0100
1000
0010
0100
0001
0100
0010
1000
0001
1000
,
0100
0010
0001
0100
0010
1000
0001
0010
0001
0100
0010
0100
0001
1000
0010
0100
,
0010
1000
0001
0100
0001
0010
0100
1000
0010
0100
0001
1000
0100
0010
0001
1000
,
0010
1000
0001
0100
0001
0010
0100
1000
0010
0100
0001
1000
0100
0010
0001
1000
,
0010
1000
0100
0010
0001
0100
0010
1000
0010
0100
0001
0010
0001
1000
0100
0010
,
0001
0100
0010
1000
0001
0100
0001
1000
0010
1000
0100
0010
0001
0100
0010
1000
,
0001
0010
0100
1000
0010
0100
0001
1000
0010
0100
0001
1000
0100
0010
0001
0100
,
0010
1000
0010
0100
0001
1000
0100
0010
0001
0100
0010
1000
0001
0010
0100
1000
,
0010
0100
0001
0100
0010
1000
0001
1000
0100
0010
0001
0100
0010
1000
0001
0010
,
0001
0100
0010
0100
0001
1000
0010
0100
0010
1000
0001
0100
0001
0010
0100
1000
,
0010
0100
0001
1000
0100
0010
0001
1000
0010
1000
0001
0100
0001
0010
0100
1000
,
0010
0100
0001
1000
0100
0010
0001
1000
0010
1000
0100
0010
0001
0100
0010
1000
,
0010
0100
0001
0010
0001
1000
0100
0010
0001
0100
0010
1000
0001
0100
0001
1000
,
0010
1000
0100
0010
0001
0100
0010
1000
0010
0100
0001
1000
0100
0010
0001
0100
,
0010
1000
0010
0100
0001
1000
0100
0010
0001
0100
0010
1000
0001
0010
0100
1000
,
0010
0100
0001
0100
0010
1000
0001
1000
0100
0010
0001
0100
0010
1000
0001
0010
,
0001
0100
0010
0100
0001
1000
0010
0100
0010
1000
0001
0100
0001
0010
0100
1000
,
0010
0100
0001
1000
0100
0010
0001
1000
0010
1000
0001
0100
0001
0010
0100
1000
,
0010
0100
0001
1000
0100
0010
0001
1000
0010
1000
0100
0010
0001
0100
0001
1000
,
0100
0010
0001
0100
0010
1000
0010
0100
0001
1000
0100
0010
0001
0100
0010
1000
,
0001
0010
0100
1000
0010
0100
0001
0100
0010
1000
0001
1000
0100
0010
0001
0100
,
0010
1000
0001
0010
0001
0100
0010
0100
0001
1000
0010
0100
0010
1000
0001
0100
,
0001
0010
0100
1000
0010
0100
0001
1000
0100
0010
0001
1000
0010
1000
0001
0100
,
M0M1
0100
0010
1000
0010
0100
0001
1000
,
0100
0010
0001
0100
0010
1000
0001
0010
,
0100
1000
0010
0100
0010
1000
0001
0100
,
0001
1000
0010
0100
0001
1000
0100
0010
,
0001
1000
0010
0100
0010
1000
0001
0010
,
0001
0100
0010
1000
0001
0100
0001
0010
,
0100
1000
0010
0100
0001
1000
0100
0010
,
0001
1000
0010
1000
0001
1000
0010
0100
,
1001
0001
0010
0100
1000
0010
0100
0010
,
1000
0001
0100
0001
0010
0100
1000
0010
,
0100
0001
1000
0100
0010
0001
0100
0001
,
1000
0100
0010
0001
1000
0010
0100
0001
,
1000
0100
0010
0001
0100
0010
1000
0001
,
0100
0001
0010
0100
1000
0010
0100
0001
,
1000
0100
1000
0010
0100
0001
2000
0000
,
3101
0110
1100
1001
0101
0110
1010
1001
,
1000
0000
0000
0000
0000
0000
0000
0000
0100
0000
0000
0000
0000
0000
0000
0000
0010
0000
0000
0000
0000
0000
0000
0000
0001
0000
0000
0000
0000
0000
0000
0000
0100
0000
0000
0000
0000
0000
0000
0000
0010
0000
0000
0000
0000
0000
0000
0000
1000
0000
0000
0000
0000
0000
0000
0000
0000
0000
0001
0000
0000
0000
0000
0000
0000
0000
0000
0010
0000
0000
0000
0000
0000
0000
0000
0000
0000
0100
0000
0000
0000
0000
0000
0000
0000
0000
1000
0000
0000
0000
0000
0000
0000
0000
0000
0000
0001
0000
0000
0000
0000
0000
0000
0000
0000
0000
0000
0000
0010
0000
0000
0000
0000
0000
0000
0000
0000
0000
0000
0000
0100
0000
0000
0000
0000
0000
0000
0000
0000
0000
0000
0000
0000
0000
0000
0000
0000
0000
0000
0000
0000
0000
0000
0000
1000
0000
0000
0000
0000
0000
0000
0000
0000
0000
0000
0000
0000
0000
0000
0000
0000
0000
0000
0000
0000
0000
0000
0000
0010
0000
0000
0000
0000
0000
0000
0000
0000
0000
0000
0000
0100
0000
0000
0000
0000
0000
0000
0000
0000
0000
0000
0000
,
0001
0000
0000
1000
0000
0000
0010
0000
0100
0000
0000
0000
2002
0000
0000
0000
0000
0000
0000
0000
0000
0000
0000
0000
,
0000
0000
0000
0000
0000
0000
0000
0000
0000
0000
0000
0000
0000
0000
0000
3003
0000
0000
0000
0000
0000
0000
0000
0000
0000
0000
0000
0000
0000
0000
0000
0000
,
0000
0000
0000
0000
,
0000
0000
0000
0000
,
0000
0000
0000
0000
,
0000
0000
0000
0000
,
0000
0000
0000
0000
,
0000
0000
0000
0000
,
0000
0000
0000
0000
0000
0000
0000
0000
0000
0000
0000
0000
1M0M
0010
0100
0001
,
1000
0100
0010
0001
1000
0010
1000
0001
0100
0001
0010
0100
1000
0010
0100
0001
,
1000
0100
0010
0001
1000
0010
1000
0100
0010
0001
0100
0010
1000
0010
0100
0001
,
0010
0001
1000
0100
0010
0001
0100
0010
1000
0001
0100
0001
1000
0010
1000
0100
,
0010
0001
0100
0010
1000
0001
0010
0100
1000
0010
0100
0001
1000
0010
0100
0001
,
1000
0100
0010
0001
1000
0010
1000
0001
0100
0001
0010
0100
1000
0010
0100
0001
,
1000
0100
0010
0001
1000
0010
1000
0100
0010
0001
0100
0010
1000
0010
0100
0001
,
0010
0001
1000
0100
0010
0001
0100
0010
1000
0001
0100
0001
1000
0010
1000
0100
,
0010
0001
0100
0010
1000
0001
0010
0100
1000
0000
0100
0000
0010
0000
0001
0100
,
0010
1000
0010
0100
0001
0000
0010
0000
0100
0000
1000
0000
0010
0000
0100
0000
,
0001
0010
0001
1000
0100
0000
0010
0000
0001
0000
0100
0010
1000
0000
0001
0000
,
0010
0100
1000
0001
0100
0000
0010
0000
1000
0000
0100
0000
0010
0000
0001
0000
,
0100
0010
1000
0001
0M10
0000
0100
0000
100M
0000
0010
0000
0100
0000
0001
0010
,
0100
1000
0010
0100
0001
0000
0010
0000
0100
0000
1000
0000
0010
0000
0100
0000
,
0001
0010
0100
1000
0100
0000
0010
0000
M001
0000
0100
0010
1000
0000
0001
0000
,
0010
0100
1000
0001
0100
0000
0010
0000
100M
0000
0100
0000
0010
0000
0001
0000
,
0100
0010
1000
0001
0010
0000
0100
0000
10M0
0000
0100
0000
0010
0000
0001
0100
,
0010
1000
0010
0100
M001
0000
0010
0000
010M
0000
1000
0000
0010
0000
0100
0000
,
0001
0010
0001
1000
01M0
0000
0010
0000
M001
0000
0100
0010
1000
0000
0001
0000
,
0010
0100
1000
0001
M100
0000
0010
0000
100M
0000
0100
0000
M010
0000
0001
0000
,
M100
0010
1000
0001
0M10
0000
0100
0000
100M
0000
0100
0000
0010
0000
0001
0100
,
001M
1000
0010
0100
0001
0000
0010
0000
010M
0000
1000
0000
0010
0000
0100
0000
,
M001
0010
0001
1000
0100
0000
0010
0000
M001
0100
0010
1000
00M1
0100
0001
0010
,
010M
1000
0010
0100
00M1
1000
0100
1000
001M
0100
0001
1000
0M01
0010
0100
1000
,
001M
0100
0001
1000
010M
0010
0001
1000
0M10
1000
0100
0010
M001
0100
0010
1000
,
0M02
0000
0003
0000
0200
0000
0300
0000
0001
0010
0100
1000
0010
0100
0001
0100
,
0010
1000
0001
1000
0100
0010
0001
0100
0010
1000
0010
0100
0001
0010
0001
0100
,
0010
1000
0100
0010
0001
1000
0010
1000
0001
0100
0010
1000
0100
0010
0001
0100
,
0010
1000
0001
0010
0001
0100
0010
1000
0100
0000
0010
0000
0001
0000
0100
0000
,
0010
1000
0001
0000
0010
0000
0100
0000
1000
0010
0100
0010
1000
0001
0100
0001
,
0010
0100
1000
0010
0100
0001
0100
0010
1000
0001
1000
0100
0010
0001
0100
0010
,
1000
0001
0010
0100
1000
0001
0010
0001
0100
0010
1000
0001
0100
0010
1000
0100
,
0010
0001
0100
0010
1000
0010
0100
0001
1000
0000
0010
0000
0100
0001
0010
0000
,
0100
0000
1000
0010
0100
0000
0001
0000
1000
0100
0010
0001
0100
0010
0100
0001
,
1000
0010
0100
0010
1000
0001
0010
0001
0100
0010
1000
0100
0010
0001
1000
0010
,
1000
0100
0010
0001
0100
0010
1000
0001
0100
0001
0010
0100
1000
0010
0100
0001
,
1000
0100
0010
0001
0010
0100
1000
0001
0100
0000
0010
0000
1000
0000
0100
0000
,
0010
0001
0100
0000
0010
0000
1000
0000
0001
0010
0100
1000
0010
0100
0001
0100
,
0010
1000
0100
0010
0001
0100
0010
1000
0001
0010
0001
0100
0010
1000
0100
0010
,
0001
1000
0010
1000
0001
0100
0010
1000
0100
0010
0001
1000
0010
1000
0001
0100
,
0010
1000
0001
0010
0001
0100
0010
1000
0001
0000
0010
0000
0100
0000
1000
0000
,
0010
0000
0100
0001
0010
0000
0100
0000
1000
0000
0001
0000
0010
0000
0001
0100
,
0010
1000
0010
0100
0001
0000
0010
0000
0100
0000
1000
0000
0010
0000
0100
0000
,
0001
0010
0001
1000
0100
0000
0010
0000
0001
0000
0100
0010
1000
0000
0001
0000
,
0010
0100
1000
0001
0100
0000
0010
0000
1000
0000
0100
0000
0010
0000
0001
0000
,
0100
0010
1000
0001
0010
0000
0100
0000
1000
0010
0100
0001
0010
0001
1000
0010
,
1000
0100
0010
0001
0100
0010
1000
0001
0010
0100
1000
0010
0100
0010
1000
0001
,
0100
0001
0010
0100
1000
0010
0100
0001
1000
0010
1000
0100
0010
0001
0100
0010
,
1000
0001
0010
0001
1000
0100
0010
0001
1000
0000
0010
0000
0100
0001
1000
0000
,
0100
0000
0010
0001
0100
0000
0010
0000
1000
0001
0100
0010
1000
0001
0100
0001
,
0010
0100
1000
0010
0100
0001
0100
0010
1000
0001
1000
0100
0010
0001
0100
0010
,
1000
0001
0010
0100
1000
0001
0010
0001
0100
0010
1000
0001
0100
0010
1000
0100
,
0010
0001
0100
0010
1000
0010
0100
0001
1000
0000
0010
0000
0100
0001
0010
0000
,
0100
0000
1000
0010
0100
0000
0001
0000
1000
0100
0010
0001
0100
0010
0100
0001
,
1000
0010
0100
0010
1000
0001
0010
0001
0100
0010
1000
0100
0010
0001
1000
0010
,
1000
0100
0010
0001
0100
0010
1000
0001
0100
0001
0010
0100
1000
0010
0100
0001
,
1000
0100
0010
0001
0010
0100
1000
0001
0100
0000
0010
0000
1000
0000
0100
0000
,
0010
0001
0100
0000
0010
1000
0100
0010
0001
0010
0100
1000
0010
0100
0001
0100
,
0010
1000
0100
0010
0001
0100
0010
1000
0010
0100
0001
1000
0100
0010
0001
0100
,
0010
1000
0010
0100
0001
1000
0100
0010
0001
0100
0010
1000
0001
0010
0100
1000
,
0010
0100
0001
0100
0010
1000
0001
1000
0100
0010
0001
0100
0010
1000
0001
0010
,
0001
0100
0010
0100
0001
1000
0010
0100
0010
1000
0001
0100
0001
0010
0100
1000
,
0010
0100
0001
1000
0100
0010
0001
1000
0010
1000
0001
0100
0001
0010
0100
1000
,
0010
0100
0001
1000
0100
0010
0001
1000
0010
1000
0100
0010
0001
0100
0010
1000
,
0010
0100
0001
0010
0001
1000
0100
0010
0001
0100
0010
1000
0001
0100
0001
1000
,
0010
1000
0100
0010
0001
0100
0010
1000
0001
0010
0100
1000
0010
0100
0001
1000
,
0010
0100
0001
1000
0100
0010
0001
0100
0010
1000
0010
0100
0001
1000
0100
0010
,
0001
0100
0010
1000
0001
0010
0100
1000
0010
0100
0001
0100
0010
1000
0001
1000
,
0100
0010
0001
0100
0010
1000
0001
0010
0001
0100
0010
0100
0001
1000
0010
0100
,
0010
1000
0001
0100
0010
0100
0001
1000
0100
0010
0001
0100
0010
1000
0010
0100
,
0001
1000
0100
0010
0001
0100
0010
1000
0001
0010
0100
1000
0010
0100
0001
0100
,
0010
1000
0001
1000
0100
0010
0001
0100
0010
1000
0001
0010
0001
0100
0010
0100
,
0001
1000
0010
0100
0010
1000
0001
0100
0001
0010
0100
1000
0010
0100
0001
1000
,
0100
0010
0001
1000
0010
1000
0001
0100
0001
0010
0100
1000
0010
0100
0001
1000
,
0100
0000
0000
0010
0000
0000
0001
0000
0000
1000
0000
0000
0010
0000
0000
1000
0000
0000
0100
0000
0000
0010
0000
0000
0002
0000
0000
0000
0000
0000
0000
0000
0000
0000
0000
0000
0000
0000
0003
0000
0000
0000
0000
0000
0000
0000
0000
0000
,
2000
0000
0000
0000
,
0000
0000
0000
0000
,
0000
0000
3000
0000
;

//---------------dance-single - ----------------
#NOTES:
     dance-single:
     :
     Hard:
     15:
     0.957,1.000,0.196,0.319,0.448,1864.000,59.000,96.000,129.000,1.000:
0000
0000
0000
0000
0000
0000
0000
0000
0000
0000
0000
0000
0000
0000
0000
0000
0000
0000
0000
0000
0000
0000
0000
0000
0000
0000
0000
0000
0000
0000
0000
0000
0000
0000
0000
0000
0000
0000
0000
0000
0000
0000
0000
0000
0000
0000
0000
0000
0000
0000
0000
0000
0000
0000
0000
0000
0000
0000
0000
MMMM
M000
M000
M000
M000
,
M000
M000
M000
M000
MMMM
000M
000M
000M
000M
000M
000M
000M
000M
MMMM
0000
0000
0000
0000
0000
0000
0000
0000
0000
0000
0000
0000
0000
0000
0000
M00M
M00M
M00M
M00M
M00M
M00M
M00M
M00M
M00M
MMMM
000M
000M
000M
000M
000M
000M
000M
000M
000M
0000
0000
0000
0000
0000
0000
0000
0000
0000
0000
0000
0000
0000
0000
0000
0000
,
0000
0MM0
0000
M00M
000M
000M
000M
000M
000M
000M
0MMM
000M
000M
000M
000M
000M
000M
M00M
0000
0MM0
0000
0000
0000
0000
0000
0000
0000
0000
0000
0000
0000
0000
MMMM
000M
000M
000M
000M
000M
000M
000M
000M
MMMM
M000
M000
M000
M000
M000
M000
M000
M000
MMMM
0000
0000
0000
0000
0000
0000
0000
0000
0000
0000
0000
0000
0000
,
00M0
00M0
00M0
00M0
00M0
00M0
00M0
00M0
00M0
00M0
00M0
00M0
00M0
00M0
00M0
00M0
00M0
00M0
00M0
0000
0000
0000
0000
0000
0000
0000
0000
0000
0000
0000
0000
0000
0000
0000
0000
0000
0000
0000
0000
0000
0000
0000
0000
0000
0000
0000
0000
0000
0000
0000
0000
0000
0000
0000
0000
0000
0000
0000
0000
0000
0000
0000
0000
0000
,
1000
0100
0010
0001
0010
0100
1000
0100
,
0010
0000
0001
0000
0010
0000
0100
0000
0010
0001
0100
0010
1000
0000
0001
0000
,
0100
0010
1000
0100
0010
0100
1000
0001
,
0100
0000
0010
0000
1000
0000
0010
0000
1000
0100
1000
0001
0100
0000
0010
0000
,
1000
0100
0010
0001
0010
0100
1000
0100
,
0010
0000
0001
0000
0010
0000
0100
0000
1000
0010
0100
0001
0010
0000
0100
0000
,
0010
1000
0100
0010
0001
0010
0100
1000
,
0001
0000
0100
0000
0010
0000
0100
0000
0010
0001
0100
0010
1000
0000
0001
0000
,
1000
0100
0010
0001
0010
0100
1000
0001
,
0100
0000
0010
0000
1000
0000
0010
0000
1000
0100
1000
0001
0100
0000
0010
0000
,
1000
0100
0010
0001
0010
0100
1000
0001
,
0100
0000
0010
0000
1000
0000
0001
0000
1000
0010
0100
0001
0010
0000
0100
0000
,
1000
0100
0010
0001
0010
0100
1000
0001
,
0100
0010
1000
0100
0010
0100
1000
0001
,
0101
0000
0000
0110
0000
0000
1010
0000
1001
0000
0000
0011
0000
0000
0110
0000
,
1100
1000
0001
0100
0020
0030
2000
3000
,
0001
0000
0100
0000
0010
0000
1000
0000
0100
0010
0100
1000
0001
0000
0100
0000
,
0010
0000
1000
0000
0001
0000
0100
0000
0010
1000
0010
1000
0010
0000
0100
0000
,
0001
0000
0100
0000
0010
0000
1000
0000
0001
1000
0001
1000
0001
0000
0010
0000
,
0100
0000
0010
0000
0001
0000
0100
0000
0010
1000
0001
0000
0010
0000
0100
0000
,
0010
0000
0001
0000
1000
0000
0001
0000
1000
0010
1000
0010
1000
0000
0001
0000
,
0100
0000
0010
0000
1000
0000
0001
0000
1000
0100
1000
0100
1000
0000
0010
0000
,
0100
0000
0001
0000
1000
0000
0100
0000
1000
0001
1000
0001
0100
0000
0010
0000
,
0001
0000
0000
0000
0001
0000
0010
0000
0100
0000
1000
0010
0100
0000
0001
0000
,
1000
0000
0100
0000
0010
0000
0001
0000
1000
0001
1000
0001
1000
0000
0100
0000
,
0010
0000
0001
0000
0010
0000
0100
0000
1000
0001
1000
0001
1000
0000
0010
0000
,
0100
0000
0001
0000
1000
0000
0100
0000
0010
0001
0010
0100
0010
0000
1000
0000
,
0100
0000
0010
0000
0001
0000
0100
0000
0010
1000
0100
0000
0010
0000
1000
0000
,
0001
0000
0010
0000
0100
0000
1000
0000
0001
1000
0001
1000
0001
0000
0010
0000
,
0100
0000
1000
0000
0100
0000
1000
0000
0010
0100
0010
0100
0010
0000
0100
0000
,
0010
0000
1000
0000
0001
0000
0100
0000
0001
0010
0100
0010
0001
0000
1000
0000
,
0001
0000
0010
0000
0100
0000
1000
0000
0010
0000
0100
0001
0010
0000
0100
0000
,
0010
1000
0010
0100
0001
1000
0100
0010
,
0001
0100
0001
0100
0001
0010
0001
0100
,
0001
0010
0001
0100
0001
0010
0001
0100
,
0001
0010
0001
0100
0001
0010
0001
0100
,
0001
1000
0100
0010
0001
1000
0001
0100
,
0001
1000
0001
0100
0001
0010
0001
1000
,
0001
0010
0001
1000
0001
0010
0001
1000
,
0010
1000
0100
0010
0001
0010
0001
0010
,
0100
1000
0100
1000
0100
1000
0001
0100
,
0001
0010
0001
0100
0001
1000
0001
0100
,
0001
1000
0100
0010
0001
1000
0001
0100
,
0001
1000
0001
0010
0001
1000
0001
0010
,
0001
1000
0001
0010
0001
1000
0010
0100
,
0010
1000
0010
0100
0001
1000
0100
0010
,
0100
1000
0100
0010
0001
0010
0100
1000
,
0001
1000
1001
0000
0000
0000
0000
0000
,
1010
0000
0010
1000
0010
0000
1000
0010
,
0000
0110
0101
0101
,
0001
0000
1000
0010
1000
0000
0010
0200
,
0000
0300
0101
0000
0011
0000
0101
0000
,
0100
0000
0010
1000
0010
0000
0100
0002
,
0000
0003
1010
1001
,
0110
0000
0001
1000
0001
0000
0010
0002
,
0000
1003
0110
1001
,
1001
0000
1000
0010
1000
0000
0010
0200
,
0000
0301
0011
1001
,
0100
0000
0001
0010
0001
0000
0100
0010
,
0000
1001
1010
1010
,
0001
0000
0001
0100
0010
0000
1000
0010
,
1000
1001
1010
1000
,
1000
0100
0000
0000
0010
0001
0000
0000
,
0010
0100
0000
1000
0000
0001
0100
0010
,
1000
0100
0010
0001
0010
0100
1000
0001
,
0100
0000
0010
0000
1000
0000
0100
0000
0010
0000
0001
0000
0100
0010
1000
0010
,
0100
0001
0100
0010
1000
0100
0010
0100
,
1000
0001
0100
0010
1000
0100
0010
0100
,
1000
0001
0010
0100
1000
0100
0010
0001
,
0100
0000
0010
0000
0100
0000
0001
0000
0010
0000
0100
0000
1000
0001
0100
0010
,
0100
0010
1000
0100
0010
0001
0010
0100
,
1000
0100
0010
0100
1000
0010
0100
0001
,
1000
0100
1000
0100
1000
0001
1000
0001
,
1000
0000
0010
0000
1000
0000
0010
0000
0100
0000
0001
0000
1000
0001
1000
0001
,
1000
0010
0100
0001
0100
0010
0100
0001
,
0101
0000
0100
0100
0100
0000
1010
0000
,
1000
0100
0010
0001
0010
0100
1000
0001
,
0100
0000
0010
0000
1000
0000
0100
0000
0010
0000
0001
0000
0010
0100
1000
0100
,
0010
0001
0100
0010
1000
0100
0010
0100
,
1000
0001
0100
0010
1000
0000
0010
0000
,
2000
0000
3020
0000
0230
0302
0000
2003
,
0000
3020
0230
0302
2003
3002
0023
0000
,
0230
0000
2300
0000
3002
0203
0000
0320
,
2030
0000
0000
0000
0000
0000
0000
3002
,
0023
0000
0230
0000
2300
0000
3020
0230
,
0000
0302
0000
2003
3200
0320
0032
0203
,
0320
0000
2030
0000
3002
0000
2003
3200
,
0000
0000
0320
0000
,
0032
0000
2003
0000
3020
0230
0000
0302
,
0000
0023
0230
0320
0032
2003
3200
0000
,
0320
0000
0032
0000
0203
0320
0000
2030
,
3200
0000
0000
0000
0000
0000
0000
0320
,
0032
0000
2003
0000
3020
0000
2030
3200
,
0000
0320
0000
0032
0203
0320
2030
3200
,
0320
0000
0032
0000
0203
0320
2030
3002
,
0000
0000
0000
0000
,
1003
0100
0010
0001
0100
0010
1000
0010
,
0100
0001
1000
0001
0010
0100
1000
0010
,
0100
0001
1000
0100
1000
0001
0010
0100
,
1000
0010
0100
0001
0100
0010
1000
0001
,
1000
0100
0010
0001
0100
0010
1000
0001
,
0010
0100
1000
0100
0010
0001
1000
0010
,
1000
0001
0010
0001
0100
0010
1000
0100
,
0010
0001
0100
0010
1000
0001
0100
0010
,
1001
1000
0010
0100
0001
0010
0001
1000
,
0010
0100
0001
1000
0100
0010
0001
0100
,
0010
0100
0001
1000
0001
0010
0100
1000
,
0010
0100
0001
1000
0100
1000
0001
0010
,
0001
0100
0010
1000
0001
0100
0001
0010
,
0100
1000
0010
0100
0001
1000
0100
0010
,
0001
1000
0010
1000
0100
0010
0001
0100
,
0010
0000
1000
0000
0001
0000
0010
0000
0100
1000
0010
0100
0001
0000
1000
0000
,
2001
0000
0000
0010
3000
0000
0000
0000
,
1002
0000
0000
0100
0003
0000
0000
0000
,
2001
0000
0000
0010
3000
0000
0000
0000
,
1002
0000
0103
0000
,
0002
2003
3002
2003
,
3020
0230
0320
1030
,
0001
0010
0001
0010
0001
0010
0001
0010
,
0001
0010
0100
1000
0000
0000
0000
0000
,
0001
0100
0001
0100
0001
0100
0001
0100
,
0001
0100
0010
1000
0010
1000
0010
1000
,
0004
0000
1003
0010
1000
0100
0010
0001
,
0010
0100
0100
0010
0110
0000
0101
0000
,
0101
0000
0001
0100
0010
0000
1000
0010
,
0100
0000
0001
0100
0010
1000
0100
0010
,
0012
0000
0003
0000
,
0100
0000
0010
0001
0100
0010
0100
0001
1000
0000
0100
0010
0001
0000
1000
0000
,
0001
0010
0001
0010
0001
0010
0001
0010
,
0100
1000
0100
1000
0100
1000
0100
1000
,
0001
0100
0001
0100
0001
0100
0001
0100
,
0010
1000
0010
1000
0010
1000
0010
1000
,
0001
0100
0001
0100
0001
0100
0001
0100
,
0010
1000
0010
1000
0010
1000
0010
1000
,
0020
0100
0001
0000
0032
0000
0000
0000
,
1003
0010
0100
0001
,
0001
0010
0001
0010
0001
0010
0001
0010
,
0001
0010
0100
1000
0100
0010
0001
1000
,
0001
0010
0001
1000
0010
0100
0010
1000
,
0010
0100
0001
1000
0001
0010
0001
1000
,
0010
0100
1000
0100
0010
0001
0010
1000
,
0010
0001
1000
0001
0100
0001
0010
0100
,
1000
0100
0010
0001
0010
0100
1000
0010
,
0100
0001
0100
0010
1000
0100
0010
0001
,
1000
0100
1000
0100
1000
0100
1000
0010
,
1000
0001
1000
0001
1000
0001
1000
0001
,
1000
0010
0100
0010
0100
0010
0100
0010
,
1000
0010
1000
0010
1000
0010
1000
0010
,
1000
0001
0010
0100
1000
0010
1000
0100
,
1000
0010
1000
0100
1000
0010
1000
0100
,
0010
0001
0100
0010
1000
0100
0010
0001
,
0100
0001
1000
0001
1000
0001
1000
0001
,
1000
0010
0100
0001
0100
0010
1000
0001
,
0010
0100
1000
0010
0100
0001
1000
0100
,
0010
0001
0100
0010
0100
0001
1000
0010
,
1000
0001
0100
0010
1000
0001
0010
0100
,
1000
0001
0100
0010
0100
0001
1000
0100
,
1000
0010
0100
0001
1000
0010
1000
0100
,
0010
0001
0100
0010
1000
0001
0010
0100
,
1000
0001
0100
0001
1000
0001
0100
0010
,
1001
0001
0010
0100
1000
0010
0100
0010
,
1000
0001
0100
0001
0010
0100
1000
0010
,
0100
0001
1000
0100
0010
0001
0100
0001
,
1000
0100
0010
0001
1000
0010
0100
0001
,
1000
0100
0010
0001
0100
0010
1000
0001
,
0100
0001
0010
0100
1000
0010
0100
0001
,
1000
0100
1000
0010
0100
0001
2000
0000
,
3101
0110
1100
1001
0101
0110
1010
1001
,
1000
0000
0000
0000
0000
0000
0000
0000
0100
0000
0000
0000
0000
0000
0000
0000
0010
0000
0000
0000
0000
0000
0000
0000
0001
0000
0000
0000
0000
0000
0000
0000
0100
0000
0000
0000
0000
0000
0000
0000
0010
0000
0000
0000
0000
0000
0000
0000
1000
0000
0000
0000
0000
0000
0000
0000
0000
0000
0001
0000
0000
0000
0000
0000
0000
0000
0000
0010
0000
0000
0000
0000
0000
0000
0000
0000
0000
0100
0000
0000
0000
0000
0000
0000
0000
0000
1000
0000
0000
0000
0000
0000
0000
0000
0000
0000
0001
0000
0000
0000
0000
0000
0000
0000
0000
0000
0000
0000
0010
0000
0000
0000
0000
0000
0000
0000
0000
0000
0000
0000
0100
0000
0000
0000
0000
0000
0000
0000
0000
0000
0000
0000
0000
0000
0000
0000
0000
0000
0000
0000
0000
0000
0000
0000
1000
0000
0000
0000
0000
0000
0000
0000
0000
0000
0000
0000
0000
0000
0000
0000
0000
0000
0000
0000
0000
0000
0000
0000
0010
0000
0000
0000
0000
0000
0000
0000
0000
0000
0000
0000
0100
0000
0000
0000
0000
0000
0000
0000
0000
0000
0000
0000
,
0001
0000
0000
1000
0000
0000
0010
0000
0100
0000
0000
0000
2002
0000
0000
0000
0000
0000
0000
0000
0000
0000
0000
0000
,
0000
0000
0000
0000
0000
0000
0000
0000
0000
0000
0000
0000
0000
0000
0000
3003
0000
0000
0000
0000
0000
0000
0000
0000
0000
0000
0000
0000
0000
0000
0000
0000
,
0000
0000
0000
0000
,
0000
0000
0000
0000
,
0000
0000
0000
0000
,
0000
0000
0000
0000
,
0000
0000
0000
0000
,
0000
0000
0000
0000
,
0000
0000
0000
0000
0000
0000
1001
0001
,
0100
0000
0010
1000
0000
1000
0010
0100
0001
0000
0000
0100
0010
0000
1000
0000
,
1010
0000
0100
0001
0000
0100
0010
1000
0100
0000
0000
0010
0001
0000
0100
0000
,
0010
0000
1000
0100
0000
0010
0001
0100
0010
0000
0000
1000
0010
0000
0100
0001
,
0100
0001
0000
1000
0100
0000
0010
0000
0100
0000
1000
0000
0001
0000
0100
0000
,
0010
0001
1000
0001
0100
0000
0010
0000
0001
0000
0100
0000
0010
0000
1000
0000
,
0100
0010
0100
0010
0100
0000
0010
0000
0001
0000
1000
0000
0010
0000
1000
0000
,
0001
0000
0100
0000
0010
0000
0100
0000
0001
0000
1000
0000
0001
1000
0001
1000
,
0010
0100
0001
0010
0100
1000
0010
0100
0001
0000
0100
0000
0010
0000
1000
0010
,
0100
0001
0100
0010
1000
0000
0100
0000
0010
0000
0001
0000
0100
0000
0010
0000
,
1000
0100
1000
0001
0010
0000
0100
0000
1000
0000
0010
0100
0001
0000
1000
0000
,
0100
0010
0001
1000
0010
0000
0100
0000
0001
0000
0010
0000
0100
0000
1000
0000
,
0010
0100
0001
1000
0010
0000
0100
0000
1000
0000
0100
0000
0010
0000
1000
0100
,
0010
0001
0100
0010
1000
0000
0100
0000
0010
0000
0001
0000
0100
0000
0010
0000
,
1000
0100
0010
0001
0010
0000
0100
0000
1000
0000
0010
0100
0001
0000
1000
0000
,
0100
0010
0001
1000
0010
0000
0100
0000
0001
0000
0010
0000
0100
0000
1000
0000
,
0010
0100
0001
1000
0100
0000
0010
0000
0001
0000
0010
0000
0100
0000
1000
0010
,
0100
0001
0100
0010
1000
0000
0100
0000
0010
0000
0001
0000
0100
0000
0010
0000
,
1000
0100
1000
0001
0010
0000
0100
0000
1000
0000
0010
0100
0001
0000
1000
0000
,
0100
0010
0001
1000
0010
0000
0100
0000
0001
0000
0010
0000
0100
0000
1000
0000
,
0010
0100
0001
1000
0100
0000
0010
0000
0001
0000
0010
0000
0100
0000
1000
0010
,
0100
0001
0100
0010
1000
0000
0100
0000
0010
0000
0001
0000
0100
0000
0010
0000
,
1000
0100
1000
0001
0010
0000
0100
0000
1000
0000
0010
0000
1000
0000
0010
0000
,
0100
0001
0100
0001
0100
0000
0000
0100
,
0010
0000
0000
0010
1000
0000
0000
1000
,
0002
0003
0000
0000
1000
0100
0010
0001
,
0010
0100
1000
0100
0010
0001
0010
0100
,
0010
0001
0100
0010
1000
0000
0001
0000
0100
0000
0010
0000
1000
0000
0100
0000
,
0010
0100
1000
0001
0100
0010
1000
0010
,
1000
0100
1000
0001
0100
0000
0010
0000
1000
0000
0100
0000
0010
0000
0001
0000
,
0010
0100
1000
0100
0010
0001
0010
0100
,
1000
0010
0100
0001
0010
0000
0100
0000
0010
0000
1000
0000
0100
0000
0010
0000
,
0001
0010
0100
1000
0001
0100
0010
0100
,
0010
0001
0100
0010
1000
0000
0001
0000
1000
0000
0100
0000
0010
0000
0001
0000
,
0010
0100
1000
0001
0100
0010
1000
0010
,
1000
0100
1000
0001
0100
0000
0010
0000
1000
0000
0100
0000
0010
0000
0001
0000
,
0010
0100
1000
0001
0100
0010
1000
0001
,
1000
0010
0100
0001
0010
0000
0100
0000
0010
0000
0001
0000
0100
0000
0010
0000
,
1000
0001
0100
0010
1000
0000
0001
0000
0100
0000
0010
0000
1000
0000
0001
0000
,
0010
0100
1000
0100
0010
0000
0001
0000
0100
0000
0010
0000
1000
0000
0100
0000
,
0010
0001
0100
0010
1000
0000
0100
0000
0010
0000
0001
0000
0010
0000
0001
0000
,
0100
0000
0010
1000
0100
0000
0010
0000
0001
0000
1000
0000
0100
0000
1000
0010
,
0100
0001
0100
0010
1000
0000
0100
0000
0010
0000
0001
0000
0100
0000
0010
0000
,
1000
0100
1000
0001
0010
0000
0100
0000
1000
0000
0010
0100
0001
0000
1000
0000
,
0100
0010
0001
1000
0010
0000
0100
0000
0001
0000
0010
0000
0100
0000
1000
0000
,
0010
0100
0001
1000
0100
0000
0010
0000
1010
0000
0100
0000
0001
0000
0100
0000
,
0010
1000
0100
0010
0001
0000
0100
0000
0101
0000
0010
0000
1000
0000
0100
0000
,
0010
0001
0100
0010
1000
0000
0100
0000
0110
0000
0001
0000
1000
0000
0100
0000
,
0010
0001
0100
0010
1000
0000
0100
0000
1000
0000
0010
0000
0100
0001
1000
0000
,
0100
0000
0010
0001
0100
0000
0010
0000
1000
0000
0100
0000
0010
0000
0001
0000
,
0100
0010
1000
0001
0100
0000
0010
0000
1000
0000
0100
0000
0010
0000
0001
0000
,
0100
0010
1000
0001
0100
0000
0010
0000
1000
0000
0100
0000
0010
0000
0001
0000
,
0100
0010
1000
0100
0010
0000
0001
0000
1000
0000
0010
0000
0100
0001
0010
0000
,
0100
0000
1000
0010
0100
0000
0001
0000
1000
0000
0100
0000
0010
0000
0001
0000
,
0100
0010
0100
0010
1000
0000
0010
0000
0100
0000
0001
0000
0100
0000
0010
0000
,
1000
0100
1000
0100
0010
0000
0001
0000
0100
0000
0010
0000
1000
0000
0100
0000
,
0010
0001
0100
0010
1000
0000
0001
0000
0100
0000
0010
0000
1000
0000
0100
0000
,
0010
0001
0100
0000
0010
1000
0100
0010
0001
0010
0100
1000
0010
0100
0001
0100
,
0010
1000
0100
0010
0001
0100
0010
1000
0001
0000
0000
0000
0100
0000
0000
0000
,
0010
1000
0010
0100
,
0001
0010
0001
1000
,
0010
0100
0001
0010
,
0001
0100
0010
1000
,
0010
0100
0001
0010
,
0001
0100
0000
1010
,
0001
0100
0010
1000
,
0010
0100
0101
0010
,
1000
0010
0100
0001
,
0010
0001
0100
0010
,
1000
0001
0100
0001
,
0010
0001
0100
0010
,
1000
0001
0010
0000
,
1001
0000
0101
0001
,
1000
0001
0100
0001
,
1000
0000
0000
0000
0000
0000
0001
0000
0000
0000
0000
0000
0002
0000
0000
0000
0000
0000
0000
0003
0000
0000
0000
0000
,
2000
0000
0000
0000
,
0000
0000
0000
0000
,
0000
0000
3000
0000
;

//---------------dance-single - ----------------
#NOTES:
     dance-single:
     :
     Medium:
     13:
     0.892,1.000,0.176,0.315,0.324,1734.000,53.000,95.000,129.000,0.000:
0000
0000
0000
0000
0000
0000
0000
0000
0000
0000
0000
0000
0000
0000
0000
0000
0000
0000
0000
0000
0000
0000
0000
0000
0000
0000
0000
0000
0000
0000
0000
0000
0000
0000
0000
0000
0000
0000
0000
0000
0000
0000
0000
0000
0000
0000
0000
0000
0000
0000
0000
0000
0000
0000
0000
0000
0000
0000
0000
MMMM
M000
M000
M000
M000
,
M000
M000
M000
M000
MMMM
000M
000M
000M
000M
000M
000M
000M
000M
MMMM
0000
0000
0000
0000
0000
0000
0000
0000
0000
0000
0000
0000
0000
0000
0000
M00M
M00M
M00M
M00M
M00M
M00M
M00M
M00M
M00M
MMMM
000M
000M
000M
000M
000M
000M
000M
000M
000M
0000
0000
0000
0000
0000
0000
0000
0000
0000
0000
0000
0000
0000
0000
0000
0000
,
0000
0MM0
0000
M00M
000M
000M
000M
000M
000M
000M
0MMM
000M
000M
000M
000M
000M
000M
M00M
0000
0MM0
0000
0000
0000
0000
0000
0000
0000
0000
0000
0000
0000
0000
MMMM
000M
000M
000M
000M
000M
000M
000M
000M
MMMM
M000
M000
M000
M000
M000
M000
M000
M000
MMMM
0000
0000
0000
0000
0000
0000
0000
0000
0000
0000
0000
0000
0000
,
00M0
00M0
00M0
00M0
00M0
00M0
00M0
00M0
00M0
00M0
00M0
00M0
00M0
00M0
00M0
00M0
00M0
00M0
00M0
0000
0000
0000
0000
0000
0000
0000
0000
0000
0000
0000
0000
0000
0000
0000
0000
0000
0000
0000
0000
0000
0000
0000
0000
0000
0000
0000
0000
0000
0000
0000
0000
0000
0000
0000
0000
0000
0000
0000
0000
0000
0000
0000
0000
0000
,
0001
0100
1000
0001
0010
1000
0001
0100
,
1000
0001
0010
1000
0001
0100
0010
1000
,
0001
0100
1000
0001
0010
1000
0001
0100
,
1000
0001
0010
1000
0100
0010
0100
1000
,
0001
0010
1000
0001
0100
1000
0001
0010
,
1000
0001
0100
1000
0001
0100
0010
1000
,
0001
0010
1000
0001
0100
1000
0001
0010
,
1000
0001
0100
1000
0001
0100
0010
1000
,
0001
0010
1000
0001
0100
1000
0001
0010
,
1000
0001
0100
1000
0001
0100
0010
1000
,
0100
0001
1000
0010
0001
1000
0100
0001
,
1000
0010
0001
0100
0010
1000
0100
0010
,
0001
0100
0010
1000
0010
0100
0001
1000
,
0100
0010
0001
0100
0010
0100
0001
0100
,
0001
0000
0000
0100
0000
0000
0010
0000
1000
0000
0000
0010
0000
0000
0100
0000
,
0100
1000
0001
0100
0020
0030
2000
3000
,
0001
0100
1000
0100
0001
0010
1000
0010
,
0001
0100
0010
1000
0100
0001
0100
1000
,
0010
0001
0010
1000
0100
0001
0100
0010
,
0100
1000
0010
0100
0010
1000
0001
0010
,
0100
1000
0100
0001
0100
1000
0010
0100
,
0001
0100
1000
0100
0010
0100
1000
0100
,
0010
0001
0100
0010
1000
0100
0001
0100
,
1000
0010
0100
0001
0010
0100
1000
0000
,
0001
0100
1000
0100
0001
0010
1000
0010
,
0001
0100
1000
0100
0001
0100
0010
1000
,
0001
0100
1000
0100
0010
1000
0001
0010
,
0001
1000
0010
0100
0010
1000
0001
0000
,
0001
0100
1000
0100
0010
1000
0100
0010
,
0001
0100
0010
1000
0001
0010
0100
0000
,
1000
0100
0001
1000
0010
0001
1000
0010
,
0100
0001
0010
0100
1000
0001
0100
0010
,
1000
1000
1000
0000
0001
0001
0001
0000
,
0100
0100
0100
0000
0010
0010
0010
0000
,
1000
0001
1000
0000
0010
0010
0010
0000
,
0100
0001
0100
0010
1000
0001
1000
0000
,
0001
1000
0100
0010
0001
1000
0001
0100
,
0001
1000
0001
0100
0001
0010
0001
1000
,
0001
0010
0001
1000
0001
0010
0001
1000
,
0010
1000
0100
0010
0001
0010
0001
0010
,
0100
1000
0100
1000
0100
1000
0001
0100
,
0001
0010
0001
0100
0001
1000
0001
0100
,
0001
1000
0100
0010
0001
1000
0001
0100
,
0001
1000
0001
0010
0001
1000
0001
0010
,
0001
1000
0001
0010
0001
1000
0010
0100
,
0010
1000
0010
0100
0001
1000
0100
0010
,
0100
1000
0100
0010
0001
0010
0100
1000
,
0001
1000
1001
0000
0000
0000
0000
0000
,
1010
0000
0010
1000
0010
0000
1000
0010
,
0000
0110
0101
0101
,
0001
0000
1000
0010
1000
0000
0010
0200
,
0000
0300
0101
0000
0011
0000
0101
0000
,
0100
0000
0010
1000
0010
0000
0100
0002
,
0000
0003
1010
1001
,
0110
0000
0001
1000
0001
0000
0010
0002
,
0000
1003
0110
1001
,
1001
0000
1000
0010
1000
0000
0010
0200
,
0000
0301
0011
1001
,
0100
0000
0001
0010
0001
0000
0100
0010
,
0000
1001
1010
1010
,
0001
0000
0001
0100
0010
0000
1000
0010
,
1000
1001
1010
1000
,
1000
0100
0000
0000
0010
0001
0000
0000
,
0010
0100
0000
1000
0000
0001
0100
0010
,
1000
0100
0010
0001
0010
0100
1000
0001
,
0100
0010
1000
0100
0010
0001
0100
1000
,
0100
0001
0100
0010
1000
0100
0010
0100
,
1000
0001
0100
0010
1000
0100
0010
0100
,
1000
0001
0010
0100
1000
0100
0010
0001
,
0100
0010
0100
0001
0010
0100
1000
0001
,
0100
0010
1000
0100
0010
0001
0010
0100
,
1000
0100
0010
0100
1000
0010
0100
0001
,
1000
0100
1000
0100
1000
0001
1000
0001
,
1000
0010
1000
0010
0100
0001
1000
0001
,
1000
0010
0100
0001
0100
0010
0100
0001
,
0101
0000
0100
0100
0100
0000
1010
0000
,
1000
0100
0010
0001
0010
0100
1000
0001
,
0100
0010
1000
0100
0010
0001
0010
1000
,
0010
0001
0100
0010
1000
0100
0010
0100
,
1000
0001
0100
0010
1000
0000
0010
0000
,
2000
0000
3020
0000
0230
0302
0000
2003
,
0000
3020
0230
0302
2003
3002
0023
0000
,
0230
0000
2300
0000
3002
0203
0000
0320
,
2030
0000
0000
0000
0000
0000
0000
3002
,
0023
0000
0230
0000
2300
0000
3020
0230
,
0000
0302
0000
2003
3200
0320
0032
0203
,
0320
0000
2030
0000
3002
0000
2003
3200
,
0000
0000
0320
0000
,
0032
0000
2003
0000
3020
0230
0000
0302
,
0000
0023
0230
0320
0032
2003
3200
0000
,
0320
0000
0032
0000
0203
0320
0000
2030
,
3200
0000
0000
0000
0000
0000
0000
0320
,
0032
0000
2003
0000
3020
0000
2030
3200
,
0000
0320
0000
0032
0203
0320
2030
3200
,
0320
0000
0032
0000
0203
0320
2030
3002
,
0000
0000
0000
0000
,
1003
0100
0010
0001
0100
0010
1000
0010
,
0100
0001
1000
0001
0010
0100
1000
0010
,
0100
0001
1000
0100
1000
0001
0010
0100
,
1000
0010
0100
0001
0100
0010
1000
0001
,
1000
0100
0010
0001
0100
0010
1000
0001
,
0010
0100
1000
0100
0010
0001
1000
0010
,
1000
0001
0010
0001
0100
0010
1000
0100
,
0010
0001
0100
0010
1000
0001
0100
0010
,
1001
1000
0010
0100
0001
0010
0001
1000
,
0010
0100
0001
1000
0100
0010
0001
0100
,
0010
0100
0001
1000
0001
0010
0100
1000
,
0010
0100
0001
1000
0100
1000
0001
0010
,
0001
0100
0010
1000
0001
0100
0001
0010
,
0100
1000
0010
0100
0001
1000
0100
0010
,
0001
1000
0010
1000
0100
0010
0001
0100
,
0010
1000
0001
0010
0100
0010
0001
1000
,
2001
0000
0000
0010
3000
0000
0000
0000
,
1002
0000
0000
0100
0003
0000
0000
0000
,
2001
0000
0000
0010
3000
0000
0000
0000
,
1002
0000
0103
0000
,
0002
2003
3002
2003
,
3020
0230
0320
1030
,
0001
0010
0001
0010
0001
0010
0001
0010
,
0001
0010
0100
1000
0000
0000
0000
0000
,
0001
0010
1000
0010
0001
0100
1000
0100
,
0001
0010
1000
0010
0001
0100
1000
0100
,
0001
0010
1000
0010
0001
0100
1000
0100
,
0001
0100
0010
1000
0110
0000
0101
0000
,
0101
0000
0001
0100
0010
0000
1000
0010
,
0100
0000
0001
0100
0010
1000
0100
0010
,
0012
0000
0003
0000
,
1000
0100
0010
0100
1000
0001
0100
1000
,
0100
0001
0100
0010
1000
0100
0001
0010
,
0100
1000
0100
0010
0001
0100
0010
1000
,
0100
0001
0100
1000
0010
0001
0010
1000
,
0100
0010
0001
0100
0010
1000
0001
0000
,
0001
0100
0001
0100
0010
0100
0010
0100
,
1000
0100
1000
0100
0001
0100
1000
0100
,
0020
0100
0001
0000
0032
0000
0000
0000
,
1003
0010
0100
0001
,
1000
0100
1000
0100
0010
0100
0010
0100
,
0000
0100
0000
0100
1000
0100
0010
0100
,
1000
0001
0100
0010
0100
1000
0100
0010
,
1000
0100
0010
0001
0010
0000
0100
1000
,
0100
0001
0100
1000
0010
0001
0010
1000
,
0100
0001
0100
1000
0010
0001
0010
1000
,
0100
0001
0100
1000
0010
0001
0010
1000
,
0100
0010
0100
0010
0100
0010
0001
0100
,
0001
0100
0001
0100
0010
0100
0010
0000
,
1000
0100
0001
0100
1000
0010
0001
0000
,
0001
0010
1000
0100
0001
0100
1000
0000
,
0001
0100
1000
0001
0010
1000
0001
0001
,
0100
1000
0100
0001
0010
0010
0100
0100
,
1000
0001
0100
0010
1000
0010
0100
0001
,
0011
0001
0101
0010
,
1010
0000
1001
0000
0011
0000
0001
0100
,
0010
0010
0010
0010
1000
1000
1000
1000
,
0010
0010
0100
0001
,
0010
0000
0010
0000
0100
1000
0000
0100
,
0000
0010
0001
1000
,
1001
0010
0100
0001
,
0010
0100
1000
0001
,
0100
1000
0100
0001
,
0010
1000
0010
0100
,
0001
0100
1000
0100
0001
0010
1000
0010
,
0001
0100
1000
0100
0001
0010
1000
0010
,
0001
0100
0010
1000
0100
0010
0001
0100
,
1000
0100
0001
0010
1000
0010
0001
0100
,
0001
0010
1000
0010
0100
0001
0010
0100
,
1000
0100
0010
0001
0100
0010
1000
0001
,
0100
0100
0010
0010
1000
0001
1000
0000
,
0101
0110
1100
1001
0101
0110
1010
1001
,
1000
0000
0000
0000
0000
0000
0000
0000
0100
0000
0000
0000
0000
0000
0000
0000
0010
0000
0000
0000
0000
0000
0000
0000
0001
0000
0000
0000
0000
0000
0000
0000
0100
0000
0000
0000
0000
0000
0000
0000
0010
0000
0000
0000
0000
0000
0000
0000
1000
0000
0000
0000
0000
0000
0000
0000
0000
0000
0001
0000
0000
0000
0000
0000
0000
0000
0000
0010
0000
0000
0000
0000
0000
0000
0000
0000
0000
0100
0000
0000
0000
0000
0000
0000
0000
0000
1000
0000
0000
0000
0000
0000
0000
0000
0000
0000
0001
0000
0000
0000
0000
0000
0000
0000
0000
0000
0000
0000
0010
0000
0000
0000
0000
0000
0000
0000
0000
0000
0000
0000
0100
0000
0000
0000
0000
0000
0000
0000
0000
0000
0000
0000
0000
0000
0000
0000
0000
0000
0000
0000
0000
0000
0000
0000
1000
0000
0000
0000
0000
0000
0000
0000
0000
0000
0000
0000
0000
0000
0000
0000
0000
0000
0000
0000
0000
0000
0000
0000
0010
0000
0000
0000
0000
0000
0000
0000
0000
0000
0000
0000
0100
0000
0000
0000
0000
0000
0000
0000
0000
0000
0000
0000
,
0001
0000
0000
1000
0000
0000
0010
0000
0100
0000
0000
0000
2002
0000
0000
0000
0000
0000
0000
0000
0000
0000
0000
0000
,
0000
0000
0000
0000
0000
0000
0000
0000
0000
0000
0000
0000
0000
0000
0000
3003
0000
0000
0000
0000
0000
0000
0000
0000
0000
0000
0000
0000
0000
0000
0000
0000
,
0000
0000
0000
0000
,
0000
0000
0000
0000
,
0000
0000
0000
0000
,
0000
0000
0000
0000
,
0000
0000
0000
0000
,
0000
0000
0000
0000
,
0000
0000
0000
0000
0000
0000
1001
0001
,
0100
0000
0010
1000
0000
1000
0010
0100
0001
0000
0000
0100
0010
0000
1000
0000
,
1010
0000
0100
0001
0000
0100
0010
1000
0100
0000
0000
0010
0001
0000
0100
0000
,
0010
0000
1000
0100
0000
0010
0001
0100
0010
0000
0000
1000
0010
0000
0100
0001
,
0100
0001
0000
1000
0100
0000
0010
0000
0100
0000
1000
0000
0001
0000
0100
0000
,
0010
0001
1000
0001
0100
0000
0010
0000
0001
0000
0100
0000
0010
0000
1000
0000
,
0100
0010
0100
0010
0100
0000
0010
0000
0001
0000
1000
0000
0010
0000
1000
0000
,
0001
0000
0100
0000
0010
0000
0100
0000
0001
0000
1000
0000
0001
1000
0001
1000
,
0010
0100
0001
0010
0100
1000
0010
0100
0001
0000
0100
0000
0010
0000
1000
0010
,
0100
0001
0100
0010
1000
0000
0100
0000
0010
0000
0001
0000
0100
0000
1000
0000
,
0100
0001
0010
0100
1000
0000
0100
0000
1000
0000
0010
0000
0001
0000
0010
0000
,
1000
0010
0100
0001
0100
0000
1000
0000
0100
0000
0010
0000
0100
0000
0001
0000
,
0010
0100
0001
0100
0010
0000
0001
0000
1000
0000
0100
0000
0010
0000
0001
0100
,
1000
0100
0010
1000
0100
0000
0010
0000
0001
0000
0100
0000
0010
0000
1000
0000
,
0001
0100
1000
0100
0010
0000
1000
0000
0100
0000
0010
0000
0001
0000
1000
0000
,
0001
0010
1000
0010
0001
0000
0100
0000
0001
0000
0010
0000
0100
0000
1000
0000
,
0010
1000
0001
1000
0100
0000
0010
0000
0001
0000
0010
0000
0100
0000
1000
0000
,
0100
0001
1000
0100
0001
0100
0010
1000
,
0001
0100
1000
0100
0010
0000
1000
0000
1000
0000
0010
0000
0001
0000
0010
0000
,
0100
0010
0001
0010
1000
0000
0100
0000
0001
0000
1000
0000
0010
0000
0001
0000
,
0010
0100
0001
1000
0100
0000
0001
0000
1000
0000
0010
0000
0100
0000
1000
0010
,
0100
0001
0100
0010
1000
0000
0100
0000
0010
0000
0001
0000
0100
0000
0010
0000
,
1000
0100
1000
0001
0010
0000
0100
0000
1000
0000
0010
0000
1000
0000
0010
0000
,
0100
0001
0100
0001
0100
0000
0000
0100
,
0010
0000
0000
0010
1000
0000
0000
1000
,
0002
0003
0000
0000
1000
0100
0010
0001
,
0010
0100
1000
0100
0010
0001
0010
0100
,
0010
0001
0100
0010
1000
0000
0001
0000
0100
0000
0010
0000
1000
0000
0100
0000
,
0010
0100
1000
0001
0100
0010
1000
0010
,
1000
0100
1000
0001
0100
0000
0010
0000
1000
0000
0100
0000
0010
0000
0001
0000
,
0010
0100
1000
0100
0010
0001
0010
0100
,
1000
0010
0100
0001
0010
0000
0100
0000
0010
0000
1000
0000
0100
0000
0010
0000
,
0001
0010
0100
1000
0001
0100
0010
0100
,
0010
0001
0100
0010
1000
0000
0001
0000
1000
0000
0100
0000
0010
0000
0001
0000
,
0010
0100
1000
0001
0100
0010
1000
0010
,
1000
0100
1000
0001
0100
0000
0010
0000
1000
0000
0100
0000
0010
0000
0001
0000
,
0010
0100
1000
0001
0100
0010
1000
0001
,
1000
0010
0100
0001
0010
0000
0100
0000
0010
0000
0001
0000
0100
0000
0010
0000
,
1000
0001
0100
0010
1000
0000
0001
0000
0100
0000
0010
0000
1000
0000
0001
0000
,
0010
0100
1000
0100
0010
0000
0001
0000
0100
0000
0010
0000
1000
0000
0100
0000
,
0010
0001
0100
0010
1000
0000
0100
0000
0010
0000
0001
0000
0010
0000
0001
0000
,
0100
0000
0010
1000
0100
0000
0010
0000
0001
0000
1000
0000
0100
0000
1000
0000
,
0100
0010
0001
0100
0010
1000
0100
0010
,
1000
0100
1000
0001
0010
0000
0100
0000
1000
0000
0010
0000
0001
0000
0010
0000
,
0100
0010
0001
1000
0100
0000
0001
0000
0010
0000
0100
0000
1000
0000
0001
0000
,
1000
0100
0001
0100
1000
0000
0001
0000
0100
0000
0010
0000
1000
0000
0001
0000
,
0010
1000
0010
0001
0100
0000
0010
0000
1000
0000
0100
0000
0001
0000
0100
0000
,
1000
0001
0010
1000
0010
0000
0100
0000
1000
0000
0001
0000
0010
0000
1000
0000
,
0010
0001
0100
0010
1000
0000
0010
0000
0100
0000
0001
0000
1000
0000
0100
0000
,
0001
0100
1000
0001
0100
0000
0010
0000
1000
0000
0100
0000
0010
0000
0100
0000
,
1000
0001
0010
1000
0010
0000
0001
0000
0100
0000
0010
0000
1000
0000
0100
0000
,
0001
0100
1000
0001
0100
0000
0010
0000
1000
0000
0100
0000
0001
0000
0100
0000
,
1000
0001
0010
1000
0010
0000
0001
0000
0100
0000
0010
0000
1000
0000
0100
0000
,
0001
0100
1000
0010
0100
0000
0001
0000
0010
0000
1000
0000
0010
0000
0001
0000
,
1000
0100
0001
0100
1000
0000
0010
0000
0100
0000
0001
0000
0100
0000
0010
0000
,
1000
0100
0001
0100
1000
0000
0010
0000
0100
0000
0001
0000
0100
0000
0010
0000
,
1000
0100
0001
0100
1000
0000
0010
0000
0100
0000
0001
0000
0100
0000
0010
0000
,
0001
0010
0100
1000
,
0100
0010
0001
0100
,
0010
1000
0010
0100
,
0001
0010
0001
1000
,
0010
0100
0001
0010
,
0001
0100
0010
1000
,
0010
0100
0001
0010
,
0001
0100
0000
1010
,
0001
0100
0010
1000
,
0010
0100
0101
0010
,
1000
0010
0100
0001
,
0010
0001
0100
0010
,
1000
0001
0100
0001
,
0010
0001
0100
0010
,
1000
0001
0010
0000
,
1001
0000
0101
0001
,
1000
0001
0100
0001
,
1000
0000
0000
0000
0000
0000
0001
0000
0000
0000
0000
0000
0002
0000
0000
0000
0000
0000
0000
0003
0000
0000
0000
0000
,
2000
0000
0000
0000
,
0000
0000
0000
0000
,
0000
0000
3000
0000
;

//---------------dance-single - ----------------
#NOTES:
     dance-single:
     :
     Easy:
     7:
     0.327,0.469,0.116,0.013,0.000,650.000,35.000,4.000,0.000,0.000:
0000
0000
0000
0000
,
0000
0000
0000
0000
,
0000
0000
0000
0000
,
0000
0000
0000
0000
,
1000
0000
0000
0001
0000
0000
0100
0000
,
0000
0010
0000
0000
1000
0000
0001
0000
,
0100
0000
0000
0010
0000
0000
1000
0000
,
0000
0001
0000
0000
0100
0000
0010
0000
,
1000
0000
0000
0001
0000
0000
0010
0000
,
0000
0100
0000
0000
1000
0000
0001
0000
,
0100
0000
0000
0010
0000
0000
1000
0000
,
0000
0001
0000
0000
0100
0000
0010
0000
,
1000
0000
0000
1000
0000
0000
0010
0000
,
0000
0010
0000
0000
0100
0000
0001
0000
,
0100
0000
0000
0100
0000
0000
0010
0000
,
0000
0010
0000
0000
1000
0000
0001
0000
,
0100
0000
0000
0100
0000
0000
0010
0000
,
0000
0010
0000
0000
1000
0000
0000
0000
,
0000
0000
0000
0000
,
0001
0000
0001
0000
,
1000
0001
1000
0010
,
0100
0001
0010
0001
,
0100
0010
1000
0001
,
0100
0010
1000
0001
,
0010
0010
0100
1000
,
0010
0010
0001
1000
,
0010
0100
0001
0010
,
0100
1000
0001
0000
,
0100
0010
1000
0010
,
0100
0001
0010
0100
,
1000
0001
0100
0010
,
1000
0001
0100
0000
,
0010
1000
0010
0100
,
0001
0010
0001
0100
,
0010
0010
1000
0001
,
0100
0010
1000
0001
,
1001
0010
0010
0000
,
0100
0100
0100
0000
,
0001
0000
1000
0000
,
0010
0000
0100
0000
,
0001
1000
0010
0100
,
0001
0010
0100
1000
,
0001
0000
0100
0000
,
0010
0000
0000
0000
,
1001
0001
0001
0001
,
0100
0100
0100
0100
,
0010
0010
0010
0010
,
1000
1000
1000
1000
,
0001
0010
0010
0010
,
0100
0100
0100
0100
,
1000
0001
0100
0010
,
1000
0000
0001
0000
,
1000
0001
1000
0001
,
0100
0010
1000
0000
,
0001
0100
1000
0100
,
0001
0100
0010
0000
,
1000
0001
0010
1000
,
0010
0001
0100
0010
,
1000
0001
0100
0000
,
0010
0000
0010
0000
,
1001
0010
0010
0100
,
0000
0010
0001
0100
,
0010
1000
0010
0100
,
0001
0010
0010
0000
,
0100
0100
0100
0000
,
0010
0010
0010
0000
,
1000
0000
0001
0000
,
1000
0000
0000
0000
,
1001
0010
0010
0000
,
0100
0001
0100
0010
,
1000
0001
0100
0010
,
1000
0001
0100
0010
,
1000
0100
0010
0001
,
0100
0010
1000
0010
,
0100
0000
0100
0000
,
0001
0000
0000
0000
,
1001
0001
0100
0000
,
0010
1000
0010
0100
,
0001
0001
0001
0000
,
1000
0001
0100
0000
,
1010
0010
0100
0000
,
0001
0010
0000
0000
,
0100
0100
0100
0000
,
0010
0000
0000
0000
,
1001
0000
0000
0000
,
1000
0000
0000
0000
,
0010
0000
0000
0000
,
0100
0000
0000
0000
,
0001
0000
0000
0000
,
1000
0000
0000
0000
,
0010
0000
0000
0000
,
0100
0000
0000
0000
,
0010
0000
0000
0000
,
0001
0000
0000
0000
,
1000
0000
0000
0000
,
0010
0000
0000
0000
,
0100
0000
0000
0000
,
0010
0000
0000
0000
,
0100
0000
0000
0000
,
0010
0000
0000
0000
,
0100
0000
0000
0000
,
1001
0000
0000
0000
,
1001
0000
0000
0000
,
0010
0000
0000
0000
,
1001
0000
0000
0000
,
0100
0000
0000
0000
,
0010
0000
0000
0000
,
0100
0000
0000
0000
,
1001
0000
0000
0000
,
1001
0000
0000
0000
,
0010
0000
0010
0000
,
0100
0000
0001
0000
,
1000
0000
0001
0000
,
0100
0000
1000
0000
,
0010
0000
0001
0000
,
0100
0000
0000
0000
,
1001
0000
0000
0000
,
1001
0000
0000
0000
,
1001
0000
0000
0000
,
0110
0000
0000
0000
,
0010
0010
0010
0100
,
0100
0001
0001
1000
,
1000
0001
0001
0100
,
0010
0000
0000
0000
,
1000
0001
0100
0010
,
1000
0100
0001
0100
,
1000
0010
0001
0010
,
1000
0100
0001
0000
,
1000
0010
0001
0010
,
1000
0100
0010
0001
,
0100
0010
1000
0010
,
0100
0000
0000
0000
,
1000
0100
1000
0100
,
0010
0001
0010
0001
,
0100
0010
0100
0010
,
1000
0100
0010
0000
,
0001
1000
0001
0000
,
0010
0100
0010
1000
,
0010
0000
0010
0000
,
0010
0000
0000
0000
,
0100
0001
0100
0010
,
1000
0010
0100
0001
,
0010
0001
0100
0010
,
1000
0010
0100
0000
,
0001
1000
0100
0001
,
0100
1000
0010
0100
,
0001
0000
0000
0000
,
1000
0000
0000
0000
,
1001
0001
0100
1000
,
0100
0000
0000
0000
,
1001
0000
0000
0100
,
0001
0000
0000
0000
,
1001
0000
0000
0000
,
0100
0001
0010
0001
,
0100
0100
0100
0000
,
0010
0000
0000
0000
,
1001
0000
0000
0000
,
0010
0000
0000
0000
,
1000
0000
0000
0000
,
0100
0000
0000
0000
,
0010
0000
0000
0000
,
0001
0000
0000
0000
,
1000
0000
0000
0000
,
0010
0000
0000
0000
,
0100
0000
0000
0000
,
0001
0000
0000
0000
,
0010
0000
0000
0000
,
1000
0000
0000
0000
,
1000
0001
1000
0001
,
1000
0001
1000
0001
,
1000
0001
1000
0001
,
1000
0001
0001
1000
,
1001
0000
1000
0001
,
0100
0010
1001
0000
,
0000
0000
0000
0000
,
0000
0000
0000
0000
,
0000
0000
0000
0000
,
0000
0000
0000
0000
,
0000
0000
0000
0000
,
0000
0000
0000
0000
,
0000
0000
0000
0000
,
0000
0000
0000
0000
,
1000
0000
0100
0000
0010
0000
0001
1000
,
0001
0000
0100
0000
0010
0000
1000
0001
,
1000
0000
0010
0000
0100
0000
0001
0010
,
0001
0100
0010
1000
,
0010
1000
0000
1010
,
0000
1001
0000
0010
,
0000
1000
0000
0001
,
1000
0000
0001
1000
,
0001
0100
0010
1000
,
0100
0010
0011
0001
,
0000
0010
1000
0010
,
0100
0001
0010
0010
,
0010
0001
0100
0010
,
1000
0001
0010
0010
,
0010
0100
1000
0001
,
0100
0000
0010
1000
,
0010
0100
0001
0010
,
0001
0100
0010
1000
,
0010
0100
0001
0010
,
0001
0100
0001
1000
,
0001
0001
0100
0010
,
0100
0100
0001
0010
,
0001
0102
0000
0000
,
0000
2000
0003
0000
,
0000
0000
3010
0100
,
0010
0010
1000
0001
,
1000
1000
0010
0100
,
0010
0010
1000
0001
,
1001
0000
0010
0100
,
0001
0001
0100
0010
,
1000
1000
0001
0100
,
0010
0010
1000
0001
,
1000
0000
1000
0100
,
0001
0100
1000
0010
,
0001
0000
0001
0100
,
1000
0001
0010
1000
,
0001
0000
1000
0010
,
0001
1000
0000
0001
,
0100
0000
0000
0000
,
0010
0000
0010
0000
,
0010
0000
1001
0000
,
0000
0000
1001
0000
,
0000
0000
1001
0000
,
0000
0000
1001
0000
,
0000
0000
1001
0000
,
0010
0000
1001
0000
,
1001
0000
0010
0010
,
0010
0020
0000
0000
,
0000
0030
0000
0000
1000
0000
0001
0000
,
0100
0010
1000
0100
,
0010
0001
0100
0010
,
1000
0100
0010
0001
,
0100
0000
0010
1000
,
0010
1000
0010
0100
,
0001
0010
0100
1000
,
0001
0100
0010
0000
,
0000
0000
1001
0000
,
0010
0000
0100
0000
,
0001
0000
1000
0000
,
0010
0000
0100
0000
,
0001
0000
0010
0000
,
0010
0000
0010
0000
,
0100
0000
0100
0000
,
0010
0000
1000
0000
,
0001
0000
0100
0000
,
0010
0000
1000
0000
,
0010
0000
0100
0000
,
0001
0000
1000
0000
,
0010
0000
0100
0000
,
0001
0000
1000
0000
,
0010
0000
0100
0000
,
0001
0000
0010
0000
,
0100
0000
1000
0000
,
2000
0000
0000
0000
,
0000
0000
0000
0000
,
3000
0000
0000
0000
;

//---------------dance-single - ----------------
#NOTES:
     dance-single:
     :
     Beginner:
     4:
     0.259,0.381,0.302,0.020,0.000,450.000,91.000,6.000,0.000,0.000:

0000
0000
0000
0000
,
0000
0000
0000
0000
,
0000
0000
0000
0000
,
0000
0000
0000
0000
,
1001
0000
0000
1001
,
0000
0000
1001
0000
,
0110
0000
0000
0110
,
0000
0000
0110
0000
,
0110
0000
0000
0110
,
0000
0000
0010
0000
,
1001
0000
0000
1001
,
0000
0000
0010
0000
,
1001
0000
0000
1001
,
0000
0000
0010
0000
,
0110
0000
0000
0110
,
0000
0000
0010
0000
,
1001
0000
0000
1001
,
0000
0000
0010
0000
,
0000
0000
0000
0000
,
1000
0000
0001
0000
,
0100
0000
0010
0000
,
1000
0000
0001
0000
,
0100
0100
0100
0000
,
0010
0000
1000
0000
,
1001
0000
0001
0000
,
0100
0100
0100
0000
,
0010
0000
1000
0000
,
0001
0001
0001
0000
,
0100
0100
0100
0000
,
0010
0010
0010
0000
,
1000
1000
1000
0000
,
0001
0000
1000
0000
,
1001
0000
0001
0000
,
0100
0100
0100
0000
,
0010
0010
0010
0000
,
1000
1000
1000
0000
,
1001
0000
0001
0000
,
0100
0000
0010
0000
,
1000
0000
0010
0000
,
0100
0000
0001
0000
,
0100
0000
0010
0000
,
1000
0000
0001
0000
,
0100
0000
0010
0000
,
1000
0000
0001
0000
,
1001
0000
0001
0000
,
1001
0000
0010
0000
,
0110
0000
0010
0000
,
0110
0000
1000
0000
,
1001
0000
0010
0000
,
1001
0000
0100
0000
,
1001
0000
0010
0000
,
1001
0000
0010
0000
,
0100
0100
0100
0000
,
0010
0000
1000
0000
,
0001
0001
0001
0000
,
0100
0000
0010
0000
,
1000
1000
1000
0000
,
0001
0000
0100
0000
,
0010
0000
1000
0000
,
0001
0000
1000
0000
,
1001
0000
0010
0000
,
0100
0000
0001
0001
,
0001
0000
1000
0000
,
0010
0000
0100
0000
,
0001
0000
1000
0000
,
0010
0000
0100
0100
,
0100
0000
0001
0000
,
0000
0000
0000
0000
,
1001
0000
0010
0000
,
0100
0000
0001
0001
,
0001
0000
1000
0000
,
0010
0010
0010
0000
,
1001
0000
0010
0000
,
0100
0000
0001
0001
,
0001
0000
0010
0000
,
0100
0000
1000
0000
,
1001
0000
0010
0000
,
0100
0000
0001
0001
,
0001
0000
0100
0000
,
0010
0010
0010
0000
,
1001
0000
0010
0000
,
0100
0000
0001
0001
,
0001
0000
1000
0000
,
0001
0000
1000
0000
,
1001
0000
0000
0000
,
0010
0000
0000
0000
,
0200
0300
0000
0000
,
0020
0030
0000
0000
,
0200
0300
0000
0000
,
0020
0030
0000
0000
,
2000
3000
0000
0000
,
0001
0000
0000
0000
,
1000
0000
0001
0000
,
0000
0000
0000
0000
,
0100
0000
0010
0000
,
0000
0000
0000
0000
,
0001
0000
1000
0000
,
0000
0000
0000
0000
,
0010
0000
0000
0000
,
0000
0000
0000
0000
,
1001
0000
0000
0000
,
1001
0000
0000
0000
,
0010
0000
0000
0000
,
1000
0000
0000
0000
,
0001
0000
0000
0000
,
0100
0000
0000
0000
,
0010
0000
0000
0000
,
1000
0000
0000
0000
,
1001
0000
0000
0000
,
0001
0000
0000
0000
,
0100
0000
0000
0000
,
0010
0000
0000
0000
,
1001
0000
0000
0000
,
0010
0000
0000
0000
,
0100
0000
0000
0000
,
0010
0000
0000
0000
,
0110
0000
0000
0000
,
0110
0000
0000
0000
,
1001
0000
0000
0000
,
1001
0000
0000
0000
,
0010
0010
0010
0000
,
0100
0000
0000
0000
,
0010
0010
0010
0000
,
1001
0000
0000
0000
,
1001
0000
0010
0000
,
0100
0000
0001
0000
,
1000
1000
1000
0000
,
0010
0000
0100
0000
,
0001
0001
0001
0000
,
0100
0000
0010
0000
,
1000
1000
1000
0000
,
0010
0000
0000
0000
,
0100
0100
0100
0000
,
0010
0000
1000
0000
,
0001
0001
0001
0000
,
1001
0000
0010
0000
,
0100
0100
0100
0000
,
0010
0000
1000
0000
,
0001
0000
0000
0000
,
0001
0000
0000
0000
,
1000
1000
1000
0000
,
0010
0010
0010
0000
,
1001
0000
0110
0000
,
0010
0010
0010
0000
,
0100
0100
0100
0000
,
0001
0001
0001
0000
,
1000
0000
0000
0000
,
0001
0000
1000
0000
,
1001
0000
0010
0000
,
0100
0000
0010
0000
,
0110
0000
0010
0000
,
0110
0000
0000
0000
,
0110
0000
0000
0000
,
1001
0000
0000
0000
,
1001
0000
1001
0000
,
1001
0000
1001
0000
,
0001
0001
0001
0000
,
0100
0000
0010
0000
,
1000
0000
0010
0000
,
0100
0000
0001
0000
,
1001
0000
0010
0000
,
0100
0000
0001
0000
,
0010
0000
0000
0000
,
0100
0000
0010
0000
,
1001
0000
0000
0000
,
0000
0000
0000
0000
,
1001
0000
0000
0000
,
0000
0000
0000
0000
,
1000
0000
0001
0000
,
0100
0000
0010
0000
,
1000
0000
0001
0000
,
1000
0000
1001
0000
,
0110
0000
1001
0000
,
0110
0000
1001
0000
,
0000
0000
0000
0000
,
0000
0000
0000
0000
,
0000
0000
0000
0000
,
0000
0000
0000
0000
,
0000
0000
0000
0000
,
0000
0000
0000
0000
,
0000
0000
0000
0000
,
0000
0000
0000
0000
,
0000
0000
0100
0000
,
0010
0000
1000
0000
,
0010
0000
0100
0000
,
0001
0000
0000
0010
,
0000
0000
0010
0000
,
0000
0000
0100
0000
,
0000
0000
1000
0000
,
0000
0000
0001
0000
,
0001
0000
0001
0000
,
0001
0000
1001
0000
,
0010
0000
0010
0000
,
0010
0000
0110
0000
,
0010
0000
0010
0000
,
1000
0000
0001
0000
,
1000
0000
0001
0000
,
0100
0000
0010
0010
,
0010
0000
1000
1000
,
1000
0000
0001
0000
,
0100
0000
0010
0000
,
1000
0000
0001
0001
,
0001
0000
0100
0000
,
0010
0000
1000
1000
,
1000
0000
0010
0000
,
0010
0000
0100
0000
,
0002
0000
1003
0000
,
0010
0000
0100
0100
,
0100
0000
1001
0000
,
1001
0000
0010
0010
,
0010
0000
0100
0100
,
0100
0000
0010
0010
,
0010
0000
1000
1000
,
1000
0000
0001
0000
,
0000
0000
1001
0000
,
0001
0000
0100
0100
,
0100
0000
1001
0000
,
0010
0000
0100
0100
,
0100
0000
1001
0000
,
0010
0000
0100
0100
,
0100
0000
0001
0001
,
0001
0000
1000
0000
,
0000
0000
1001
0000
,
0001
0000
1000
0000
,
0001
0000
1001
0000
,
0010
0000
1001
0000
,
0100
0000
1001
0000
,
0010
0000
0110
0000
,
0110
0000
0110
0000
,
0110
0000
1001
0000
,
0000
0000
1001
0000
,
0010
0000
1001
0000
,
0100
0000
1001
0000
,
0010
0000
1001
0000
,
0000
0000
1001
0000
,
0010
0000
0110
0000
,
1001
0000
0110
0000
,
0110
0000
1001
0000
,
0000
0000
1001
0000
,
0010
0000
1001
0000
,
0010
0000
1000
0000
,
0100
0000
0001
0000
,
0100
0000
1000
0000
,
0010
0000
0100
0000
,
0001
0000
0100
0000
,
0010
0000
1000
0000
,
0001
0000
0100
0000
,
0010
0000
0000
0000
,
1000
0000
0000
0000
,
0010
0000
0000
0000
,
0100
0000
0000
0000
,
0001
0000
0000
0000
,
0000
0000
0000
0000
,
1000
0000
0000
0000
,
0000
0000
0000
0000
,
0001
0000
0000
0000
;
