#TITLE:LIQUID RAIN;
#SUBTITLE:;
#ARTIST:PINK PONG;
#TITLETRANSLIT:;
#SUBTITLETRANSLIT:;
#ARTISTTRANSLIT:;
#CREDIT:;
#BANNER:;
#BACKGROUND:;
#LYRICSPATH:;
#CDTITLE:;
#MUSIC:LIQUID RAIN.mp3;
#OFFSET:1.196;
#SAMPLESTART:42.283;
#SAMPLELENGTH:12.000;
#SELECTABLE:YES;
#BPMS:0.000=138.000;
#STOPS:;
#BGCHANGES:;
// cache tags:
#FIRSTBEAT:4.000;
#LASTBEAT:179.500;
#SONGFILENAME:Songs/toune/liquid moon/liquid moon.sm;
#HASMUSIC:1;
#HASBANNER:0;
#MUSICLENGTH:78.950;
// end cache tags

//---------------iidx-single7 - liquid rain----------------
#NOTES:
     iidx-single7:
     liquid rain:
     Easy:
     3:
     0.337,0.398,0.076,0.000,0.266,180.000,6.000,0.000,0.000,0.000:  // measure 1
00000000
00000000
00000000
00000000
,  // measure 2
00100001
00000000
00000000
00001000
00000000
00000000
00000010
00000000
10000000
00000000
00000000
10000000
00000000
00000000
00000000
00000000
,  // measure 3
00100000
00000000
00000000
00001000
00000000
00000000
00000010
00000000
10000000
00000000
00000000
10000000
00000000
00000000
00000000
00000000
,  // measure 4
00000001
00001000
00000000
00001000
,  // measure 5
00000000
00001000
00000000
00001000
,  // measure 6
00000000
00001000
00000000
00001000
,  // measure 7
00000000
00000000
00000000
00000000
00001000
00000000
00000000
00000000
00000000
00001000
00001000
00000000
00001000
00000000
00000000
00000000
,  // measure 8
01000000
01000000
01001000
01000000
00000000
00000000
00001000
00000000
,  // measure 9
00000000
00001000
00000000
00001000
,  // measure 10
01000000
01000000
01001000
01000000
00000000
00000000
00001000
00000001
,  // measure 11
00000000
00000000
00000000
00000000
,  // measure 12
10000000
00001000
00000000
00001000
,  // measure 13
10000000
00001000
00000000
00001000
,  // measure 14
10000000
00001000
00000000
00001000
,  // measure 15
10000000
00000000
00000000
00000000
00001000
00000000
00000000
00000000
00000000
00001000
00001000
00000000
00001000
00000000
00000000
00000000
,  // measure 16
00100000
00000000
00000000
00001000
00000000
00000000
00000010
00000000
10000000
00000000
00000000
10000000
00000000
00000000
00000000
00000000
,  // measure 17
00100000
00000000
00000000
00001000
00000000
00000000
00000010
00000000
10000000
00000000
00000000
10000000
00000000
00000000
00000000
00000000
,  // measure 18
00000000
01000000
00000000
01000000
00000000
01000000
00000000
01000000
,  // measure 19
01000000
01000000
01000000
01000000
01000000
01000000
01000000
01000000
,  // measure 20
00010001
00000000
00000000
00000100
00000000
00000000
00000000
00000000
00010000
00000000
00000000
00000100
00000000
00000000
00000000
00000000
,  // measure 21
00010000
00000000
00000000
00000100
00000000
00000000
00000000
00000000
00010000
00000000
00000000
00000100
00000000
00000000
00000000
00000000
,  // measure 22
00010000
00000000
00000000
00000100
00000000
00000000
00000000
00000000
00010000
00000000
00000000
00000100
00000000
00000000
00000000
00000000
,  // measure 23
00010000
00000000
00000000
00000100
00000000
00000000
00000000
00000000
00010000
00000000
00000000
00000100
00000000
00000000
00000000
00000000
,  // measure 24
01000000
00000000
00000000
00010000
00000000
00000000
00000000
00000000
01000000
00000000
00000000
00010000
00000000
00000000
00000000
00000000
,  // measure 25
01000000
00000000
00000000
00010000
00000000
00000000
00000000
00000000
01000000
00000000
00000000
00010000
00000000
00000000
00000000
00000000
,  // measure 26
00000000
00100000
00000000
00100000
00000000
00100000
00000000
00100000
,  // measure 27
00100000
00100000
00100000
00100000
00100000
00100000
00100000
00100000
,  // measure 28
00001001
00000000
00000000
00000010
00000000
00000000
00000000
00000000
00001000
00000000
00000000
00000010
00000000
00000000
00000000
00000000
,  // measure 29
00010000
00000000
00000000
00000100
00000000
00000000
00000000
00000000
00010000
00000000
00000000
00000100
00000000
00000000
00000000
00000000
,  // measure 30
00100000
00000000
00000000
00001000
00000000
00000000
00000000
00000000
00100000
00000000
00000000
00001000
00000000
00000000
00000000
00000000
,  // measure 31
01000000
00000000
00000000
00010000
00000000
00000000
00000000
00000000
01000000
00000000
00000000
00010000
00000000
00000000
00000000
00000000
,  // measure 32
00100000
00000000
00000000
00001000
00000000
00000000
00000000
00000000
00100000
00000000
00000000
00001000
00000000
00000000
00000000
00000000
,  // measure 33
01000000
00000000
00000000
00010000
00000000
00000000
00000000
00000000
01000000
00000000
00000000
00010000
00000000
00000000
00000000
00000000
,  // measure 34
00100000
00100000
00100000
00100000
00100000
00100000
00100000
00100000
,  // measure 35
00100000
00100000
00100000
00100000
00000000
00000000
00000000
00000000
,  // measure 36
00000000
00000010
00000000
00000010
,  // measure 37
00000000
00000010
00000000
00000010
,  // measure 38
00000000
00000010
00000000
00000010
,  // measure 39
00000000
00000010
00000000
00000010
,  // measure 40
00100000
00100000
00100000
00100000
00000000
00000000
00000000
00000000
,  // measure 41
00000000
00000000
00000000
00000000
00000000
10000000
00000010
00000000
,  // measure 42
00010000
00000000
00000000
00000100
00000000
00000000
01000000
00000000
00010000
00000000
00000000
00000100
00000000
00000000
01000000
00000000
,  // measure 43
00010000
00000000
00000000
00000100
00000000
00000000
01000000
00000000
00010000
00000000
00000000
00000100
00000000
00000000
01000000
00000000
,  // measure 44
00010000
00000000
00000000
00000100
00000000
00000000
01000000
00000000
00010000
00000000
00000000
00000100
00000000
00000000
01000000
00000000
,  // measure 45
00010000
00000000
00000000
00001000
00000000
00000000
00000100
00000000
00100000
00000000
00000000
00100000
00000000
00000000
10000001
00000000
;

//---------------iidx-single7 - liquid rain----------------
#NOTES:
     iidx-single7:
     liquid rain:
     Hard:
     8:
     1.000,1.000,1.000,0.000,0.950,433.000,161.000,0.000,0.000,10.000:  // measure 1
00000000
00000000
00000000
00000000
,  // measure 2
00100001
00001000
00100000
00000100
00000000
00001000
00000010
00000000
00010000
00000000
00000000
00010000
00000000
00000000
01000000
00000000
,  // measure 3
00100000
00001000
10100000
00000100
10000000
00001000
10000010
00000000
10010000
00000000
10000000
00010000
10000000
00000000
11000000
00000000
,  // measure 4
10010001
00000000
00000000
00000100
10100000
00000000
00000100
00000000
10000000
00000010
00000000
00001000
10100000
00000000
01000000
00000000
,  // measure 5
10010000
00000000
00000000
00000100
10100000
00000000
00000100
00000000
10000000
00000010
00000000
00001000
10100000
00000000
01000000
00000000
,  // measure 6
10010000
00000000
00000000
00000100
10100000
00000000
00000100
00000000
10000000
00000010
00000000
00001000
10100000
00000000
01000000
00000000
,  // measure 7
10010000
00000000
00000000
00000100
10100000
00000000
00000100
00000000
10000000
00100010
00000001
00001000
10100000
00000000
01000000
00000000
,  // measure 8
10010000
00000100
00010000
00000000
10100100
00000000
00000100
00000000
10000000
00000010
00000000
00001000
10100000
00000000
01000000
00000000
,  // measure 9
10010000
00000000
00000000
00000100
10100000
00000000
00000100
00000000
10000000
00000010
00000000
00001000
10100000
00000000
01000000
00000000
,  // measure 10
10010000
00000100
00010000
00000000
10100100
00000000
00000100
00000000
10000000
00000010
00000000
00001000
10100000
00000000
01000001
00000000
,  // measure 11
10000000
00000000
00000000
00000000
00000000
00000000
00000000
00000000
00000000
00000000
00000000
00000000
00000000
00000000
00100000
00001000
00000010
00000000
00000000
00000000
00010000
00000000
00000000
00000000
00000000
00000000
00000100
00000000
01000000
00000000
00000000
00000000
,  // measure 12
10100000
00001000
00100000
00000100
10000001
00001000
00000010
00000000
10010000
00000000
00000000
00010000
10000001
00000000
01000000
00000000
,  // measure 13
10100000
00001000
00100000
00000100
10000001
00001000
00000010
00000000
10010000
00000000
00000000
00010000
10000001
00000000
01000000
00000000
,  // measure 14
10100000
00001000
00100000
00000100
10000001
00001000
00000010
00000000
10010000
00000000
00000000
00010000
10000001
00000000
01000000
00000000
,  // measure 15
10100000
00001000
00100000
00000100
10000001
00001000
00000010
00000000
10010000
00000001
00000001
00010000
10000001
00000000
01000000
00000000
,  // measure 16
01000010
00010000
01000000
00001000
00000011
00010000
00000100
00000000
00100010
00000000
00000000
00100000
00000011
00000000
10000000
00000000
,  // measure 17
01000010
00010000
01000000
00001000
00000011
00010000
00000100
00000000
00100010
00000000
00000000
00100000
00000011
00000000
10000000
00000000
,  // measure 18
10100000
00001000
00100001
00000100
10000000
00001000
00000011
00000000
10010000
00000000
00000001
00010000
10000000
00000000
01000001
00000000
,  // measure 19
10100001
00001000
00100001
00000100
10000001
00001000
00000011
00000000
10010001
00000000
00000001
00010000
10000001
00000000
01000001
00000000
,  // measure 20
10000101
00000000
00000000
00000010
10100000
00010000
00000100
00000000
10000100
00000000
00000000
00000010
10100000
00000000
00001000
00000000
,  // measure 21
10000100
00000000
00000000
00000010
10100000
00010000
00000100
00000000
10000100
00000000
00000000
00000010
10100000
00000000
00001000
00000000
,  // measure 22
10000100
00000000
00000000
00000010
10100000
00010000
00000100
00000000
10000100
00000000
00000000
00000010
10100000
00000000
00001000
00000000
,  // measure 23
10000100
00000000
00000000
00000010
10100000
00010000
00000100
00000000
10000100
00000000
00000000
00000010
10100000
00000000
00001000
00000000
,  // measure 24
00100010
00000000
00000000
00010000
00001010
10000000
00100000
00000000
00100010
00000000
00000000
00010000
00001010
00000000
01000000
00000000
,  // measure 25
00100010
00000000
00000000
00010000
00001010
10000000
00100000
00000000
00100010
00000000
00000000
00010000
00001010
00000000
01000000
00000000
,  // measure 26
00000100
00000000
00100000
00000010
00000000
00010000
00100100
00000000
00000100
00000000
00100000
00000010
00000000
00000000
00101000
00000000
,  // measure 27
10000100
00100000
10000000
00100010
10000000
00110000
10000100
00100000
10000100
00100000
10000000
00100010
10000000
00100000
10001000
00100000
,  // measure 28
10001001
00000000
00000000
00000010
10100000
00000000
00001000
00000000
10001000
00000000
00000000
00000010
10100000
00000000
00001000
00000000
,  // measure 29
10010000
00000000
00000000
00000100
10100000
00000000
00010000
00000000
10010000
00000000
00000000
00000100
10100000
00000000
00010000
00000000
,  // measure 30
01000010
00000000
00000000
00010000
00001010
00000000
01000000
00000000
01000010
00000000
00000000
00010000
00001010
00000000
01000000
00000000
,  // measure 31
10000010
00000000
00000000
00100000
00001010
00000000
10000000
00000000
10000010
00000000
00000000
00100000
00001010
00000000
10000000
00000000
,  // measure 32
10001000
00000000
00000000
00000010
10100000
00000000
00001000
00000000
10001000
00000000
00000000
00000010
10100000
00000000
00001000
00000000
,  // measure 33
10010000
00000000
00000000
00000100
10100000
00000000
00010000
00000000
10010000
00000000
00000000
00000100
10100000
00000000
00010000
00000000
,  // measure 34
00100001
00001000
00100000
00001000
00100001
00001000
00100000
00001000
00100001
00001000
00100000
00001000
00100001
00001000
00100000
00001000
,  // measure 35
00100001
00001000
00100000
00001000
00100001
00001000
00100000
00001000
00000010
00000000
00001000
00000000
00000000
00000100
01000001
00000000
,  // measure 36
00010000
00000000
00000000
00010000
10000000
00000000
00010000
00000000
00010000
00000000
00000000
00010000
10000000
00000001
00010000
00000000
,  // measure 37
00010000
00000000
00000000
00010000
10000000
00000000
00010001
00000000
00010000
00000000
00010000
00000000
10010000
00000000
00010000
00000001
,  // measure 38
00010000
00000000
00000000
00010000
10000000
00000000
00010000
00000000
00010001
00000000
00000000
00010000
10000000
00000000
00010000
00000000
,  // measure 39
00010000
00000000
00000000
00010000
10000000
00000000
00010000
00000000
00010000
00000000
00010000
00000000
10000100
00000001
00000000
00000000
,  // measure 40
01000000
00010000
01000000
00000000
00010000
00000000
00010000
00000000
00000000
00000000
00000000
00000000
00000000
00000000
00000000
00000000
,  // measure 41
00000000
00000000
00000000
00000000
00000000
10100000
00001010
00000000
,  // measure 42
10010000
00000100
00010000
00000010
10100000
00000000
01000000
00000000
10010000
00000100
00010000
00000010
10100000
00000000
01000000
00000000
,  // measure 43
10010000
00000100
00010000
00000010
10100000
00000000
01000000
00000000
10010000
00000100
00010000
00000010
10100000
00000000
01000000
00000000
,  // measure 44
10010000
00100100
10010000
00100010
10000000
00100000
10000001
00100000
10010000
00100100
10010000
00100010
10000000
00100000
10000000
00100000
,  // measure 45
10010001
00100100
10010000
00100010
10000001
00100000
10001000
00100010
10010101
00000000
00000000
00010100
00000000
00000000
10100001
00000000
;

//---------------iidx-single7 - liquid rain----------------
#NOTES:
     iidx-single7:
     liquid rain:
     Medium:
     6:
     0.684,0.853,0.152,0.000,0.887,366.000,12.000,0.000,0.000,0.000:  // measure 1
00000000
00000000
00000000
00000000
,  // measure 2
01000001
00010000
01000000
00000100
00000000
00001000
00000010
00000000
00010000
00000000
00000000
00010000
00000000
00000000
10000000
00000000
,  // measure 3
01000000
00010000
01000000
00000100
00000000
00001000
00000010
00000000
00010000
00000000
00000000
00010000
00000000
00000000
01000000
00000000
,  // measure 4
00010001
00000000
00000000
00000100
10000000
00000000
00000100
00000000
00000000
00000010
00000000
00001000
10000000
00000000
01000000
00000000
,  // measure 5
00010000
00000000
00000000
00000100
10000000
00000000
00000100
00000000
00000000
00000010
00000000
00001000
10000000
00000000
01000000
00000000
,  // measure 6
00010000
00000000
00000000
00000100
10000000
00000000
00000100
00000000
00000000
00000010
00000000
00001000
10000000
00000000
01000000
00000000
,  // measure 7
00010000
00000000
00000000
00000100
10000000
00000000
00000100
00000000
00000000
10000010
00000000
00001000
10000000
00000000
01000000
00000000
,  // measure 8
00100000
00001000
00100000
00000000
10001000
00000000
00001000
00000000
00000000
00000010
00000000
00001000
10000000
00000000
01000000
00000000
,  // measure 9
00010000
00000000
00000000
00000100
10000000
00000000
00000100
00000000
00000000
00000010
00000000
00001000
10000000
00000000
01000000
00000000
,  // measure 10
00010000
00000100
00010000
00000000
10000100
00000000
00000100
00000000
00000000
00000010
00000000
00001000
10000000
00000000
01000001
00000000
,  // measure 11
10000000
00000000
00000000
00000000
00000000
00000000
00000000
00100000
00000010
00000000
00010000
00000000
00000000
00000100
01000000
00000000
,  // measure 12
00100000
00001000
00100000
00000100
10000000
00001000
00000010
00000000
00010000
00000000
00000000
00010000
10000000
00000000
01000000
00000000
,  // measure 13
00100000
00001000
00100000
00000100
10000000
00001000
00000010
00000000
00010000
00000000
00000000
00010000
10000000
00000000
01000000
00000000
,  // measure 14
00100000
00001000
00100000
00000100
10000000
00001000
00000010
00000000
00010000
00000000
00000000
00010000
10000000
00000000
01000000
00000000
,  // measure 15
00100000
00001000
00100000
00000100
10000000
00001000
00000010
00000000
00010000
10000000
00000000
00010000
10000000
00000000
01000000
00000000
,  // measure 16
10000000
00100000
10000000
00010000
00000010
00100000
00001000
00000000
00100000
00000000
00000000
00100000
00000010
00000000
01000000
00000000
,  // measure 17
10000000
00100000
10000000
00010000
00000010
00100000
00001000
00000000
00100000
00000000
00000000
00100000
00000010
00000000
01000000
00000000
,  // measure 18
00000000
00001000
00000000
00001000
00000000
00001000
00000000
00001000
,  // measure 19
00001000
00100000
00001000
00100000
00001000
00100000
00001000
00100000
00001000
00100000
00001000
00100000
00001000
00100000
00001000
00100000
,  // measure 20
00001001
00000000
00000000
00000010
00000000
00100000
00001000
00000000
00001000
00000000
00000000
00000010
00000000
00000000
00100000
00000000
,  // measure 21
00001000
00000000
00000000
00000010
00000000
00100000
00001000
00000000
00001000
00000000
00000000
00000010
00000000
00000000
00100000
00000000
,  // measure 22
00100000
00000000
00000000
00001000
00000000
10000000
00100000
00000000
00100000
00000000
00000000
00001000
00000000
00000000
10000000
00000000
,  // measure 23
00100000
00000000
00000000
00001000
00000000
10000000
00100000
00000000
00100000
00000000
00000000
00001000
00000000
00000000
10000000
00000000
,  // measure 24
00010000
00000000
00000000
00000100
00000000
01000000
00010000
00000000
00010000
00000000
00000000
00000100
00000000
00000000
01000000
00000000
,  // measure 25
00010000
00000000
00000000
00000100
00000000
01000000
00010000
00000000
00010000
00000000
00000000
00000100
00000000
00000000
01000000
00000000
,  // measure 26
00000000
00100000
00000000
00100000
00000000
00100000
00000000
00100000
,  // measure 27
10000000
00100000
10000000
00100000
10000000
00100000
10000000
00100000
10000000
00100000
10000000
00100000
10000000
00100000
10000000
00100000
,  // measure 28
00001001
00000000
00000000
00000010
00000000
00000000
00001000
00000000
00001000
00000000
00000000
00000010
00000000
00000000
00001000
00000000
,  // measure 29
00010000
00000000
00000000
00000100
00000000
00000000
00010000
00000000
00010000
00000000
00000000
00000100
00000000
00000000
00010000
00000000
,  // measure 30
00100000
00000000
00000000
00001000
00000000
00000000
00100000
00000000
00100000
00000000
00000000
00001000
00000000
00000000
00100000
00000000
,  // measure 31
01000000
00000000
00000000
00010000
00000000
00000000
01000000
00000000
01000000
00000000
00000000
00010000
00000000
00000000
01000000
00000000
,  // measure 32
00001000
00000000
00000000
00000010
00000000
00000000
00001000
00000000
00001000
00000000
00000000
00000010
00000000
00000000
00001000
00000000
,  // measure 33
00010000
00000000
00000000
00000100
00000000
00000000
00010000
00000000
00010000
00000000
00000000
00000100
00000000
00000000
00010000
00000000
,  // measure 34
00100000
00001000
00100000
00001000
00100000
00001000
00100000
00001000
00100000
00001000
00100000
00001000
00100000
00001000
00100000
00001000
,  // measure 35
00100000
00001000
00100000
00001000
00100000
00001000
00100000
00001000
00000010
00000000
00001000
00000000
00000000
00000100
01000001
00000000
,  // measure 36
00000000
00000000
00000000
00000000
00000010
00000000
00000000
00000000
00000000
00000000
00000000
00000000
00000010
00000001
00000000
00000000
,  // measure 37
00000000
00000000
00000000
00000000
00000010
00000000
00000001
00000000
00000000
00000000
00000000
00000000
00000010
00000000
00000000
00000001
,  // measure 38
00000000
00000010
00000001
00000010
,  // measure 39
00000000
00000000
00000000
00000000
00000010
00000000
00000000
00000000
00000000
00000000
00000000
00000000
00000010
00000001
00000000
00000000
,  // measure 40
00100000
00001000
00100000
00000000
00001000
00000000
00001000
00000000
00000000
00000000
00000000
00000000
00000000
00000000
00000000
00000000
,  // measure 41
00000000
00000000
00000000
00000000
00000000
10000000
00000010
00000000
,  // measure 42
00010000
00000100
00010000
00000010
10000000
00000000
01000000
00000000
00010000
00000100
00010000
00000010
10000000
00000000
01000000
00000000
,  // measure 43
00010000
00000100
00010000
00000010
10000000
00000000
01000000
00000000
00010000
00000100
00010000
00000010
10000000
00000000
01000000
00000000
,  // measure 44
10000000
00100000
10000000
00100000
10000000
00100000
10000001
00100000
10000000
00100000
10000000
00100000
10000000
00100000
10000000
00100000
,  // measure 45
10000000
00100000
10000000
00100000
10000000
00100000
10000000
00100000
00000101
00000000
00000000
00000100
00000000
00000000
10000001
00000000
;
