#TITLE:Hometown Glory;
#SUBTITLE:(High Contrast Remix);
#ARTIST:ADELE;
#TITLETRANSLIT:;
#SUBTITLETRANSLIT:;
#ARTISTTRANSLIT:;
#CREDIT:;
#BANNER:;
#BACKGROUND:;
#LYRICSPATH:;
#CDTITLE:;
#MUSIC:Honetown Glory (High Contrast remix).mp3;
#OFFSET:0.000;
#SAMPLESTART:66.357;
#SAMPLELENGTH:5.000;
#SELECTABLE:YES;
#BPMS:0.000=90.420;
#STOPS:;
#BGCHANGES:;
// cache tags:
#FIRSTBEAT:4.000;
#LASTBEAT:130.000;
#SONGFILENAME:Songs/toune 5/HomeTown Glory (High Contrast Remix)/Homewotn Glory.sm;
#HASMUSIC:1;
#HASBANNER:0;
#MUSICLENGTH:85.995;
// end cache tags

//---------------dance-single - ----------------
#NOTES:
     dance-single:
     :
     Easy:
     1:
     0.209,0.169,0.000,0.000,0.000,126.000,0.000,0.000,0.000,0.000:
0000
0000
0000
0000
,
0010
1000
0001
0100
,
0010
1000
0001
0100
,
0010
1000
0001
0100
,
0010
1000
0001
0100
,
0010
1000
0001
0100
,
0010
1000
0001
1000
,
0010
0100
0001
1000
,
0010
0100
0001
0100
,
0010
1000
0010
0100
,
0001
1000
0010
0100
,
0010
0001
1000
0100
,
1000
0001
0100
0010
,
0100
0001
0100
0001
,
1000
0010
0100
0001
,
1000
0010
0100
0001
,
1000
0010
0100
0010
,
1000
0001
0100
0010
,
1000
0001
0100
0010
,
1000
0001
0100
0010
,
1000
0001
0100
0010
,
1000
0001
0100
0010
,
1000
0001
0100
0010
,
1000
0001
0100
0010
,
0100
0010
1000
0001
,
1000
0001
1000
0010
,
1000
0010
1000
0001
,
0100
0010
1000
0001
,
0100
0010
1000
0010
,
0100
0001
0010
0100
,
1000
0001
0100
0010
,
1000
0001
1000
0100
,
0010
0100
0000
0000
;

//---------------dance-single - Copied from----------------
#NOTES:
     dance-single:
     Copied from:
     Beginner:
     1:
     0.108,0.094,0.012,0.000,0.000,64.000,1.000,0.000,0.000,0.000:
0000
0000
0000
0000
,
0100
0000
1000
0000
,
0100
0000
1000
0000
,
0100
0000
0001
0000
,
1000
0000
0001
0000
,
0100
0000
0010
0000
,
0100
0000
0001
0000
,
1000
0000
0001
0000
,
0100
0000
0010
0000
,
1000
0000
0001
0000
,
0100
0000
0010
0000
,
0100
0000
0001
0000
,
1000
0000
0010
0000
,
0100
0000
0001
0000
,
0100
0000
0010
0000
,
1000
0000
0001
0000
,
0100
0000
0010
0000
,
0100
0000
1000
0000
,
0001
0000
0100
0000
,
0010
0000
0001
0000
,
0100
0000
1000
0000
,
0001
0000
0001
0000
,
1000
0000
1000
0000
,
0010
0000
0010
0000
,
0100
0000
0010
0000
,
0001
0000
0100
0000
,
0010
0000
1000
0000
,
0001
0000
0100
0000
,
0010
0000
1000
0000
,
0001
0000
0100
0000
,
0010
0000
1000
0000
,
0001
0000
0100
0000
,
0010
0000
1001
0000
;

//---------------dance-single - Medium----------------
#NOTES:
     dance-single:
     Medium:
     Medium:
     5:
     0.309,0.246,0.000,0.012,0.000,185.000,0.000,1.000,0.000,0.000:
0000
0000
0000
0000
,
0010
0000
1000
0001
1000
0000
0010
0100
,
0010
0000
0001
0000
1000
0000
0001
0100
,
0001
0000
0100
0010
0000
0100
0000
1000
,
0100
0000
0010
0000
0001
0100
0000
0010
,
0000
0100
1000
0000
0001
0000
0100
0010
,
0100
0000
0001
0000
1000
0100
1000
0000
,
0010
0000
0100
0001
0100
0000
0010
0000
,
0100
1000
0100
0000
0001
0000
1000
0100
,
1000
0000
0001
0100
0001
0000
0010
0100
,
0010
0000
0100
0010
0100
0000
1000
0100
,
1000
0100
0000
0010
0001
0010
0001
0000
,
0010
0100
0001
0000
0100
0001
0100
0000
,
0010
1000
0100
0000
0010
0001
0001
0000
,
0100
1000
1000
0000
0001
0100
0001
0000
,
0010
0100
0010
1000
0000
0100
1000
0100
,
0000
0010
0001
0010
0000
0100
0010
0100
,
0000
1000
0100
1000
0100
0000
0010
0001
,
0010
0000
0100
1000
0100
0000
0010
0001
,
0010
0000
0100
1000
0100
0000
0010
0100
,
0010
0000
0001
0100
0001
0000
0010
1000
,
0010
0000
0100
0001
0100
0000
0010
0100
,
0010
0000
1000
0100
1000
0000
0001
0100
,
0001
0000
0010
0100
0010
0000
1000
0001
,
0100
0000
0010
0100
0010
0000
0001
1000
,
0010
0000
0100
0010
1000
0000
0001
0100
,
0001
0000
0010
1000
0010
0000
0100
0001
,
0100
0000
0010
0100
0010
1000
0001
1000
,
0000
0001
0100
0001
0100
0000
0010
0100
,
0010
0100
0010
0100
0010
0000
1000
0000
,
0001
0000
0100
0010
1000
0001
0100
0000
,
0010
0100
1000
0001
0100
0001
0000
1000
,
0000
0001
0000
0200
0300
0000
0000
0000
;

//---------------dance-single - Heavy----------------
#NOTES:
     dance-single:
     Heavy:
     Hard:
     9:
     0.664,0.622,0.407,0.035,0.942,362.000,35.000,3.000,0.000,0.000:
0000
0000
0000
0000
,
0010
0100
0010
1000
0001
0100
0010
1000
0001
0100
0010
0100
0010
0100
0010
0100
,
0010
0001
0010
0001
0010
0001
0010
0001
0010
0001
1000
0100
1000
0001
0100
0010
,
1000
0001
1000
0010
0100
0001
1000
0010
0100
0001
1000
0010
0100
0001
0100
0010
,
0100
0000
1001
0000
0100
1000
0100
1000
0100
1000
0100
1000
0001
0100
0001
0100
,
0001
0100
0001
0100
0001
1000
0001
1000
0001
1000
0001
1000
0001
1000
0001
0100
,
0001
0010
0100
0010
1000
0001
0100
0010
0000
0010
0000
0100
0010
0000
0000
1001
,
0000
0000
0000
0000
0001
0000
0001
0100
0000
0010
0000
0100
0010
0000
0000
0000
,
1001
0000
0000
0000
1000
0000
0001
0100
0000
0010
0000
0100
0010
0100
0000
0000
,
0000
1001
0000
0000
0000
1000
0000
0100
1000
0100
0010
0001
0100
0001
0000
0101
,
0000
0001
0100
0010
1000
0001
1000
0001
1000
0000
0001
0000
0100
0010
0100
0000
,
0001
0000
1000
0000
0001
0100
0010
0000
1000
0000
0001
0000
0010
0100
1000
0100
,
2000
0000
0000
0000
3100
0000
0001
0000
1000
0100
1000
0000
0001
0000
0100
0010
,
0001
0000
0100
0000
1000
0000
0100
1000
0100
0000
0010
0000
1001
0000
0010
0100
,
0010
0000
0001
0000
1100
0000
0100
0001
0100
0010
0100
0000
1000
0000
0101
0000
,
0010
0100
0001
0000
1000
0000
0001
0000
0100
0010
0100
0000
1000
0000
0001
0000
,
0100
0010
0100
0000
1000
0000
0001
0000
0100
0001
0100
0001
0100
0010
0000
1001
,
0000
0001
1000
0001
0000
0100
0000
0011
0000
0100
1000
0100
0000
0010
0000
1001
,
0000
0001
1000
0001
1000
0000
0001
0000
1001
0000
0100
0010
0100
0000
1000
0000
,
0101
0000
0001
0001
0001
0000
0100
0000
0110
0000
0001
0100
0001
0000
0001
0000
,
1100
0000
0100
1000
0100
1000
0100
0000
0110
0000
0001
0100
0001
0100
0001
0000
,
1001
0000
0100
1000
0001
0100
0010
0100
0010
0000
0101
0000
0001
1000
0001
0100
,
0001
0000
0000
0000
1100
0000
0000
0000
1000
0000
0010
0000
0100
0000
0001
0000
1000
0000
0100
0000
1000
0000
0100
0000
1000
0001
1000
0001
1000
0001
1000
0001
,
1000
0001
1000
0000
0000
0000
0000
0000
2002
0000
0000
0000
0000
0000
3003
0000
0000
0000
0000
0000
0000
0000
0000
0000
1000
0000
0000
0000
0100
0000
0010
0000
,
1000
0000
1000
0000
0101
0000
1000
0001
0100
0000
0010
0000
1001
0000
0100
1000
,
0100
1000
0100
1000
0000
1001
0000
0100
0010
0100
0000
0010
0000
1001
0000
1000
,
0001
1000
0000
0001
0000
1100
0000
0100
0010
0001
0100
0000
0010
0000
1001
0000
,
0100
1000
0100
0000
0010
0000
1001
0000
0010
0100
0010
0000
1100
0000
0011
0000
,
0001
0100
0001
0100
0000
0010
0000
1001
0000
0010
0100
0010
0000
0001
0000
1100
,
0000
0001
1000
0001
1000
0000
0001
0000
0101
0000
0001
0100
0001
0000
1000
0000
,
1100
0000
0010
0100
0010
0100
0010
0100
0000
1001
0000
1000
0001
1000
0001
1000
,
0000
0011
0000
1000
0001
1000
0000
0010
0000
0100
0000
0001
0100
1000
0010
0100
,
0001
1000
0010
0100
0001
1000
0010
0100
0000
0000
0000
0000
0000
0000
0000
0000
;
