#TITLE:Lawn Wake IV;
#SUBTITLE:(Black);
#ARTIST:the flashbulb;
#TITLETRANSLIT:;
#SUBTITLETRANSLIT:;
#ARTISTTRANSLIT:;
#CREDIT:;
#BANNER:Lawn Wake IV (Black) - banner.png;
#BACKGROUND:Lawn Wake IV (Black) - bg.png;
#LYRICSPATH:;
#CDTITLE:pfx - icon.png;
#MUSIC:02 - The Flashbulb - Lawn Wake IV (Black).mp3;
#OFFSET:-0.011;
#SAMPLESTART:65.990;
#SAMPLELENGTH:12.000;
#SELECTABLE:YES;
#DISPLAYBPM:217.000:109.000;
#BPMS:0.000=108.500,32.000=217.000,84.000=108.600,86.000=217.200,101.000=108.600,102.000=217.200,104.000=108.600,106.000=217.200,114.000=240.000,115.000=281.001,116.000=301.060,118.000=299.999,120.000=66.020,121.000=217.001,189.000=108.601,190.000=217.201,194.500=197.241,197.000=155.001,199.000=217.041,419.000=27.260;
#STOPS:92.000=0.280
;
#BGCHANGES:;
// cache tags:
#FIRSTBEAT:0.000;
#LASTBEAT:421.000;
#SONGFILENAME:Songs/Community Keyboard Megapack - Volume 2/(pfx13AE) Lawn Wake IV (Black)/Lawn Wake IV (Black).sm;
#HASMUSIC:1;
#HASBANNER:1;
#MUSICLENGTH:148.965;
// end cache tags

//---------------dance-single - ----------------
#NOTES:
     dance-single:
     :
     Hard:
     12:
     1.000,1.000,0.255,0.752,1.000,952.000,38.000,112.000,0.000,0.000:
0001
0000
0000
0000
0000
0000
0000
0000
0000
0000
0000
0000
0000
0000
0000
0000
1000
0000
0000
0000
1000
0000
0000
0000
1000
0000
0000
0000
1000
0000
1000
0010
,
0100
0000
0000
0000
0100
0000
0000
0000
0100
0000
0010
0000
0100
0000
0000
0100
0010
0000
0000
0000
0010
0000
0000
0000
0010
0000
0000
0000
0010
0000
0000
0000
,
0001
0000
0000
0000
0000
0000
0000
0000
0000
0000
0000
0000
0000
0000
0000
0000
0100
0000
0000
0000
0100
0000
0000
0000
0100
0000
0000
0000
0100
0000
0100
0001
,
1000
0000
0000
0000
1000
0000
0000
0000
1000
0000
0001
0000
1000
0000
0000
1000
0001
0000
0000
0000
0001
0000
0000
0000
0001
0000
0000
0000
0001
0000
0000
0000
,
0010
0000
0000
0000
0000
0000
0000
0000
0000
0000
0000
0000
0000
0000
0000
0000
0001
0000
0000
0000
0001
0000
0000
0000
0001
0000
0000
0000
0001
0000
0001
0010
,
0100
0000
0000
0000
0100
0000
0000
0000
0100
0000
0010
0000
0100
0000
0000
0100
0010
0000
0000
0000
0010
0000
0000
0000
0010
0000
0000
0000
0010
0000
0000
0000
,
1000
0000
0000
0000
0000
0000
0000
0000
0000
0000
0000
0000
0000
0000
0000
0000
0010
0000
0000
0000
0010
0000
0000
0000
0010
0000
0000
0000
0010
0000
0010
0001
,
1000
0000
0000
0000
1000
0000
0000
0000
1000
0000
0001
0000
1000
0000
0000
1000
0001
0000
0000
0000
0001
0000
0000
0000
0001
0000
0000
0000
0000
0000
0000
0000
,
0110
0000
0000
0000
0000
0110
1001
0000
,
1000
0100
0010
0100
1000
0000
1000
0010
0100
0001
0010
0100
1000
0000
0010
0000
,
0200
0000
0000
0000
0301
0010
0001
0010
1100
0000
1100
0000
0001
0100
0001
0100
,
1010
0000
0000
1010
0000
0000
1010
0000
2100
0000
0000
0000
3100
0000
0010
0000
,
0011
0000
0001
0000
0001
0010
0100
1000
0020
0000
0000
0000
2030
0000
0000
0000
,
3020
0000
0000
0000
0000
0000
0030
0000
0000
1000
0000
0000
0100
0000
0000
0010
0000
0000
0001
0000
0000
0000
0000
0000
0000
0000
0000
0100
0000
0000
0000
0000
0000
0000
0000
0000
0001
0000
0000
0000
0010
0000
0000
0000
0100
0000
0000
0000
,
1000
0100
1000
0010
0000
1000
0100
1000
0010
0000
0200
0000
0000
0000
0000
0300
,
0010
0000
1000
0000
0010
0000
0100
0000
0001
0000
1000
0100
0010
0000
0001
0000
,
2100
0000
0000
0000
3010
0000
0100
0001
0100
0001
1000
0100
0010
0000
0001
0000
,
0101
0000
0000
0000
0000
0000
0000
0000
0101
0000
0000
0000
0000
0000
0000
0000
1000
0000
0000
0000
0000
0000
0000
0000
1000
0000
0000
0000
0010
0000
0000
0000
0100
0000
0000
0000
0001
0000
0000
0000
0020
0000
0000
0000
0000
0000
0000
0000
0000
0000
0000
0000
0000
0000
0000
0000
0000
0000
0000
0000
0000
0000
0000
0030
,
1001
0000
1000
0000
0010
0000
0010
0000
0100
0001
1000
0100
0010
0000
0010
0000
,
1100
0000
1000
0100
2000
0000
3000
0000
0110
0000
0010
0100
0020
0000
0030
0000
,
1000
0000
0100
0000
0011
0000
0100
1000
0010
0100
0001
0000
1001
0000
0000
0000
,
2000
0000
0000
0000
0000
0000
0000
0000
3020
0000
0000
0000
0000
0000
0000
0030
0101
0000
0000
0000
1000
0000
0010
0000
0101
0000
0000
0000
1000
0000
0010
0000
,
0101
0000
1000
0010
1002
0000
0013
0100
1001
0000
0000
0100
0000
1001
0000
0000
,
0110
0000
0000
0000
1001
0000
0100
0010
1001
0000
0100
0010
1001
0000
0100
0010
,
1001
0010
0100
1000
0101
0000
0000
0000
0101
0000
0000
0000
0101
0000
0001
0010
,
1200
0000
0000
0000
2300
0000
0000
0000
0000
0000
3100
0010
0001
1000
0100
0000
,
0020
0032
2003
0000
,
3200
0000
0000
0000
0000
0000
0000
0000
0310
0000
0000
0010
0000
0000
0010
0000
,
0000
0010
0000
0000
0020
0000
0000
0000
0000
0000
0000
0000
0000
0000
0000
0000
,
0000
0000
0000
0000
0000
0000
0000
0000
0000
0000
0000
0000
0000
0000
0000
0000
0000
0000
0000
0000
0000
0000
0000
0000
0000
0000
0000
0000
0000
0000
0000
0000
0000
0000
0000
0000
0000
0000
0000
0000
0000
0000
0000
0000
0000
0000
0000
0000
0000
0000
0000
0000
0000
0000
0000
0000
0000
0000
0000
0000
0000
0000
0000
0030
,
2002
0000
0000
0000
0000
0000
0000
3003
0100
0000
0000
0000
0100
0000
0010
0000
0100
0000
1000
0000
0100
0000
0000
0000
0000
0000
0000
0000
0001
0000
0000
0000
,
0001
0000
0000
0000
0100
0000
1000
0000
0100
0000
0010
0001
0010
0100
1000
0100
,
0011
0000
0000
0000
0001
0000
0001
1000
0001
0010
0001
0000
0000
0000
0100
0000
,
0100
0000
0000
0000
0010
0000
1000
0000
0010
0000
0100
0001
1000
0000
0010
0000
,
0101
0000
0000
0000
1000
0000
1000
0100
1000
0010
1000
0100
1000
0000
1000
0000
,
1000
0100
1000
0000
0100
0000
0010
0000
0010
0000
0010
0000
0010
0000
0010
0000
,
0002
0000
0000
0000
0013
0000
0010
0100
0010
0001
0010
0000
0000
0000
0100
0000
,
0100
1000
0100
1000
0001
0010
0100
1000
0001
0010
0100
1000
0001
0100
0010
1000
,
0001
0100
0010
1000
0200
0000
0000
0000
0000
0000
0000
0000
0000
0000
0000
0000
,
0000
0000
0000
0000
1300
0100
0010
0001
1000
0100
0010
0001
1000
0100
0010
0001
,
1000
0100
0010
0001
1000
0020
0000
0000
0000
0000
0000
0000
0130
0000
0100
0001
,
0010
0000
0010
0100
1000
0000
1000
0010
0000
0100
0001
0000
0001
0010
0000
0100
,
1000
0000
1000
0100
0020
0000
0000
0000
0000
0000
0000
0000
0032
0000
0000
0000
,
0000
2003
0000
3200
,
0000
0000
0000
0000
0320
0000
0000
0130
0001
0010
0100
1000
0001
0010
0100
1000
,
0001
0100
0010
1000
0100
0010
0001
0010
0100
1000
0010
0100
0001
0010
0100
1000
,
0001
0010
0100
1000
0200
0000
0000
0000
0000
0000
0000
0000
0000
0000
0000
0000
,
0000
0000
0000
0000
,
0320
0000
0000
0000
,
0000
0000
0000
0000
0000
0000
0031
0010
,
0100
0010
0001
0010
0100
1000
0010
0100
,
0001
0100
0010
0100
0001
0010
0100
1000
,
0010
1000
0100
1000
0010
0100
0001
0100
,
0010
0100
0001
0100
0010
0001
0010
0100
,
1000
0100
0010
0100
1000
0001
0100
0010
,
1000
0010
0100
0010
1000
0100
0010
0100
,
1000
0100
0010
0100
1000
0010
0100
0001
,
0010
0001
0100
0001
0010
0100
1000
1000
,
0100
0000
0010
0001
0010
0100
1000
0000
1000
0100
0010
0001
0010
0000
0100
1000
,
0100
0000
0100
1000
0100
0000
0100
0000
0010
0000
0000
0000
0001
0010
0001
0010
,
0100
1000
0100
1000
0010
0100
0001
0010
0100
1000
0100
0000
0010
0000
0010
0000
,
0001
0000
0001
0010
0100
0010
0001
0010
0100
0000
0100
0000
1000
0000
1000
0000
,
1000
0000
0100
0000
0010
0000
0001
0000
0000
0000
0000
0000
0001
0000
0000
0010
0000
0000
0001
0000
0000
0100
0000
0000
0010
0000
0000
0000
0000
0000
0010
0000
0000
0000
0000
0000
1000
0000
0000
0000
0000
0000
0010
0000
0000
0000
0000
0000
,
0100
0000
0001
0000
1000
0000
1000
0010
0100
0000
0100
0000
0001
0010
0100
0010
,
0001
1000
0100
1000
0001
0100
0010
0100
0001
0010
0100
1000
0010
0000
0100
0001
,
0100
0000
0100
0000
0010
0000
1000
0100
0010
0000
0001
0000
0200
0000
0000
0000
,
0000
0000
0000
0320
,
0000
0000
0000
1030
,
0001
0010
0100
0010
0001
0010
0100
1000
0010
0100
0001
0100
0010
1000
0100
0010
,
0001
0100
0010
1000
0200
0000
0000
0000
2300
0000
0000
0000
3200
0000
0000
0000
,
2300
0000
0000
0000
3001
0010
0100
1000
0100
0010
0001
0100
0020
0000
0000
0000
,
2030
0000
0000
0000
3010
0100
0001
1000
0100
0010
0100
1000
0020
0000
0230
0000
,
0302
0000
0013
0100
1000
0100
0010
0001
1000
0001
0010
0100
1000
0100
0010
0001
,
1000
0001
0010
0100
1000
0100
0010
0001
0100
0010
0100
0010
2000
0000
0000
0000
,
3100
0010
0001
0010
0100
0010
0100
1000
0100
0010
0001
0010
0200
0000
0000
0000
,
0310
0001
0010
0001
0010
0100
1000
0010
0100
0001
0010
0100
1000
0100
0010
0001
,
1000
0010
0100
0001
1000
0100
0010
0100
0010
0001
0010
0100
1000
0100
0010
0100
,
1000
0001
0010
0100
1000
0010
0100
0010
0100
0001
0100
0010
2000
0000
0000
0000
,
3200
0000
0000
0000
2300
0000
3200
0000
0320
0000
0000
0000
0031
0010
0100
1000
,
0001
1000
0100
0010
0001
0010
0100
1000
0020
0000
2030
0000
3200
0000
0000
0000
,
0320
0000
0000
0000
0031
1000
0001
0100
0001
0010
0001
0010
0200
0000
0000
0000
,
2300
0000
0000
0000
3200
0000
0320
0000
0130
1000
0100
0000
0020
0000
0000
0000
,
0230
2300
3002
0203
,
0000
0000
0000
0000
0320
0000
2030
0000
3020
0000
0230
0000
0301
0010
0100
0010
,
0001
1000
0100
0010
0001
0100
0010
0100
0001
1000
0010
0100
0001
1000
0100
1000
,
0001
1000
0100
0010
0001
1000
0010
0100
0001
0010
0001
0010
0200
0000
2300
0000
,
3200
0320
0032
0203
0320
0230
0302
2003
,
3002
0000
0203
0000
0310
1000
0100
1000
0001
1000
0100
0010
0100
1000
0010
1000
,
0100
0010
0100
0010
0001
0010
0100
1000
0001
0100
0010
1000
0001
0010
0100
1000
,
0100
0010
0100
1000
0010
0100
0001
1000
0100
0010
0100
0010
0002
0000
0000
0000
,
0013
0100
1000
0100
0010
0001
0010
0001
0100
0010
1000
0010
0200
0000
0000
0000
,
0301
1000
0001
1000
0010
0100
0001
1000
0010
0100
0001
1000
0001
0010
0100
1000
,
0001
0010
0100
1000
0001
0010
0100
1000
0100
0010
0001
1000
0020
0000
0000
0000
,
0230
0302
0023
0230
,
2300
0000
3020
0230
0302
0023
0230
0000
,
0000
0000
0000
0000
1300
0100
0010
0001
0200
0000
0320
0000
2030
0000
3200
0000
,
0320
0000
0032
0000
2003
0000
3200
0000
0320
0000
0230
0000
0000
0000
0310
0100
,
1000
0010
0100
0001
0010
0001
1000
0100
0010
0001
0100
0001
0010
0100
0010
0100
,
0010
0100
0010
0100
1000
0010
1000
0010
1000
0010
1000
0010
0100
0001
0100
0001
,
0100
0001
0100
0001
1000
0100
1000
0100
1000
0100
1000
0100
0020
0000
0000
0000
,
0030
0000
0000
0001
0010
0100
1000
0100
0010
0001
0010
0100
0010
0001
0010
0100
,
1000
0100
0010
0100
1000
0001
0010
0100
1000
0001
0010
0100
2000
0000
0000
0000
,
0000
0000
3002
2003
0000
3002
2003
0000
,
3002
0000
0000
0000
0000
0000
0000
0000
0000
0000
0000
0000
0000
0000
0000
0000
2003
0000
0000
0000
0000
0000
0000
0000
0000
0000
0000
0000
0000
0000
0000
0000
0000
0000
0000
0000
0000
0000
0000
0000
0000
0000
0000
0000
0000
0000
0000
3000
0110
0000
0000
0000
0000
0000
0000
0000
0000
0000
0000
0000
0000
0000
0000
0000
,
0000
0000
0000
2002
,
0000
3003
0000
0000
;
