#TITLE:Metroid Fusion Prologue Remake;
#SUBTITLE:;
#ARTIST:Tsu Ryu & Takeuchi Yuka + SpoOkyMagician;
#TITLETRANSLIT:;
#SUBTITLETRANSLIT:;
#ARTISTTRANSLIT:;
#CREDIT:;
#BANNER:../Banner.png;
#BACKGROUND:../BG.png;
#LYRICSPATH:;
#CDTITLE:../CDTitleSpooky.png;
#MUSIC:Metroid_Fusion_Prologue_Remake.ogg;
#OFFSET:-0.026;
#SAMPLESTART:44.444;
#SAMPLELENGTH:12.000;
#SELECTABLE:YES;
#BPMS:0.000=135.000;
#STOPS:;
#BGCHANGES:;
// cache tags:
#FIRSTBEAT:0.000;
#LASTBEAT:159.500;
#SONGFILENAME:Songs/Index Fusion - Part 2/Metroid Fusion Prologue Remake - [Spooky Magician]/chart.sm;
#HASMUSIC:1;
#HASBANNER:1;
#MUSICLENGTH:85.174;
// end cache tags

//---------------dance-single - ----------------
#NOTES:
     dance-single:
     :
     Challenge:
     9:
     0.486,0.421,0.000,0.340,0.546,261.000,0.000,29.000,0.000,0.000:

1000
0000
0000
0100
0000
0000
1000
0000
0000
0100
0000
0000
0010
0000
0100
0000
,
0001
0000
0010
0001
0000
0000
1000
0000
0000
0100
0000
1000
0100
0000
1000
0000
,
0001
0000
0010
0100
0000
0000
1000
0000
0000
1000
0000
0000
0001
0000
0100
0001
,
0010
0000
0100
1000
0000
0000
1000
0000
0000
0100
0000
0010
0100
0000
0010
0000
,
0001
0000
0000
1000
0000
0000
1000
0000
0000
0001
0000
0000
0001
0000
0001
0000
,
0010
0000
0000
0010
0000
0000
0100
0000
0000
1000
0000
1000
0100
0000
1000
0000
,
0100
0000
0000
1000
0000
0000
0100
0000
0000
0010
0000
0000
0001
0000
0010
0001
,
0100
0000
0000
0010
0000
0000
1000
0000
0000
0100
0000
1000
0100
0000
1000
0000
,
0200
0000
0000
0010
0000
0000
0302
0000
0000
0000
0000
0000
2003
0000
0000
3100
,
0000
0000
0020
0000
0000
0000
0130
0000
0000
0100
0000
1000
0100
0000
1000
0000
,
0200
0000
0000
1300
0000
0000
0002
0000
0000
0013
0000
0000
1000
0000
0010
0100
,
0000
0020
0000
0100
0000
0000
0000
0000
,
0130
0000
0000
0000
0000
0000
0100
0000
0000
0010
0000
0000
0100
0000
0010
0000
,
1000
0000
0000
1000
0000
0000
0001
0000
0010
0000
0001
0000
1000
0000
0000
0000
,
1000
0000
0000
0100
0000
0000
1000
0000
0000
0010
0000
0000
1000
0000
0001
0010
,
0100
0000
0000
0100
0000
0000
0010
0000
0001
0000
0100
0000
0001
0000
0000
0000
,
1000
0000
0000
0010
0000
0000
0100
0000
0000
0001
0000
0000
0010
0000
0100
0000
,
1000
0000
0000
1000
0000
0000
0001
0000
0010
0000
0001
0000
0010
0000
0000
0000
,
0001
0000
0000
1000
0000
0000
0001
0000
0000
0010
0000
0000
0100
0000
1000
0000
,
0100
0000
0000
0010
0000
0000
0100
0000
0000
1000
0000
0100
1000
0000
0001
0000
,
1000
0000
0000
0100
0000
0000
0010
0000
0000
0001
0000
0000
1000
0000
0100
0000
,
0010
0000
0000
0001
0000
0000
0010
0000
0000
0100
0000
1000
0100
0000
0010
0000
,
0002
0000
0000
1003
0000
0000
0100
0000
0000
0010
0000
0000
0001
0000
0010
0100
,
2000
0000
0000
3100
0000
0000
0010
0000
0000
0001
0000
0100
0010
0000
0100
0000
,
0002
0000
0000
1003
0000
0000
0100
0000
0000
0010
0000
0000
0001
0000
1000
0000
,
0200
0000
0000
1300
0000
0000
0001
0000
0000
0010
0000
0100
1000
0000
0010
0100
,
0020
0000
0000
1030
0000
0000
0001
0000
0000
0100
0000
0000
0010
0000
1000
0010
,
2000
0000
0000
3100
0000
0000
0010
0000
0000
0001
0000
0010
0100
0000
1000
0100
,
0020
0000
0000
0031
0000
0000
0010
0000
0000
0100
0000
0000
1000
0000
0010
0000
,
0200
0000
0000
0001
0300
0000
0010
0000
0000
0001
0000
0010
0100
0000
1000
0100
,
0010
0000
0000
0001
0000
0000
0001
0000
0000
0010
0000
0000
0001
0000
0010
0100
,
1000
0000
0000
0100
0000
0000
0010
0000
0000
0001
0000
0010
0001
0000
0100
0000
,
0002
0000
0003
0100
0000
0000
0020
0000
0030
0100
0000
0000
0020
0000
1030
0000
,
0010
0000
0200
0000
0300
0010
1000
0000
0001
0000
0001
0000
0000
0000
0000
0000
,
2000
0000
0000
3100
0000
0000
0020
0000
0000
0031
0000
0000
0010
0000
0001
1000
,
0001
0000
0020
0100
0030
0000
1000
0000
0100
0000
0100
0000
0000
0000
0000
0000
,
0020
0000
0030
0001
0000
0000
0200
0000
0000
0310
0000
0000
2000
0000
3100
0000
,
0010
0000
0001
0100
0000
0000
0001
0000
0001
0000
0001
0000
0000
0000
0000
0000
,
2000
0000
3000
0001
0000
0000
2000
0000
3000
0001
0000
0000
2000
0000
3001
1000
,
0001
0000
2000
0000
3000
0000
0000
0010
0100
0000
0100
0000
0100
0000
0010
0000
;
