#TITLE:Blondiegirl;
#SUBTITLE:Sim by Necro;
#ARTIST:Jenny Rom;
#TITLETRANSLIT:;
#SUBTITLETRANSLIT:;
#ARTISTTRANSLIT:;
#CREDIT:;
#BANNER:blondiegirl.png;
#BACKGROUND:blondiegirl-bg.png;
#LYRICSPATH:;
#CDTITLE:!necrotitle.png;
#MUSIC:blondiegirl.mp3;
#OFFSET:-0.064;
#SAMPLESTART:33.220;
#SAMPLELENGTH:12.000;
#SELECTABLE:YES;
#DISPLAYBPM:170.000;
#BPMS:0.000=170.000;
#STOPS:;
#BGCHANGES:;
// cache tags:
#FIRSTBEAT:16.000;
#LASTBEAT:222.000;
#SONGFILENAME:Songs/IzzySM Keyboard Mega Pack/blondiegirl/blondiegirl.sm;
#HASMUSIC:1;
#HASBANNER:1;
#MUSICLENGTH:79.722;
// end cache tags

//---------------dance-single - ----------------
#NOTES:
     dance-single:
     :
     Hard:
     10:
     0.788,1.000,0.891,0.176,0.401,355.000,71.000,14.000,0.000,1.000:
0000
0000
0000
0000
,
0000
0000
0000
0000
,
0000
0000
0000
0000
,
0000
0000
0000
0000
,
0110
0000
1001
0000
0101
1001
1010
0000
,
0101
0000
1001
0000
0110
0101
1010
0000
,
2001
0010
3001
0000
1002
0100
1003
0000
,
0110
0000
1001
0000
0220
2332
3003
0000
,
0001
0010
0001
2000
0000
0000
0000
0000
,
0000
0000
0010
0100
0010
0001
3010
0000
,
1000
0100
1000
0002
0000
0100
0010
0100
,
1000
0000
0103
0000
1001
0000
0000
0000
1000
0100
0010
0100
1000
0000
0000
0000
,
0001
0010
0100
2000
0000
0010
0100
0010
,
0001
0000
3010
0000
0001
0000
0000
0000
0001
0010
0100
0010
0001
0000
0000
0000
,
1000
0100
0010
0002
0000
0000
0000
0000
,
0000
0000
0000
0000
1000
0000
0100
0000
1000
0100
0010
0100
1003
0000
0000
0000
,
1010
0110
0101
0110
1010
0110
0101
0000
,
0000
0001
0000
1000
0100
1000
0100
0000
,
1010
0110
0101
0110
1010
0110
0101
0000
,
0000
0001
0000
0010
0100
0010
0100
0000
,
0011
0110
1001
0110
1010
0110
1001
0000
,
0000
0100
0000
0010
1000
0100
1000
0000
,
1001
0110
1010
0110
1001
0110
0101
0000
,
0001
0010
0101
1000
0100
1010
0001
0010
,
0100
0010
0100
0010
0100
0010
0100
1000
0100
0010
0001
0010
0001
0010
0001
0010
,
0100
0010
0100
0010
0100
0010
0001
0010
0100
1000
0100
1000
0100
1000
0100
1000
,
0100
0010
0001
0010
0100
0010
0100
0010
0100
0010
0100
0010
0100
1000
0100
0010
,
0001
0010
0001
0010
0001
0010
0001
0010
0001
0010
0001
0010
0001
0010
0100
1000
,
0100
0010
0100
0010
0100
0010
0100
0010
0100
0010
0100
0010
0100
0010
0100
0000
,
0000
0000
0001
0010
0001
0010
0001
0010
0001
0000
0000
0000
0000
0000
0000
0000
,
1001
1001
1001
0000
,
1001
1001
1001
0000
,
0001
0010
0001
0010
0001
0010
0001
0010
0001
0010
0001
0010
0001
0010
0001
0010
,
0100
1000
0100
1000
0100
1000
0100
1000
0100
1000
0100
1000
0100
1000
0100
1000
,
0000
1000
0001
0100
0010
0010
1000
0100
,
0000
0010
0000
0001
0000
0100
0010
0100
,
1000
0000
0100
0000
0110
0000
0000
1000
,
0000
0100
1000
0010
0110
0000
0000
0000
,
1000
0000
1000
0000
0010
0100
0010
1000
,
0000
0001
0100
0001
1000
0000
0000
0000
,
1010
0000
1001
0000
1010
0000
0000
0100
,
0000
0001
0100
0010
0100
0000
0000
0001
,
0000
1000
0100
1000
0010
0010
0100
0001
,
0000
1001
0000
0101
0000
0010
1000
0010
,
1010
0000
1001
0000
1010
0000
0000
0100
,
0000
0001
0100
0010
0100
0000
0000
0001
,
0000
1000
1000
1000
0010
0100
0000
0001
,
0000
0010
0010
0010
0100
1000
0000
0000
,
1001
0000
0011
0000
1001
0000
0000
0010
,
0000
1000
0010
0100
0010
0000
0000
1000
,
0000
0001
0010
0001
0100
0100
0010
1000
,
0000
1001
0000
1010
0000
0100
0001
0100
,
1001
0000
0011
0000
1001
0000
0000
0010
,
0000
1000
0010
0100
0010
0000
0000
0000
,
1000
0000
0001
0000
0010
0001
1000
0010
,
2000
3200
0320
0032
0003
0000
0000
0000
;
