#TITLE:Scream Aim Fire;
#SUBTITLE:Flash ^_^;
#ARTIST:Bullet for my Valentine;
#TITLETRANSLIT:;
#SUBTITLETRANSLIT:;
#ARTISTTRANSLIT:;
#CREDIT:;
#BANNER:screamaimfire-bn.bmp;
#BACKGROUND:screamaimfire-bg.bmp;
#LYRICSPATH:;
#CDTITLE:;
#MUSIC:101-bullet_for_my_valentine-scream_aim_fire.ogg;
#OFFSET:0.115;
#SAMPLESTART:29.441;
#SAMPLELENGTH:12.000;
#SELECTABLE:YES;
#BPMS:0.000=203.001,505.500=193.200,578.000=203.000,802.000=193.200;
#STOPS:;
#BGCHANGES:;
// cache tags:
#FIRSTBEAT:2.000;
#LASTBEAT:890.250;
#SONGFILENAME:Songs/SSSC PACK/[Flash] -  Scream Aim Fire v4/101-bullet_for_my_valentine-scream_aim_fire.sm;
#HASMUSIC:1;
#HASBANNER:1;
#MUSICLENGTH:105.000;
// end cache tags

//---------------dance-single - Flash----------------
#NOTES:
     dance-single:
     Flash:
     Challenge:
     13:
     1.000,1.000,1.000,1.000,1.000,1752.000,137.000,178.000,305.000,0.000:

0000
0000
0000
0000
0000
0000
0000
0000
1000
0100
1000
0100
1000
0100
0010
0001
,
1000
0001
1000
0001
0010
0001
0010
0001
1000
0001
1000
0001
0100
0001
0100
0001
,
1000
0001
0100
0010
1000
0M0M
0000
M0M0
0001
0000
0010
0000
0010
0000
0100
0000
,
1000
0000
1000
0000
0001
0100
0001
0000
1000
0010
1000
0000
0010
0000
0100
0000
,
0100
0000
0001
0000
1000
0000
0100
0000
0010
0001
0010
0000
0100
0000
1000
0000
,
0001
0100
0010
0000
1000
0010
0100
0000
0010
0100
0001
0000
1000
0000
0001
0000
,
2000
0000
0000
0000
0000
0000
0000
0000
0000
0000
0000
0000
0000
0000
0000
0000
0000
0000
0000
0000
0000
0000
3000
0000
0001
0000
0000
0010
0000
0000
0001
0000
0000
0010
0000
0000
0001
0000
0000
0010
0000
0000
0001
0000
0000
0010
0000
0000
,
0001
1000
0001
1000
0001
1000
0001
1000
0001
0100
0001
0100
0001
0100
0001
0100
,
0010
0100
0010
0100
0010
0100
0010
0100
0010
1000
0010
1000
0010
1000
0010
1000
,
0001
1000
0001
1000
0001
1000
0001
1000
0100
0010
0100
0010
0100
0010
0100
0010
,
0100
1000
0001
0100
0010
1000
0010
0100
0001
0000
1000
0000
1000
0000
0001
0000
,
0100
0000
0100
0000
0010
1000
0010
0000
0100
0010
0100
0000
0001
0000
0100
0000
,
1000
0000
0100
0000
0001
0000
1000
0000
0001
0000
0010
0000
0100
0010
0100
0000
,
0010
0000
0100
0000
1000
0100
1000
0000
0001
0100
0001
0000
0100
0000
0010
0000
,
2000
0000
0000
0000
0000
0000
0000
3000
0001
0100
0010
1000
0001
0100
0010
1000
,
0001
0010
0100
1000
0001
0010
0100
1000
0001
0100
0001
0100
0001
0100
0001
0100
,
0010
0100
0010
0100
0010
0100
0010
0100
0010
1000
0001
0100
0010
1000
0001
0100
,
0001
1000
0100
0010
0001
1000
0100
0010
0001
1000
0001
1000
0001
1000
0001
0010
,
0001
0100
0010
1000
0001
0100
0010
1000
00M2
0M00
0000
00M0
0000
M000
0000
0000
,
00M0
0000
0M00
0000
00M0
M000
0000
0000
00M0
0000
0000
0M00
0000
M0M0
0000
0M00
,
0000
0003
0000
0000
MMM0
0000
0000
0000
1000
0010
1000
0000
0010
0000
0100
0001
,
0100
0000
0001
0000
1000
0100
1000
0000
0100
0010
0100
0000
0010
0001
0010
0000
,
0001
0100
0001
1000
0010
1000
0100
0010
0001
0000
0010
0000
0001
0100
0010
0000
,
0100
0010
1000
0000
0001
0000
2000
0000
0000
3000
0001
0000
1000
0001
1000
0000
,
0001
0100
0001
0000
1000
0000
0020
0000
0000
0030
0100
0000
0001
0100
0001
0000
,
1000
0100
0010
0000
0001
0000
0020
0000
0000
0030
0100
0000
0010
0100
1000
0000
,
0400
0000
00M0
0000
0000
0000
000M
0000
M000
0000
0000
0000
2300
0000
0000
3000
0000
0000
0000
0000
1000
0000
0000
0000
0010
0000
0100
0000
0010
0000
0000
0000
,
0100
0000
0001
0000
0100
0000
0000
0000
0001
0000
0000
0000
2000
0000
0000
0000
0000
0000
0000
3000
0100
0000
0000
0000
0010
0000
0001
0000
0010
0000
0000
0000
,
0001
1000
0001
0000
1000
0000
0040
0000
0100
0000
0M00
0000
0100
0000
0M00
0000
,
0100
0M00
0130
0010
1000
1000
0001
0001
,
0010
0000
0000
0000
0010
0000
0000
0000
0100
0000
0000
0000
2200
0000
0000
0000
3000
0300
0000
0000
0100
0000
0000
0000
0010
0000
0001
0000
0100
0000
0000
0000
,
0010
1000
0001
0000
0100
0000
0002
0003
0000
0000
0001
0000
0100
0010
0100
0000
,
0010
1000
0010
0000
1000
0000
0002
0000
0000
0003
1000
0000
0100
0010
0001
0000
,
1000
0010
0100
0000
0001
0000
2000
0000
0000
3000
0010
0000
0001
0000
0010
0000
,
4000
0000
0000
0000
0000
0000
3002
0000
0000
0003
1000
0000
0001
1000
0010
0000
,
0100
0001
1000
0000
0100
0000
0020
0000
0000
0030
0001
0000
0010
0100
0010
0000
,
0100
1000
0100
0000
1000
0000
0004
0000
10M0
0000
M000
0000
10M0
0000
M000
0000
,
10M0
M000
1003
0010
0100
0100
0001
0001
,
1000
0000
0000
0000
1000
0000
0000
0000
0100
0000
0000
0000
0220
0000
0000
0030
0000
0000
0300
0000
0010
0000
0000
0000
0001
0000
0000
0000
0001
0000
0000
0000
,
1000
1000
0010
0001
0010
0010
1000
1000
,
0001
0000
0000
0000
0022
0000
0000
0000
0033
0000
0000
0000
0220
0000
0000
0000
0030
0300
0000
0000
0100
0000
0000
0000
1000
0000
0000
0000
1000
0000
0000
0000
,
0001
0001
0100
0010
2020
0000
0000
3030
,
0220
0000
0000
0000
0000
0030
0300
0000
0000
0000
0000
0000
0020
0000
0000
0000
0000
0000
0030
0000
1000
0000
0000
0000
0010
0000
0000
0000
0010
0000
0000
0000
,
0001
0001
0010
1000
0001
0001
0010
0010
,
0100
0000
0000
0000
2002
0000
0000
3003
0000
0000
0000
0000
0202
0000
0000
0003
0300
0000
0000
0000
0010
0000
0000
0000
1000
0000
0000
0000
1000
0000
0000
0000
,
0100
0000
0000
0000
0010
0000
0001
0000
1000
0000
0000
0000
0001
0000
0000
0000
2200
0000
0000
0000
0000
0000
0000
0000
0000
0000
0000
0000
3000
0300
0000
0000
,
0202
0000
0000
0000
0000
0000
0000
0003
0300
0000
0000
0000
2000
0000
0000
0000
0000
3000
0000
0000
0010
0000
0000
0000
0100
0000
0000
0000
0100
0000
0000
0000
,
0010
0010
1000
0001
0010
0010
0100
0100
,
1000
0000
0000
0000
0202
0000
0000
0003
0300
0000
0000
0000
2020
0000
0000
3030
0000
0000
0000
0000
0010
0000
0000
0000
0100
0000
0000
0000
0100
0000
0000
0000
,
0001
0000
0000
0000
0001
0000
0000
0000
0100
0000
0000
0000
0010
0000
0000
0000
2020
0000
0000
0000
0000
0000
0000
3030
0000
0000
0000
0000
0000
0000
0000
0000
,
2002
0000
0000
0000
0000
3003
0000
0000
0000
0000
0000
0000
0002
0000
0000
0000
0000
0003
0000
0000
1000
0000
0000
0000
0100
0000
0000
0000
0100
0000
0000
0000
,
0010
0010
1000
0010
0001
0001
0100
0100
,
0001
0000
0000
0000
2020
0000
0000
3030
0000
0000
0000
0000
0220
0000
0000
0030
0300
0000
0000
0000
0010
0000
0000
0000
1000
0000
0000
0000
0100
0000
0000
0000
,
0001
0000
0000
0000
0100
0000
0000
0000
1000
0000
0000
0000
0001
0000
0000
0000
0202
0000
0000
0000
0000
0000
0000
0000
0000
0000
0000
0003
0300
0000
0000
0000
,
2020
0000
0000
0000
0000
3030
0000
0000
0100
0000
0001
0000
0001
0000
1000
0000
,
0100
0000
0010
0000
0001
0010
0001
0000
0010
0100
0010
0000
0100
0000
1000
0000
,
0010
0000
0100
0000
0001
0000
1000
0000
0100
0000
0010
0000
0001
0010
0001
0000
,
1000
0000
0100
0000
1000
0010
1000
0000
0001
0100
0001
0000
1000
0000
0010
0000
,
0200
000M
0000
M000
0000
00M0
0300
0000
0001
1000
0001
1000
0001
1000
0001
1000
,
0001
0100
0010
1000
0001
0100
0010
1000
0001
0010
0001
0010
0001
0010
0001
0010
,
0001
1000
0100
0010
0001
1000
0100
0010
0001
0100
0001
0100
0001
0100
0001
0100
,
0010
1000
0010
1000
0001
0010
0100
1000
0001
1000
0010
0100
0010
1000
0100
0010
,
0001
1000
0100
0010
0001
1000
0010
0100
0001
0000
1000
0000
0100
0000
0010
0000
,
0001
0000
0010
0000
0001
0010
0001
0000
0010
0100
0010
0000
0100
0000
0001
0000
,
0100
0000
1000
0000
0001
0000
1000
0000
0010
0000
0100
0000
0010
0100
0010
0000
,
0100
0000
0001
0000
1000
0100
1000
0000
0100
0010
0001
0000
0010
0000
0001
0000
,
0020
M000
0000
000M
0000
0M00
0030
0000
0001
0010
0001
1000
0010
1000
0001
0100
,
0001
1000
0100
1000
0001
0010
0001
1000
0100
1000
0001
0100
0001
0100
0010
1000
,
0010
1000
0100
0010
0001
1000
0010
0100
0010
1000
0100
0010
0001
1000
0001
0010
,
0100
1000
0001
0100
0010
1000
0001
1000
0100
0010
0100
0010
0001
1000
0010
1000
,
0001
0100
0010
1000
0001
0100
0010
1000
0002
00M0
0000
0M00
0000
0000
M000
0000
,
00M0
0000
0M00
0000
M000
0000
0000
00M0
0000
0M00
0000
M000
0000
0M00
00M0
0000
,
0000
0000
0M00
0000
0000
0000
0000
0000
M000
0000
00M0
0003
0000
0000
0000
0000
1000
0000
0100
0000
0010
0000
0000
0000
0001
0000
0000
0000
1000
0000
0010
0000
,
0100
0000
0010
0000
0100
0001
0100
0000
0001
1000
0001
0000
1000
0100
1000
0000
,
0001
0000
0100
0000
0010
0000
1000
0000
0002
0000
0000
0003
0000
0000
0000
0000
1000
0000
0000
0000
0010
0000
0000
0000
0100
0000
0000
0000
0001
0000
0000
0000
,
1000
0001
1000
0000
0001
0000
0020
0000
0000
0030
0100
0000
1000
0001
0100
0000
,
0001
0100
0010
0000
1000
0000
0002
0000
0000
0003
1000
0000
0100
0010
0100
0000
,
0010
0001
1000
0000
0010
0000
0200
0000
0000
0000
0301
0000
0100
0000
1000
0000
,
0400
0000
0000
0000
0000
0000
0320
0000
0000
0030
1000
0000
0100
0010
0100
0000
,
0010
0001
1000
0000
0001
0000
2000
0000
0000
3000
0010
0000
0100
0001
0100
0000
,
0010
1000
0001
0000
1000
0000
0400
0000
M010
0000
00M0
0000
M010
0000
00M0
0000
,
M010
00M0
0310
0001
1000
1000
0010
0010
,
0100
0000
0100
0000
0001
0000
0002
0000
0000
0003
1000
0000
0100
0010
0100
0000
,
0010
0001
0010
0000
0001
0000
2000
0000
0000
3000
0010
0000
0100
0001
1000
0000
,
0001
0000
0010
0000
0100
0000
0000
0000
1000
0000
0000
0000
0200
0000
0000
0000
0000
0000
0000
0300
1000
0000
0000
0000
0001
0000
1000
0000
0010
0000
0000
0000
,
0100
0001
1000
0000
0001
0000
0020
0000
0000
0030
0001
0000
1000
0000
0010
0000
,
0400
0000
0000
0000
0000
0000
0320
0030
0000
0000
0010
0000
1000
0010
1000
0000
,
0001
0100
0001
0000
1000
0000
0200
0000
0000
0000
0310
0000
0001
1000
0001
0000
,
1000
0001
1000
0000
0001
0000
0400
0000
M010
0000
00M0
0000
M010
0000
00M0
0000
,
M010
00M0
M310
1000
0010
0010
0100
0100
,
0001
0000
0000
0000
0001
0000
0000
0000
1000
0000
0000
0000
0022
0000
0000
0033
0000
0000
0000
0000
0010
0000
0000
0000
0100
0000
0000
0000
0100
0000
0000
0000
,
1000
1000
0001
0100
0010
0010
0100
0100
,
0001
2020
3030
2002
3003
0001
0010
1000
,
0010
0000
0000
0000
0001
0000
0000
0000
1000
0000
0000
0000
0010
0000
0000
0000
0202
0000
0000
0000
0000
0000
0000
0000
0000
0000
0000
0003
0300
0000
0000
0000
,
0220
0000
0000
0000
0000
0000
0000
0030
0300
0000
0000
0000
2002
0000
0000
3003
0000
0000
0000
0000
0001
0000
0000
0000
0010
0000
0000
0000
0010
0000
0000
0000
,
0100
0100
1000
0001
0100
0100
0010
0010
,
0100
0000
0000
0000
2002
0000
0000
0000
3003
0000
0000
0000
0022
0000
0000
0033
0000
0000
0000
0000
0001
0000
0000
0000
0010
0000
0000
0000
1000
0000
0000
0000
,
0010
0000
0000
0000
0001
0000
1000
0000
0010
0000
0000
0000
1000
0000
0000
0000
0202
0000
0000
0000
0000
0000
0000
0000
0000
0000
0000
0003
0300
0000
0000
0000
,
2020
0000
0000
0000
0000
0000
0000
3030
0000
0000
0000
0000
0020
0000
0000
0000
0000
0030
0000
0000
0100
0000
0000
0000
0001
0000
0000
0000
0001
0000
0000
0000
,
0010
0010
1000
0010
0001
0001
1000
1000
,
0010
0000
0000
0000
0202
0000
0000
0000
0000
0003
0300
0000
2200
0000
0000
3000
0300
0000
0000
0000
0100
0000
0000
0000
0010
0000
0000
0000
0010
0000
0000
0000
,
0001
0000
0000
0000
0001
0000
0000
0000
1000
0000
0000
0000
0010
0000
0000
0000
2002
0000
0000
0000
0000
0000
0000
0000
0000
0000
0000
3003
0000
0000
0000
0000
,
2020
0000
0000
0000
3030
0000
0200
0000
0000
0300
0001
0000
0100
0000
1000
0000
,
0100
0100
0001
0001
1000
0100
0010
0010
,
0001
0000
0000
0000
2002
0000
0000
0000
3003
0000
0000
0000
0202
0000
0000
0000
0003
0300
0000
0000
0100
0000
0000
0000
0010
0000
0000
0000
0001
0000
0000
0000
,
0010
0000
0000
0000
1000
0000
0000
0000
0100
0000
0000
0000
0010
0000
0000
0000
2002
0000
0000
0000
0000
0000
0000
0000
0000
0000
0000
3003
0000
0000
0000
0000
,
0202
0000
0000
0000
0000
0000
0000
0000
0000
0000
0000
0003
0300
0000
0000
0000
0001
0000
0000
0000
0100
0000
0000
0000
1000
0000
0000
0000
0100
0000
0000
0000
,
0001
0000
0100
0000
0001
1000
0100
0000
1000
0100
0010
0000
0001
0000
0010
0000
,
1000
0000
0010
0000
0001
0000
1000
0000
0001
0000
0100
0000
0001
0100
0001
0000
,
1000
0000
0010
0000
0100
0001
0100
0000
0001
1000
0100
0000
1000
0000
0100
0000
,
0020
0M00
0000
000M
0M00
0000
M030
0000
0001
0010
0001
1000
0010
1000
0001
0100
,
0001
1000
0100
1000
0001
0010
0001
1000
0100
1000
0001
0100
0001
1000
0010
1000
,
0010
1000
0100
0010
0001
1000
0010
0100
0001
0100
0001
1000
0001
1000
0100
0010
,
0001
0010
0001
1000
0010
1000
0001
0100
0001
1000
0100
1000
0100
0010
0001
1000
,
0010
0100
0001
1000
0010
0100
0001
1000
0001
0000
0100
0000
0010
0000
1000
0000
,
0010
0000
0100
0000
0001
0100
0001
0000
1000
0100
0010
0000
0001
0000
0100
0000
,
1000
0000
0100
0000
0001
0000
1000
0000
0100
0000
0010
0000
0001
1000
0001
0000
,
1000
0000
0100
0000
1000
0100
0010
0000
0100
0010
0001
0000
1000
0000
0010
0000
,
0200
000M
0000
M000
0000
00M0
0300
0000
0001
0100
0010
1000
0001
0100
0010
1000
,
0001
0010
0100
1000
0001
0010
0100
1000
0001
1000
0001
0100
0001
1000
0001
0010
,
0100
0010
0100
1000
0001
1000
0001
0010
0100
1000
0010
0100
0001
0100
0010
1000
,
0010
0100
0001
1000
0010
1000
0100
0010
0001
1000
0001
1000
0010
1000
0010
0100
,
0001
1000
0001
0010
0100
1000
0001
0100
0020
000M
0M00
0000
000M
0000
M000
0000
,
0M00
0000
000M
0000
0M00
0000
000M
0000
0000
M000
0000
0M00
0000
000M
0000
0000
,
0M00
0000
M000
0000
M000
000M
0030
0000
1000
0010
0100
0000
0001
0000
1000
0100
,
0010
0000
0100
0000
1000
0100
0010
0000
0001
0100
0010
0000
1000
0001
1000
0000
,
0001
1000
0001
1000
0010
0000
0000
0000
0100
0000
0010
0000
1001
0000
0000
0000
,
1000
0101
0000
0001
0110
0000
0100
1010
,
0000
0010
1001
0000
1000
0110
0000
0100
,
0011
0000
0010
1001
0000
0100
2002
0000
,
0000
0000
3003
0MM0
M00M
1000
0011
0000
,
0010
1100
0000
0010
0101
0000
0001
1001
,
0000
1000
0110
0000
0010
0101
0000
1000
,
0011
0000
0100
1010
0000
0100
1001
0000
,
0002
00M0
0000
M000
0000
00M0
M003
0000
0200
00M0
0000
000M
0000
M000
000M
0000
,
0310
1001
0000
0100
0011
0000
0001
1100
,
0000
0010
1001
0000
0100
1010
0000
0001
,
1100
0000
1000
0011
0000
0001
1010
0000
,
0100
0000
0000
1001
0000
0000
0000
0000
0000
0001
0000
0000
0040
0000
0004
0000
0000
0000
0000
0000
0000
0000
0000
0000
,
0000
0033
0000
0100
0000
0000
1001
0000
0000
0000
0000
0000
1000
0000
0000
0101
0000
0000
0000
0000
0000
0001
0000
0000
,
0110
0000
0100
1010
0000
0001
1100
0000
,
0010
1001
0000
0100
1010
0000
0010
0101
,
0000
0000
0000
0000
0000
0000
0010
0000
0000
0000
0000
0000
2000
0000
0000
000M
0000
0000
0000
0000
0000
00M0
3000
0000
0200
0000
0000
000M
0000
0000
0000
0000
0000
M000
0000
0000
0000
0000
0000
00M0
0000
0000
M000
0000
0000
000M
0000
0000
,
0320
0000
M000
0000
0000
0000
0000
0000
0M00
0000
000M
0000
M000
0000
0000
0030
0002
0000
0M00
0000
0000
0000
00M0
0000
0000
0000
M000
0000
0000
0000
00M0
0003
,
2000
0000
0M00
0000
0000
0000
000M
0000
0000
0000
00M0
0000
0000
0000
0M00
3000
0020
0000
000M
0000
0000
0000
0M00
0000
0000
0000
M000
0000
0000
0000
000M
0000
,
0000
0000
0M00
0000
0000
0000
000M
0000
0000
0000
M000
0000
0000
0000
000M
0030
0200
0000
M000
0000
0000
0000
0000
0000
00M0
0000
0000
0000
000M
0000
0000
0000
,
M000
0000
00M0
0000
000M
0000
M300
0000
0001
0100
0001
0100
0010
1000
0010
1000
,
0001
0010
0001
0010
0100
1000
0100
1000
0001
0100
0001
0100
0010
1000
0100
0010
,
0001
1000
0010
0100
0001
1000
0001
1000
0200
00M0
0000
000M
0000
M000
0000
00M0
,
0000
0000
M000
0000
000M
0000
00M0
0000
2300
000M
0000
0000
0M00
0000
00M0
0000
,
000M
0000
00M0
0000
300M
0000
0100
0000
0010
0001
1000
0010
1000
0001
1000
0100
,
0010
0001
1000
0010
0100
0001
1000
0100
1000
0001
0010
0001
1000
0010
1000
0001
,
0100
0001
1000
0100
0010
0000
0002
0003
0000
0000
0001
0000
0100
0000
1000
0000
,
0200
0000
0000
0000
0000
0300
0002
0000
0000
0003
1000
0000
0100
0000
0001
0000
,
0200
0000
0000
0000
0300
0000
0020
0000
0000
0030
0001
0000
0010
0000
1000
0000
,
0010
0001
1000
0010
0001
0010
1000
0001
,
2000
0000
0000
0000
0000
0000
0000
0000
0000
0000
0000
0000
3000
0000
0000
0000
0000
0000
0010
0000
0000
0000
0000
0000
1000
0000
0100
0000
1000
0000
0100
0000
0000
0010
0000
0000
0001
0000
0000
0010
0000
0000
0100
0000
0000
1000
0000
0000
,
0001
0000
0000
0100
0000
0000
0010
0000
0000
1000
0000
0000
0010
0000
0000
0100
0000
0000
0001
0000
0000
1000
0000
0000
0001
0000
1000
0000
0001
0000
1000
0000
0000
0100
0000
0000
0010
0000
0000
0001
0000
0000
0010
0000
0000
0001
0000
0000
,
1000
0000
0000
0010
0000
0000
0100
0000
0000
0001
0000
0000
0010
0000
0000
0001
0000
0000
1000
0000
0000
0001
0000
0000
1000
0000
0000
0000
0010
0000
0000
0000
0001
0000
0000
0000
0010
0000
0000
0000
1000
0000
0000
0000
0001
0000
0000
0000
,
0010
0100
1000
0001
0100
0010
0100
0001
1000
0100
0010
0001
,
2000
0000
0000
0000
3004
4000
0000
0000
,
0000
0000
0000
0000
,
3003
0000
0000
0000
2020
0000
0000
3030
0000
0000
0000
0000
0202
0000
0000
0003
0300
0000
0000
0000
0001
0000
0000
0000
0010
0000
0000
0000
1000
0000
0000
0000
,
0010
0000
0001
0000
0100
0000
0010
0000
2002
0000
0000
0000
0000
3003
0000
0000
,
2200
0000
0000
0000
0000
0000
0000
0000
0000
0000
3000
0300
0020
0000
0000
0000
0000
0000
0030
0000
0001
0000
0000
0000
0100
0000
0000
0000
0100
0000
0000
0000
,
0010
0010
1000
0001
0010
0010
0100
0100
,
1000
0000
0000
0000
0202
0000
0000
0000
0003
0300
0000
0000
2020
0000
0000
3030
0000
0000
0000
0000
1000
0000
0000
0000
0001
0000
0000
0000
0010
0000
0000
0000
,
0100
0000
1000
0100
0010
0000
0001
0000
0022
0000
0000
0000
0000
0033
0000
0000
,
2002
0000
0000
3003
0000
0000
2000
0000
0000
3000
0010
0000
0100
0000
0100
0000
,
0001
0001
1000
0100
0010
0010
0001
0001
,
1000
0000
0000
0000
0220
0000
0000
0000
0030
0300
0000
0000
2020
0000
0000
0000
3030
0000
0000
0000
1000
0000
0000
0000
0010
0000
0000
0000
0100
0000
0000
0000
,
0001
0100
0010
1000
0022
0000
0000
0033
,
2002
0000
0000
0000
0000
0000
0000
3003
0000
0000
0000
0000
0002
0000
0000
0000
0000
0003
0000
0000
1000
0000
0000
0000
0010
0000
0000
0000
0010
0000
0000
0000
,
0100
0100
0001
1000
0100
0100
0010
0010
,
0001
0000
0000
0000
0022
0000
0000
0000
0033
0000
0000
0000
2200
0000
0000
0000
3000
0300
0000
0000
0100
0000
0000
0000
1000
0000
0000
0000
1000
0000
0000
0000
,
0001
0000
0001
0000
0100
0000
0010
0000
2020
0000
0000
0000
0000
3030
0000
0000
,
2002
0000
0000
0000
0000
0000
0000
0000
0000
0000
0000
3003
0000
0000
0000
0000
1000
0000
0000
0000
0100
0000
0000
0000
0010
0000
0000
0000
0001
0000
0000
0000
,
1000
0000
0010
0000
1000
0001
0100
0000
0010
1000
0001
0000
0010
0000
1000
0000
,
0010
0000
0001
0000
1000
0000
0010
0000
1000
0010
0100
0000
0010
0000
1000
0000
,
0100
0000
0010
0000
0001
0010
0001
0000
1000
0001
1000
0000
0010
0000
0100
0000
,
0002
0000
0000
M000
0000
0000
00M0
0000
0000
0000
0M00
0003
0000
0000
0000
0000
1000
0000
0100
0000
1000
0000
0100
0000
1000
0000
0100
0000
0010
0000
0001
0000
,
0010
0001
0010
0001
1000
0001
1000
0001
0100
0010
1000
0100
0010
0001
1000
0001
,
1000
0010
0100
0001
1000
0001
1000
0001
0010
0100
0010
0100
1000
0001
0100
0010
,
1000
0010
1000
0001
0010
0001
0100
0010
1000
0001
1000
0010
0100
0001
1000
0100
,
0010
0001
0100
0010
1000
0001
1000
0001
0010
0000
0100
0000
1000
0000
0001
0000
,
0100
0000
0010
0000
1000
0010
1000
0000
0010
0100
0001
0000
0100
0000
1000
0000
,
0100
0000
0001
0000
1000
0000
0100
0000
0010
0001
0010
0000
0001
0000
0010
0000
,
0100
0000
1000
0000
0001
0100
0010
0000
1000
0100
0010
0000
0001
0000
1000
0000
,
0002
0000
0000
0000
0000
0000
0003
0000
1000
0010
1000
0001
0100
0010
1000
0001
,
0010
0001
1000
0001
1000
0100
0010
0001
1000
0100
0010
0100
1000
0001
0100
0010
,
0100
0010
1000
0001
0010
0100
1000
0001
1000
0010
0100
0001
0100
0001
1000
0100
,
1000
0001
0010
0001
1000
0010
0100
0001
1000
0100
0010
0001
1000
0010
1000
0001
,
1000
0100
0010
0001
1000
0010
0100
0001
0200
000M
M000
0000
00M0
0000
0000
0000
,
000M
M000
0000
00M0
0000
0000
000M
0000
M000
0000
00M0
0000
000M
0000
00M0
0000
,
M000
M000
000M
00M0
M000
000M
000M
M000
,
00M0
000M
M000
00M0
000M
M000
00M0
000M
,
00M0
0000
M000
0000
000M
00M0
M000
0000
00M0
000M
0000
M000
0000
000M
0000
00M0
,
0000
M000
0000
M000
0000
000M
0000
0000
00M0
0000
M000
0000
00M0
0000
000M
0000
,
M000
00M0
000M
0000
00M0
0000
M000
0000
00M0
0000
000M
0000
M000
0000
0000
0000
,
000M
0000
M000
0000
00M0
0000
000M
0000
M000
0000
0000
0000
0310
1000
0010
1000
,
0002
0000
0000
0003
1000
0100
0110
0000
,
0010
1100
0000
0001
1001
0000
0001
1010
,
0000
1000
1010
0000
0010
0101
0000
0100
,
0110
0000
0000
0000
0000
0000
0000
0000
0010
0000
0000
0000
1001
0000
0000
0000
0000
0000
0000
0000
1000
0000
0000
0000
0220
0000
0000
0000
0000
0000
0000
0030
,
0300
M00M
0MM0
0000
0000
0010
1001
0000
,
0001
1010
0000
0100
1001
0000
1000
0011
,
0000
0001
0101
0000
1000
1010
0000
1000
,
0011
0000
0000
0000
0000
0000
0000
0000
0100
0000
0000
0000
1001
0000
0000
0000
0000
0000
0000
0000
1000
0000
0000
0000
0002
0000
0M00
0000
0000
0000
00M0
0003
,
2000
0000
0000
0M00
0000
0000
000M
0000
0000
00M0
0000
0000
0M00
0000
0000
0000
3020
0000
0000
000M
0000
0M00
0000
0000
M000
0000
0000
0000
000M
0030
M000
0000
,
0101
1001
0000
1100
0110
0000
0011
1001
,
0000
1010
0101
0000
0110
1010
0000
1001
,
1100
0000
0110
1001
0000
0101
0011
0000
,
1100
0000
0000
1100
0000
0000
0000
0000
0000
0100
0000
0000
0040
0000
0004
0000
0000
0000
0000
0000
0000
0000
0000
0000
,
0000
0033
0100
0000
1000
0000
0000
0000
0001
0000
1001
0000
0000
0000
1000
0000
,
0010
0000
0100
0110
0000
0010
1000
0000
,
0100
1100
0000
0010
0001
0000
1000
1001
,
0000
0000
0000
0000
0001
0000
0000
0000
0020
0000
0000
0000
M000
0000
000M
0000
0230
0000
0000
0000
M000
0000
0000
000M
0000
0000
0000
00M0
0000
M000
0000
000M
,
2300
0000
0000
00M0
0000
0000
000M
0000
0M00
0000
0000
0000
00M0
0000
0000
0000
3002
0000
0M00
0000
0000
00M0
0000
0000
M000
0000
0000
0000
00M0
0000
M000
0000
,
0203
0000
0000
00M0
0000
0000
0000
0000
000M
0000
0000
00M0
M000
0000
0000
0000
0310
1000
0010
0000
1000
0000
0100
0000
0010
0000
0001
0000
1000
0000
0010
0000
,
0100
0000
0001
0000
1000
0000
0100
0000
0010
0000
0001
0000
1000
0000
0010
0000
0100
0001
0100
0000
0010
0000
0100
0000
0001
0000
0010
0000
0100
0000
1000
0000
,
0001
0000
1000
0000
0010
0000
0100
0000
0001
0000
1000
0000
0100
0000
0010
0000
0002
0000
0000
0000
0000
0000
0000
0003
0000
0000
0000
0000
0000
0000
MMMM
0000
,
MMMM
0000
0MM0
0000
0MM0
0000
0MM0
0000
0000
0000
MMMM
0000
MM00
0000
MMM0
0000
MMM0
0000
MM00
0000
MMMM
0000
0000
0000
0MM0
M00M
0000
M00M
0MM0
M00M
0000
M00M
,
0000
0000
M00M
0MM0
M00M
0000
M00M
0000
M00M
0000
0000
0000
M00M
0MM0
M00M
0000
M00M
0000
M00M
0000
0000
0000
0000
0000
0000
0000
0000
0000
0000
0000
0000
0000
;
