#TITLE:CENSORED!!;
#SUBTITLE:;
#ARTIST:t+pazolite;
#TITLETRANSLIT:;
#SUBTITLETRANSLIT:;
#ARTISTTRANSLIT:;
#CREDIT:;
#BANNER:Toographic4u.gif;
#BACKGROUND:../BG.png;
#LYRICSPATH:;
#CDTITLE:../CDTitle_Avexian.png;
#MUSIC:t+pazolite - CENSORED!!.ogg;
#OFFSET:-0.113;
#SAMPLESTART:59.805;
#SAMPLELENGTH:20.000;
#SELECTABLE:YES;
#BPMS:0.000=194.983,4.000=194.989,5.000=195.003,8.000=194.989,9.000=195.003,12.000=194.989,13.000=195.003,17.000=194.989,18.000=195.003,21.000=194.989,22.000=195.003,25.000=194.989,26.000=195.003,30.000=194.989,31.000=195.003,34.000=194.989,35.000=195.003,38.000=194.989,39.000=195.003,43.000=194.989,44.000=195.003,47.000=194.989,48.000=195.003,51.000=194.989,52.000=195.003,56.000=194.989,57.000=195.003,60.000=194.989,61.000=195.003,64.000=194.989,65.000=195.003,69.000=194.989,70.000=195.003,73.000=194.989,74.000=195.003,77.000=194.989,78.000=195.003,81.000=194.989,82.000=195.003,86.000=194.989,87.000=195.003,90.000=194.989,91.000=195.003,94.000=194.989,95.000=195.003,99.000=194.989,100.000=195.003,103.000=194.989,104.000=195.003,107.000=194.989,108.000=195.003,112.000=194.989,113.000=195.003,116.000=194.989,117.000=195.003,120.000=194.989,121.000=195.003,125.000=194.989,126.000=195.003,129.000=194.989,130.000=195.003,133.000=194.989,134.000=195.003,138.000=194.989,139.000=195.003,142.000=194.989,143.000=195.003,146.000=194.989,147.000=195.003,151.000=194.989,152.000=195.003,155.000=194.989,156.000=195.003,159.000=194.989,160.000=195.003,163.000=194.989,164.000=195.003,168.000=194.989,169.000=195.003,172.000=194.989,173.000=195.003,176.000=194.989,177.000=195.003,181.000=194.989,182.000=195.003,185.000=194.989,186.000=195.003,189.000=194.989,190.000=195.003,194.000=194.989,195.000=195.003,198.000=194.989,199.000=195.003,202.000=194.989,203.000=195.003,207.000=194.989,208.000=195.003,211.000=194.989,212.000=195.003,215.000=194.989,216.000=195.003,219.000=194.989,220.000=195.003,224.000=194.989,225.000=195.003,228.000=194.989,229.000=195.003,232.000=194.989,233.000=195.003,237.000=194.989,238.000=195.003,241.000=194.989,242.000=195.003,245.000=194.989,246.000=195.003,250.000=194.989,251.000=195.003,254.000=194.989,255.000=195.003,258.000=194.989,259.000=195.003,263.000=194.989,264.000=195.003,267.000=194.989,268.000=195.003,271.000=194.989,272.000=195.003,276.000=194.989,277.000=195.003,280.000=194.989,281.000=195.003,284.000=194.989,285.000=195.003,289.000=194.989,290.000=195.003,293.000=194.989,294.000=195.003,297.000=194.989,298.000=195.003,302.000=194.989,303.000=195.003,306.000=194.989,307.000=195.003,310.000=194.989,311.000=195.003,314.000=194.989,315.000=195.003,318.000=194.989,319.000=195.003,323.000=194.989,324.000=195.003,327.000=194.989,328.000=195.003,331.000=194.989,332.000=195.003,336.000=194.989,337.000=195.003,340.000=194.989,341.000=195.003,344.000=194.989,345.000=195.003,349.000=194.989,350.000=195.003,353.000=194.989,354.000=195.003,357.000=194.989,358.000=195.003,362.000=194.989,363.000=195.003,366.000=194.989,367.000=195.003,370.000=194.989,371.000=195.003,375.000=194.989,376.000=195.003;
#STOPS:;
#BGCHANGES:;
// cache tags:
#FIRSTBEAT:2.000;
#LASTBEAT:375.563;
#SONGFILENAME:Songs/Index Gradation/CENSORED - [Avexian]/Censored.sm;
#HASMUSIC:1;
#HASBANNER:1;
#MUSICLENGTH:116.958;
// end cache tags

//---------------dance-single - ----------------
#NOTES:
     dance-single:
     :
     Challenge:
     20:
     1.000,1.000,0.787,0.231,1.000,969.000,92.000,27.000,0.000,2.000:

0000
0000
0000
0000
0001
1000
0100
0010
,
0100
0000
1000
0000
0001
0000
1000
0100
0010
0000
0000
0000
0001
0000
0000
0000
,
1000
0000
0100
0000
1000
0010
1000
0001
,
0010
0001
0100
0010
1000
0000
0001
0000
,
0010
0000
0000
0000
0000
0000
0001
0010
0100
0000
1000
0000
0010
0000
1000
0000
,
0001
0000
0010
0000
0001
0000
1000
0100
0010
0000
0001
0000
0010
0000
0100
0000
,
1000
0000
0100
0000
0010
0100
0010
0001
,
0100
0000
0001
0000
0010
0000
0100
1000
0100
0000
1000
0000
0001
0000
0100
0000
,
0002
0000
1003
0000
1100
0000
0001
0100
,
0000
0010
0000
0000
1000
0000
0100
0000
1000
0000
0000
0010
0000
0000
0100
0000
,
0000
0001
0000
0000
0100
0000
0010
0000
1000
0000
0000
1000
0000
0000
0100
0000
,
0000
1000
0000
0000
0001
0000
0100
0000
0010
0000
0000
1000
0000
0000
1000
0000
,
0000
0010
0000
0000
0001
0000
1000
0000
1001
0000
0000
1001
0000
0000
1001
0000
,
0000
1001
0000
0000
1001
0000
1001
0000
1001
0000
0000
1001
0000
0000
1001
0000
,
0000
1001
0000
0000
1001
0000
1001
0000
1001
0000
0000
1001
0000
0000
1001
0000
,
0000
1001
0000
0000
1001
0000
1001
0000
0000
0000
1000
0000
0001
0010
0100
1000
,
0002
0000
0000
0000
1103
0000
0000
0000
1000
0100
0010
0001
1000
0010
0100
0001
,
0010
0001
1000
0010
0100
0001
0010
0001
1000
0010
0100
0001
1000
0100
0010
0100
,
0010
0001
0100
0010
1000
0001
0100
0001
0010
0000
0100
0000
1000
0001
0100
0010
,
1000
0100
0010
0001
0010
0100
1000
0001
1000
0100
1000
0000
0001
0010
0001
0000
,
0100
0000
0000
0010
0000
0000
0000
0000
0000
1000
0000
0000
0100
0000
0000
1000
0000
0000
0100
0000
0000
0000
0000
0000
0010
0000
0001
0000
1000
0000
0010
0000
0100
0000
0001
0000
0010
0000
0001
0000
1000
0000
0100
0000
0010
0000
0001
0000
,
0010
0100
1000
0001
0100
0010
1000
0100
0010
0100
1000
0001
0010
0100
1000
0001
0100
0010
1000
0100
0010
0001
1000
0010
,
0100
0000
0000
0000
1001
1001
1001
1001
,
1001
0000
1001
0000
0100
0001
1000
0000
0100
0000
0010
0000
0001
0000
0100
0000
,
0010
0000
1000
0000
2002
0000
0000
0000
3003
0000
0100
0000
0010
0000
0000
0010
,
0100
0000
0001
1000
0100
0010
0100
1000
0000
0000
0001
0010
0000
0100
1000
0010
,
1000
0001
0010
0100
1000
0001
0100
0000
0100
0001
1000
0010
1000
0001
0010
0100
,
1000
0010
0100
0000
0001
0100
0001
0010
0100
0010
0001
1000
0100
0010
0001
1000
,
0010
0000
0100
0000
0001
0000
0000
0000
1000
0100
0010
0001
1000
0100
1000
0001
0010
0001
0000
0000
1000
0000
0100
0000
0010
0000
0100
0000
1000
0000
0001
0000
,
0010
0000
0010
0001
1000
0100
1000
0001
0100
0010
1000
0000
0100
0010
0100
0010
,
0000
0000
0001
0000
0010
0000
0100
0000
1000
0000
0001
0000
0010
0000
0100
0000
0000
0000
0001
0010
0001
1000
0010
0100
0001
1000
0100
0010
0100
0010
0000
0000
,
0001
0100
0010
0100
0001
1000
0010
1000
0010
1000
0001
0100
0001
0010
0100
1000
,
0100
0010
0000
0001
0100
0010
1000
0100
0000
0100
1000
0001
0010
0100
1000
0010
,
0100
0001
0100
0000
2002
0000
0000
0000
3003
0000
0010
0001
1000
0100
2000
0000
,
3000
0001
0010
0100
2000
0000
0000
0000
3000
0000
2002
0000
3003
0000
0010
0000
,
2002
0000
0000
3003
0010
0000
0000
0000
1000
0000
0100
0000
0100
0000
0000
0000
,
2000
0000
0000
0000
3000
0000
0000
0000
0011
0000
0000
0110
0000
0000
1100
0000
,
0000
0110
0000
0000
1100
0000
0010
0000
0110
0000
0000
0011
0000
0000
1100
0000
,
1000
0001
1000
0001
1000
0000
4004
0000
3003
0000
1000
0100
1000
0010
0000
0100
,
0000
0010
1000
0100
0000
0100
1000
0010
2000
0000
0000
0000
0000
0000
0000
0000
,
0000
0000
0000
0000
3010
0100
0001
1000
,
0100
0000
0010
0000
0001
0000
1000
0010
0100
0000
0000
0000
0001
0000
0000
0000
,
0100
0000
0001
0000
0100
0001
1000
0100
,
0010
0001
1000
0001
1000
0000
0100
0000
,
1000
0000
0000
0000
0000
0000
1000
0100
0010
0000
0001
0000
1000
0000
0100
0000
,
0010
0000
0001
0000
0010
0000
0001
0100
0010
0000
0100
0000
0001
0000
0010
0000
,
0001
0000
0000
0000
1000
0001
1000
0001
1000
0001
1000
0001
1000
0100
1000
0100
,
1000
0100
0010
0001
0010
0001
0000
0000
0111
0000
0000
0000
1100
0000
0000
0000
,
0020
0000
0000
0000
0000
0000
0000
0000
0000
0000
0000
0000
0000
0000
0000
0000
0000
0000
0000
0000
0000
0000
0000
0000
0000
0000
0000
0000
0000
0000
0000
0000
0000
0000
0000
0000
0000
0000
0000
0000
0000
0000
0000
0030
0000
0000
0000
0000
0200
0000
0000
0000
0000
0000
0000
0000
0000
0000
0000
0000
0000
0000
0000
0000
0000
0000
0000
0000
0000
0000
0000
0000
0000
0000
0000
0000
0000
0000
0000
0000
0000
0000
0000
0000
0000
0000
0000
0000
0000
0000
0000
0000
0000
0000
0000
0000
1300
0000
0000
0000
0000
0000
0000
0000
0000
0000
0000
0000
0100
0000
0000
0000
0000
0000
0000
0000
0000
0000
0000
0000
0010
0000
0000
0000
0000
0000
0000
0000
0000
0000
0000
0000
0001
0000
0000
0000
0000
0000
0000
0000
0000
0000
0000
0000
1000
0000
0000
0000
0000
0000
0000
0000
0000
0000
0000
0000
0100
0000
0000
0000
0000
0000
0000
0000
0000
0000
0000
0000
0010
0000
0000
0000
0000
0000
0000
0000
0000
0000
0000
0000
0100
0000
0000
0000
0000
0000
0000
0000
0000
0000
0000
0000
,
1000
0001
0010
0001
1000
0010
0100
0001
1000
0100
0010
0100
0010
0001
0100
0001
,
0100
0001
0010
0100
1000
0001
0010
0001
0100
0000
0100
0001
1000
0010
0100
0001
,
0100
0010
1000
0001
0010
0001
1000
0100
0010
0001
1000
0100
1000
0100
1000
0010
,
0100
0010
1000
0001
0100
0001
1000
0010
0100
0001
0010
0100
1000
0001
0010
0001
,
1000
0010
0100
0001
1000
0100
0010
0001
0010
0100
0010
0001
1000
0000
0001
0100
,
0010
1000
0001
0010
0001
0100
0010
1000
0010
1000
0010
0100
0001
0010
0001
0100
,
0010
0000
0100
0000
0010
0000
1000
0000
0002
0000
0000
0000
0000
0003
0000
2000
,
0000
0000
0000
0000
0000
0000
0000
0000
3000
0001
0010
0100
1000
0010
0100
0010
,
0100
0001
0010
0100
0010
0001
1000
0000
0110
0000
0110
0000
0110
0000
0110
0000
,
0110
0000
0000
0000
0002
0000
0000
0003
1000
0100
0010
0100
1000
0001
0100
0010
,
1000
0100
0010
0000
0001
0010
0001
1000
0010
0100
0001
1000
0010
0100
0001
0010
,
0100
1000
0001
0010
0100
0010
0001
1000
0010
0100
0001
0010
0001
1000
0100
0010
,
0001
1000
0010
0100
0001
0010
0100
1000
0100
1000
0100
0010
0001
0000
0010
0001
,
0010
0100
1000
0100
0010
0001
1000
0000
1001
0000
1001
0000
1001
0000
1001
0000
,
1001
0000
0000
0000
0000
0000
1000
0000
0100
0000
0010
0000
0001
0000
0010
0000
0100
0000
1000
0000
0000
0000
0000
0000
2000
0000
0000
0000
0000
0000
0000
0000
0000
0000
0000
0000
0000
0000
0000
0000
0000
0000
3000
0000
0000
0002
0000
0000
,
0000
0000
0000
0000
0000
0000
0000
0000
1003
0000
0000
0100
0000
0000
0010
0000
,
0000
0100
0000
0000
1000
0000
0010
0000
1100
0000
0000
0110
0000
0000
0011
0000
,
1000
0000
0100
0000
0010
0000
0001
0000
0010
0000
0100
0000
1000
0000
0000
0000
0000
0000
0000
0000
0000
0000
0000
0000
0010
0000
0000
0000
0000
0000
0000
0000
0000
0100
0000
0000
0000
0000
0000
0000
0000
0000
1000
0000
0000
0000
0000
0000
,
0000
0001
0000
0000
0100
0000
0010
0000
0110
0000
0000
1100
0000
0000
0110
0000
,
0001
0000
0010
0000
0100
0000
1000
0000
0100
0000
0010
0000
0001
0000
0000
0000
0000
0000
0100
0000
0000
0000
0000
0000
0010
0000
0000
0000
0000
0000
0000
0000
0000
1001
0000
0000
0000
0000
0000
0000
0000
0000
1001
0000
0000
0000
0000
0000
,
0000
1001
0000
0000
1100
0000
0011
0000
1001
0000
0000
1001
0000
0000
1001
0000
,
0000
1001
0000
0000
0011
0000
1100
0000
1001
0000
0000
1001
0000
0000
1001
0000
,
0000
1001
0000
0000
1001
0000
1001
0000
1001
0000
0010
0100
1000
0001
0010
0000
,
0200
0000
0000
0000
0000
0000
0000
0000
1300
0001
0100
0010
1000
0001
0010
0100
,
1000
0001
0100
0010
0100
0001
0010
0001
1000
0010
1000
0100
1000
0001
0010
0100
,
1000
0001
0010
0100
0000
0100
1000
0001
0010
0001
0010
0100
1000
0001
1000
0100
,
0010
0001
0100
0001
0010
0100
1000
0010
0100
0010
0100
0001
0010
0001
0100
0010
,
1000
0001
0010
0100
0010
0001
1000
0100
0010
0001
1000
0100
1000
0010
0100
0001
,
0100
0010
1000
0001
0010
0100
1000
0001
0100
0010
1000
0001
0100
0010
1000
0010
,
0100
0001
1000
0100
0010
0001
1000
0010
0100
0001
0010
0001
0010
0100
1000
0001
,
0010
0001
0000
0010
0001
1000
0100
0010
0001
1000
0100
0010
0100
1000
0001
0010
,
0100
0010
0000
0000
0220
0000
0000
0330
0001
0010
0100
1000
0001
0010
0000
0010
,
0001
1000
0010
0100
0001
0010
0100
0010
0001
1000
0010
0100
0001
1000
0010
1000
,
0100
0010
0001
1000
0100
1000
0001
0010
0001
0010
0001
0100
0010
0000
0000
1000
,
0010
0100
0001
1000
0100
0010
0100
1000
0001
0010
0100
1000
0001
0010
0001
0010
,
0100
1000
0000
0100
1000
0001
0100
0010
1000
0100
0010
0001
1000
0100
1000
0100
,
0010
0001
0010
0001
1000
0100
0010
0001
1000
0100
0010
0100
1000
0001
0010
0100
,
1000
0001
1000
0100
0010
0100
1000
0000
1000
0100
1000
0100
0010
0001
0010
0001
,
0100
0010
0100
0010
1000
0100
1000
0100
0000
0010
0000
0001
0100
0010
0100
0001
,
2000
0000
0000
0000
0000
0000
3000
0000
1001
0000
0000
1001
0000
0000
1001
0000
,
0000
1001
0000
0000
1001
0000
1001
0000
1001
0000
0000
1001
0000
0000
1001
0000
,
0010
1000
0100
0010
0001
0000
0000
0000
1001
0000
0000
0110
0000
0000
1001
0000
,
0000
0000
0110
0000
0000
0000
0000
0000
0110
0000
0000
0000
0110
0000
0000
0000
2002
0000
0000
0000
0000
0000
0000
0000
0000
0000
0000
0000
0000
0000
0000
0003
,
0000
0000
0000
0000
,
0000
0000
0000
0000
0000
0000
0000
0000
0000
0000
0000
0000
0000
0000
0000
0000
0000
0000
0000
0000
0000
0000
0000
0000
0000
0000
0000
0000
0000
0000
0000
0000
0000
0000
0000
0000
0000
0000
0000
0000
0000
0000
0000
0000
0000
0000
0000
0000
0000
0000
0000
0000
0000
0000
0000
0000
0000
3000
0000
0000
0000
0000
0000
0000
;
